#TITLE:Feel the Soul;
#SUBTITLE:;
#ARTIST:Seo Taiji;
#TITLETRANSLIT:;
#SUBTITLETRANSLIT:;
#ARTISTTRANSLIT:;
#CRChallenge:;
#BANNER:soul.png;
#BACKGROUND:soul-bg.png;
#LYRICSPATH:;
#CDTITLE:;
#MUSIC:soul.ogg;
#OFFSET:0.000;
#SAMPLESTART:43.177;
#SAMPLELENGTH:12.000;
#SELECTABLE:YES;
#BPMS:0.000=93.800;
#STOPS:;
#BGCHANGES:;
#NOTES:
     dance-single:
     Renard:
     Medium:
     9:
     0.589,0.638,0.378,0.126,0.658:
0000
0000
0000
0000
,
0000
0000
0000
0000
,
0000
0000
0000
0000
,
0000
0000
0000
0000
0000
0000
0000
0000
0000
0000
0000
0000
0001
1000
0000
0000
,
0001
0100
0000
0010
1000
0000
0100
0010
0001
0010
0100
1000
0001
0100
0000
0000
,
0010
1000
0000
0001
0100
0000
0010
1000
0100
0010
0100
1000
0001
0100
0000
0000
,
0001
1000
0000
0100
0010
0000
0001
0010
0100
1000
0001
0100
0010
1000
0000
0010
,
1000
0100
0010
0001
0010
0000
0001
0010
0100
1000
0001
0100
0010
1000
0000
1001
,
0000
0110
0000
1001
0000
0020
0200
0000
0000
0000
0000
0000
0000
0000
0330
0000
,
0010
1000
0010
1000
0001
1000
0001
1000
0100
0000
0100
1000
0000
1000
0100
0000
,
1000
0001
1000
0001
0100
0001
0100
0001
0010
0000
0010
0001
0000
0001
1000
0000
,
0001
0100
0001
0100
0010
0100
0010
0100
0010
1000
0100
0010
0000
0010
0100
0000
,
1000
0010
1000
0000
0001
0100
0001
0000
1000
0100
0010
0001
0010
0100
1000
0000
,
0001
0100
0001
0000
1000
0010
1000
0000
0001
0010
0100
1000
0001
0100
0001
0000
,
1000
0100
1000
0000
0001
0010
0001
0000
1000
0010
1000
0001
0100
0010
1000
0000
,
0001
0010
0001
0000
1000
0100
1000
0000
0001
0100
0001
1000
0010
1000
0001
0000
,
1000
0000
0001
0100
0010
0000
1000
0000
0010
0000
1001
0000
0000
0000
1001
0000
,
0110
0000
0010
1000
0100
0010
0001
0010
0100
0000
1000
0000
1100
0000
0110
0000
,
0011
0000
0001
0010
0100
1000
0001
0100
0010
0000
0010
0000
1010
0000
0010
0000
,
0110
0000
0010
1000
0100
0010
0001
0000
0011
0000
0010
0000
0110
0000
0100
0000
,
1100
0000
1000
0000
0001
0100
0000
0101
0000
0010
1000
0100
0010
0001
0010
0100
,
1000
0000
0001
0000
1001
0000
1000
0010
0100
0001
0100
0000
0101
0000
0110
0000
,
0101
0000
0001
0100
0010
0000
1000
0010
0100
0000
0010
0000
1010
0000
0100
0000
,
0101
0000
0001
1000
0100
0010
0001
0000
0011
0000
0010
0100
1000
0001
0100
0000
,
0101
0000
0100
0000
0010
1000
0000
1010
0000
0010
0100
0001
0010
0100
1000
0000
,
0002
0000
0000
0000
0000
0000
0000
0000
1003
0100
0010
0001
0010
0100
1000
0000
,
0001
0100
0001
0100
0010
1000
0100
0010
0001
0010
0100
1000
0010
0100
0001
1000
,
0100
1000
0010
0100
0001
0010
0100
0010
0001
0100
0010
1000
0100
0010
0010
0010
,
0100
1000
0010
0100
0001
0010
0010
0001
0100
0010
1000
0100
0100
1000
0010
0100
,
0001
0010
0001
1000
0010
0100
0001
1000
0100
0100
0010
0010
0001
0001
1000
0000
,
0002
0000
0000
0000
0100
0100
0010
0010
,
2000
0000
0003
0020
0000
3000
0200
0030
,
0002
0000
0000
0300
1000
1000
0010
0010
,
2003
0000
0000
0200
0000
3000
0020
0300
,
0002
0000
0000
0000
0000
0000
0000
0030
,
2000
0000
0000
3003
1011
0000
0111
0000
,
1011
1110
1011
0111
,
1011
1110
1011
0111
,
1011
1110
1011
0111
,
1000
0001
0100
0010
1000
1000
0001
0000
1000
0000
1000
0000
0100
1000
0100
0011
;
#NOTES:
     dance-single:
     Renard:
     Easy:
     5:
     0.297,0.348,0.320,0.068,0.005:
0000
0000
0000
0000
,
0000
0000
0000
0000
,
0000
0000
0000
0000
,
0000
0000
0000
1011
,
1000
0000
1001
0000
0001
0000
0100
0010
,
1000
0000
1010
0000
0100
0000
0001
1000
,
1100
0000
1001
0000
1000
0000
0010
0100
,
0001
0000
0100
0000
0010
1000
0010
0000
,
0100
0000
0000
1001
0000
0000
0000
0000
,
0001
0100
0001
0100
0010
0000
0010
0000
,
1000
0100
1000
0100
0010
0000
0010
0000
,
0001
0010
0001
0010
0100
0000
0100
0000
,
1000
0010
1000
0010
0100
0000
0100
0000
,
0001
0000
1001
0000
1000
0010
0100
0000
,
0001
0000
1001
0000
1000
0100
0010
0000
,
0001
0000
1001
0000
0001
0100
0010
0000
,
0010
1000
0010
0100
0001
0000
0000
1000
,
1001
0000
0110
0000
1001
0000
0001
0100
,
0110
0000
0001
0000
0100
0010
1000
0000
,
1001
0000
1000
0000
0100
1000
0010
1000
,
0010
0010
0100
0100
0010
0010
0100
0001
,
0101
0000
0110
0000
0010
1000
1001
0000
,
0110
0000
0010
1000
1010
0000
0101
0000
,
1001
0000
0001
0000
1000
0100
1100
0000
,
0011
0000
0001
0000
1000
0010
1000
0001
,
0100
0100
0100
0100
,
0010
0010
1000
1000
0010
0010
1000
0000
,
0001
0001
0100
0100
0001
0001
0100
0000
,
0001
0001
1000
1000
0100
0100
1000
0000
,
0001
0001
0010
0010
0001
0000
0000
0000
,
1000
0000
0001
1000
,
0020
0000
0000
0230
0000
0000
0000
0000
,
0302
0000
0000
0000
,
2003
0000
0000
3020
0000
0000
0000
0000
,
0230
0000
0000
0000
,
0302
0000
1010
0000
,
1003
0000
0110
0000
1000
0010
0100
0001
,
1000
0010
1001
0000
0100
0000
1001
0000
,
0100
0010
0100
0000
1001
0000
0101
0000
,
1001
0000
0000
0000
0000
0000
0000
0000
1001
0000
0000
0000
1100
0000
0000
1010
;
#NOTES:
     dance-single:
     Renard:
     Beginner:
     2:
     0.223,0.310,0.329,0.077,0.000:
0000
0000
0000
0000
,
0000
0000
0000
0000
,
0000
0000
0000
0000
,
0000
0000
0000
0000
,
1000
0000
1001
0000
0001
0100
0001
0000
,
1000
0000
1001
0000
1000
0100
1000
0000
,
0001
0000
1001
0000
0001
0100
0001
0000
,
1000
0000
1001
0000
0001
0010
0001
0000
,
1000
0000
0000
1010
0000
0000
0000
0000
,
1000
1000
0001
0110
,
0001
0001
1000
0110
,
0010
1000
0010
0101
,
0001
0010
0001
1100
,
0010
1010
0000
0101
,
0001
0011
0000
1100
,
1000
1010
0000
0110
,
0000
0000
0101
0000
0000
0000
0000
0001
,
1000
0000
0000
0000
0000
0000
0010
0100
,
0010
0000
0000
0000
1000
1000
0010
0000
,
0100
0000
0000
0000
0000
0000
0001
0001
,
1000
0000
1000
0000
0001
0000
0001
1000
,
0001
0000
0000
0000
0000
0000
0001
1000
,
0100
0000
0100
0010
,
0011
0000
0000
0000
0000
0000
0001
1000
,
0010
0000
0010
0000
0100
0010
0100
0000
,
0210
0000
0000
0000
,
0301
0001
0100
0010
,
1000
0010
1000
0000
0010
0000
0100
0000
,
0001
0000
1000
0000
0100
0000
1000
0001
,
1000
0010
0100
0001
,
1002
0000
0000
0000
,
0203
0000
0000
0000
,
0320
0000
0000
0000
,
2030
0000
0000
0000
,
3002
0000
0000
0000
,
0203
0000
0000
0000
0020
0000
0000
0330
,
0110
1001
0000
1001
,
0110
1001
1100
1010
,
1001
1100
1001
0101
,
0011
0000
1001
0110
,
1001
0000
0000
0000
;
