#TITLE:Feel the Soul EX;
#SUBTITLE:;
#ARTIST:Seo Taiji;
#TITLETRANSLIT:;
#SUBTITLETRANSLIT:;
#ARTISTTRANSLIT:;
#CRChallenge:;
#BANNER:soul.png;
#BACKGROUND:soul-bg.png;
#LYRICSPATH:;
#CDTITLE:;
#MUSIC:soul.ogg;
#OFFSET:0.000;
#SAMPLESTART:43.157;
#SAMPLELENGTH:12.000;
#SELECTABLE:NO;
#BPMS:0.000=96.050,60.000=192.100,132.000=188.000;
#STOPS:;
#BGCHANGES:;
#NOTES:
     dance-single:
     Renard:
     Hard:
     12:
     0.810,1.000,0.732,0.139,0.479:
0000
0000
0000
0000
,
0000
0000
0000
0000
,
0001
0100
1000
0100
0001
0000
0101
0000
0001
0100
0001
0010
1000
0010
0001
0100
,
1000
0100
0001
0010
0100
1000
1100
0000
0100
1000
0010
0100
0001
0000
0011
0000
,
0010
0100
1000
0010
0100
0001
0101
0000
0001
0100
0010
1000
0100
0000
0101
0000
,
1100
0000
1000
0010
0001
0000
0011
0000
0001
0010
1000
0010
0100
0001
1000
0100
,
0010
0001
0010
1000
0010
0000
1010
0000
0010
0001
0100
1000
1100
0000
0100
0010
,
1000
0100
0001
0100
1000
0000
1100
0000
1000
0100
0001
0100
1000
0001
0010
0100
,
1000
0010
0100
0001
0100
0000
0101
0000
0100
1000
0001
0000
0001
0010
1000
0100
,
0001
0100
1000
0100
0001
0000
0101
0000
0100
1000
0010
0100
0001
0010
0100
1000
,
1001
0000
1001
0000
0000
0000
0110
0000
0110
0000
0000
0000
1001
0000
1001
0000
0000
0000
0110
0000
0110
0000
0000
0000
1001
0000
0000
0000
0001
0000
1000
0001
,
1000
0100
1000
0100
0010
0100
0010
0100
0010
0001
0100
0010
1000
0100
0010
0001
,
0010
0001
0010
0001
0010
0100
0010
0100
1000
0001
0100
0010
1000
0100
0010
0001
,
1000
0010
1000
0010
0100
0010
0100
0010
0100
0001
0010
0100
1000
0100
0010
0001
,
0100
0010
0100
0010
0100
0001
0100
0001
1000
0100
0010
0001
1000
0001
0100
0000
,
0001
0000
0100
0001
0100
0000
0001
1000
0001
0000
1000
0100
1000
0000
0001
0000
,
1001
0100
0010
1001
0010
0100
1001
0100
,
0001
0000
1000
0100
1000
0000
0001
0100
0001
0000
1000
0100
1000
0000
0001
0000
,
1010
0100
0001
1010
0100
0001
1001
0100
,
1000
0000
0010
1000
0010
0000
1000
0001
1000
0000
0001
0010
0001
0000
1000
0000
,
1001
0010
0100
1001
0100
0010
1001
0010
,
1000
0000
0001
0010
0001
0000
1000
0010
1000
0000
0001
0010
0001
0000
1000
0000
,
0101
0000
0010
0000
1000
0000
0101
0000
0010
0000
1000
0000
0001
0010
0100
1000
,
0001
0000
0100
0001
0100
0000
0001
1000
0001
0000
1000
0100
1000
0000
0001
0000
,
1001
0100
0010
1001
0010
0100
1001
0100
,
0001
0000
1000
0100
1000
0000
0001
0100
0001
0000
1000
0100
1000
0000
0001
0000
,
1010
0100
0001
1010
0100
0001
1001
0100
,
1000
0000
0010
1000
0010
0000
1000
0001
1000
0000
0001
0010
0001
0000
1000
0000
,
1001
0010
0100
1001
0100
0010
1001
0010
,
1000
0000
0001
0010
0001
0000
1000
0010
1000
0000
0001
0010
0001
0000
1000
0000
,
0101
0000
0010
0000
1000
0000
0101
0000
0010
0000
1000
0000
0001
0010
0100
1000
,
0001
0010
0100
1000
0000
0000
0000
0000
0000
0000
0000
0000
0000
0000
0000
0000
,
0000
0000
0000
0000
,
0001
0100
1000
0100
0001
0010
1000
0010
,
0001
0100
1000
0100
0001
0010
1010
0000
,
0010
1000
0010
0001
0010
0100
0001
0100
,
1000
0100
0010
0001
0010
1000
1010
0000
,
1000
0010
0001
0100
1000
0100
0001
0010
,
1000
0010
0100
0001
0100
1000
1100
0000
,
1000
0010
0001
0010
0100
1000
0100
0001
,
0010
0100
0001
0100
1000
0000
2200
0000
,
3310
0000
1110
0000
1000
0100
0010
0001
,
0100
0001
0101
0111
,
0101
0000
0001
0100
0010
1000
0100
0000
,
1100
1110
1001
1011
,
0101
0000
0111
0000
0001
1000
0100
0010
,
0001
0000
1011
0000
0001
0010
0100
0000
,
1100
1110
1000
1001
,
0101
0111
1001
1011
,
0111
0000
0010
1000
0100
0010
0001
0010
,
0100
1001
1100
1110
,
1001
0000
1011
0000
0001
0100
0010
1000
,
0100
1110
1001
1011
,
0101
0000
0111
0000
0001
0100
0010
1000
,
0100
0010
0001
0000
0101
0000
0111
0000
,
1011
0001
1000
0000
,
0010
0000
0000
0100
0000
0000
0001
0000
,
2001
0000
0000
0000
,
0100
3200
0010
0320
,
0002
0000
0030
2000
,
0000
0000
0000
0003
,
0020
0000
0000
3000
,
0100
0230
0001
0302
,
2000
0000
0003
0020
,
0000
3000
0200
0030
,
0001
0001
0010
0010
,
0001
0001
0010
0320
,
1000
1000
0100
0100
,
1000
1000
0100
0100
,
2030
0100
0010
0001
,
3002
1000
0100
0010
,
1000
1000
1003
0000
,
1011
0000
0000
0000
,
0001
0100
0111
0000
1000
0100
1110
0000
,
0001
0100
0111
0000
0000
0000
0000
0000
;
