#TITLE:Fear;
#SUBTITLE:;
#ARTIST:Adam Freeland;
#TITLETRANSLIT:;
#SUBTITLETRANSLIT:;
#ARTISTTRANSLIT:;
#CRChallenge:;
#BANNER:fear.png;
#BACKGROUND:fear-bg.png;
#LYRICSPATH:;
#CDTITLE:!cdtitle.png;
#MUSIC:fear2.ogg;
#OFFSET:0.000;
#SAMPLESTART:37.331;
#SAMPLELENGTH:12.000;
#SELECTABLE:YES;
#BPMS:0.000=91.000;
#STOPS:;
#BGCHANGES:;
#NOTES:
     dance-single:
     Renard:
     Hard:
     9:
     0.680,0.597,0.845,0.000,1.000:
0000
0000
0000
0000
,
0001
0001
0010
0100
1000
0000
0010
0000
1000
0000
0101
0000
1010
0000
1000
0000
,
0100
0100
0010
0010
0001
0000
0010
0000
0100
0000
1100
0000
0011
0000
0000
0000
,
0001
0001
0010
0010
0100
0000
1000
0000
0010
0000
1010
0000
0101
0000
0001
0100
,
0010
0010
1000
1000
0100
0000
0010
0000
0011
0000
1100
0000
0011
0000
0000
0000
,
0001
0000
0010
0000
1100
0000
1000
0000
0010
0100
0000
0101
0000
1010
0000
1000
,
0100
0000
0010
0000
0011
0000
0010
0000
0100
1000
0000
1010
0000
0101
0000
0010
,
1000
0000
0100
0000
1100
0000
1000
0000
0001
0010
0000
1100
0000
0011
0000
0001
,
0100
0000
0010
0000
1010
0000
1000
0000
0100
0010
0000
0011
0000
0110
0000
0100
,
1000
0000
0001
0000
0101
0000
0100
0010
1000
0100
0000
1100
0000
0011
0000
1000
,
0100
0000
1100
0000
0011
0000
0000
1000
0010
0100
0000
0101
0000
1010
0000
1000
,
0001
0000
0010
0000
0011
0000
0000
0010
0100
1000
0000
1100
0000
0011
0000
1000
,
0010
0000
0100
0000
0101
0000
0000
0001
0100
0010
0000
1010
0000
1010
0000
0010
,
1000
0000
0001
0000
0001
0000
0000
1000
0000
0001
0000
1000
0000
0001
1000
0000
,
0101
0000
0000
0110
0000
1010
0000
1100
0000
0110
0000
0010
0001
0010
0100
1000
,
0100
0000
0000
1100
0000
0011
0000
0101
0000
1010
0000
1000
0010
0100
0001
0010
,
0100
0000
0000
0110
0000
0011
0000
1100
0000
0110
0000
0010
0001
0010
0100
1000
,
0001
0000
0000
0101
0000
1010
0000
1001
0000
1100
0000
1000
0100
0010
0001
1000
,
0001
0000
0000
M1M1
0000
M11M
0000
1M1M
0000
11MM
0000
1000
0100
0010
0001
1000
,
0001
0000
0000
M1M1
0000
1M1M
0000
MM11
0000
11MM
0000
1000
0100
0010
0001
1000
,
0001
0000
0000
M1M1
0000
1M1M
0000
11MM
0000
MM11
0000
0010
0001
0010
0100
1000
,
0001
0000
0000
M1M1
0000
1M1M
0000
0000
0010
0000
1000
0100
0000
0010
0001
0000
,
1000
0100
1000
0100
0010
0100
0010
0100
0001
0100
0001
0100
0010
0100
0010
0100
,
1000
0100
1000
0100
1000
0010
1000
0010
0100
0010
0100
0010
0001
0010
0001
0010
,
0100
0010
0100
0010
0100
1000
0100
1000
0100
0001
0100
0001
0010
0001
0010
0001
,
0010
1000
0010
1000
0010
0100
0010
0100
0001
0100
0001
0100
1000
0100
1000
0100
,
1000
0010
1000
0010
0100
0010
0100
0010
0001
0010
0001
0010
0100
0010
0100
0010
,
0100
1000
0100
1000
0100
0010
0100
0010
0100
0001
0100
0001
0010
0001
0010
0001
,
0010
0100
0010
0100
0001
0100
0001
0100
1000
0100
1000
0100
0010
0100
0010
0100
,
0010
1000
0010
1000
0010
0001
0010
0001
1000
0001
0000
0001
0000
0001
1000
0000
,
0001
0000
0100
0000
0101
0000
0001
0100
0001
0100
0001
0000
0001
0100
0000
0100
,
0010
0000
1000
0000
1010
0000
1000
0010
1000
0010
1000
0000
1000
0010
0000
0010
,
0100
0000
0001
0000
0101
0000
0010
1000
0010
0100
0001
0000
1000
0010
0000
1000
,
0001
0100
0001
0100
0001
0000
0100
0000
0000
0000
0001
0000
0100
0000
0000
0000
0001
0000
0100
0000
0010
0000
1000
0000
0000
0000
0000
0000
0010
0000
0010
0000
,
1000
0000
0000
1010
0000
0101
0000
0011
0000
0110
0000
0010
0100
0010
0001
0010
,
0100
0000
0000
0110
0000
1100
0000
0011
0000
0110
0000
0100
1000
0001
0100
0010
,
1000
0000
0000
1010
0000
0101
0000
0110
0000
1010
0000
1000
0100
0010
0001
0010
,
0100
0000
0000
0110
0000
0011
0000
1100
0000
0011
0000
0010
0001
0010
0100
1000
,
0001
0000
0000
M1M1
0000
1M1M
0000
11MM
0000
MM11
0000
0010
0001
0010
0100
1000
,
0001
0000
0000
M1M1
0000
1M1M
0000
11MM
0000
MM11
0000
0010
0001
0010
0100
1000
,
0001
0000
0000
M1M1
0000
1M1M
0000
11MM
0000
MM11
0000
0010
0100
1000
0001
0100
,
0010
1000
0010
1000
0010
0000
1000
0000
0000
0000
0001
0000
0100
0000
0000
0000
0010
0000
1000
0000
0100
0000
0010
0000
0000
0000
0000
0000
0011
0000
0000
0000
,
1010
0000
0000
0000
;
#NOTES:
     dance-single:
     Renard:
     Medium:
     8:
     0.516,0.525,0.517,0.000,0.750:
0000
0000
0000
0000
,
0001
0001
0011
0000
0100
1000
1100
0000
,
1000
1000
1010
0000
0100
0001
0101
0000
,
0001
0001
0011
0000
0100
1000
1100
0000
,
1000
1000
1001
0000
0001
0000
1001
0000
,
1000
0000
0000
0000
1100
0000
0000
0000
1000
0100
0000
0010
0000
0001
0000
1000
,
0001
0000
0000
0000
0101
0000
0000
0000
0001
0010
0000
0100
0000
1000
0000
0010
,
0100
0000
0000
0000
0110
0000
0000
0000
0010
1000
0000
0001
0000
0100
0000
0001
,
0010
0000
0000
0000
0011
0000
0000
0000
0010
0001
0000
1000
0000
0100
0000
0010
,
0001
0000
0000
0000
0101
0000
0000
0100
0010
1000
0000
0100
0000
0010
0000
0001
,
0010
0000
0000
0000
0011
0000
0000
0010
0001
0100
0000
0010
0000
1000
0000
0100
,
1000
0000
0000
0000
1100
0000
0000
0100
1000
0010
0000
0100
0000
0001
0000
0010
,
0100
0000
0000
0000
1100
0000
0000
1000
0100
0010
0000
0001
0000
1000
0000
0001
,
0100
0000
0000
0000
0010
0000
0000
0010
0000
0010
0000
0010
0000
0010
0100
0000
,
0010
0000
0000
0010
0000
1000
0000
0010
0000
1000
0010
1000
0010
1000
0010
0000
,
0100
0000
0000
0001
0000
0100
0000
0001
0000
0100
0000
0001
0100
0001
0100
0000
,
0001
0000
0000
0010
0000
0001
0000
0010
0000
0001
0000
0010
0001
0010
0001
0000
,
1000
0000
0000
0100
0000
1000
0000
0100
0000
1000
0000
0100
1000
0100
1000
0000
,
1000
0000
0000
0100
0000
0010
0000
0001
0000
0010
0000
0100
1000
0100
1000
0000
,
0001
0000
0000
0010
0000
0001
0000
1000
0000
0100
0000
0010
0001
0010
0001
0000
,
1000
0000
0000
0010
0000
0100
0000
0001
0000
0100
0000
0010
1000
0010
1000
0000
,
0010
0000
0000
0100
0000
0001
0000
0100
0000
0010
0000
1000
0010
1000
0010
0000
,
1000
0000
0010
0000
1010
0000
1000
0000
0010
1000
0010
1000
0010
0000
1000
0000
,
0001
0000
0100
0000
0101
0000
0100
0000
0001
0100
0001
0100
0001
0000
0100
0000
,
0001
0000
0010
0000
0011
0000
0010
0000
0001
0010
0001
0010
0001
0000
0011
0000
,
1000
0000
0100
0000
1100
0000
1000
0000
0100
1000
0100
1000
0100
0000
1100
0000
,
1000
0000
0001
0000
1001
0000
0001
0000
0100
0001
0100
0001
0100
0000
0001
0000
,
1000
0000
0001
0000
1001
0000
1000
0000
0100
1000
0100
1000
0100
0000
1000
0000
,
0001
0000
0100
0000
0101
0000
0001
0100
0001
0100
0001
0000
0100
0000
0101
0000
,
0001
0000
1000
0000
1001
0000
1000
0001
1000
0001
0000
0010
0000
0100
1000
0000
,
0001
0000
0100
0000
0101
0000
0000
0000
0100
0010
0000
1000
0000
0100
0000
0010
,
0001
0000
0010
0000
0011
0000
0000
0000
0001
0010
0000
0100
0000
1000
0000
0001
,
0100
0000
0010
0000
1010
0000
0000
0000
1000
0010
0000
0100
0000
0001
0000
0001
,
1000
0100
0010
0001
0010
0100
1000
0000
0001
0010
0100
1000
0000
0000
0100
1000
,
0100
0000
0000
1100
0000
1100
0000
1100
0000
1100
0000
1000
0100
0010
0001
0000
,
0010
0000
0000
0011
0000
0011
0000
0011
0000
0011
0000
0001
0010
0100
1000
0000
,
0100
0000
0000
1100
0000
1100
0000
1100
0000
1100
0000
1000
0100
0010
0001
0000
,
0010
0000
0000
0011
0000
0011
0000
0011
0000
0011
0000
0001
0010
0100
1000
0000
,
0010
0000
0000
1010
0000
1001
0000
1010
0000
1001
0000
1000
0010
1000
0001
0100
,
0001
0000
0000
0101
0000
1001
0000
0101
0000
1001
0000
0001
0100
0010
1000
0010
,
1000
0000
0000
1010
0000
1001
0000
1010
0000
1001
0000
1000
0010
1000
0001
0100
,
0001
0010
0100
1000
0100
0010
0001
0000
0010
0100
1000
0001
0000
0000
0011
0000
,
1100
0000
0000
0000
;
#NOTES:
     dance-single:
     Renard:
     Easy:
     7:
     0.300,0.305,0.207,0.000,0.000:
0000
0000
0000
0000
,
0000
0000
0000
0000
,
0000
0000
0000
0000
,
0000
0000
0000
0000
,
0000
0000
0000
1001
,
1000
0100
1100
0000
0010
0000
0001
0000
,
0100
0001
0101
0000
0001
0000
0100
0000
,
0010
1000
1001
0000
0001
0000
1000
0000
,
0001
0010
1001
0000
1000
0000
1001
0000
,
0001
0100
1001
0000
1000
0000
1001
0000
,
1000
0100
1001
0000
0001
0000
1001
0000
,
0001
0010
1001
0000
1000
0000
1001
0000
,
1000
0010
1001
0000
0001
0000
1000
0000
,
0001
0100
0010
0000
1000
0010
1000
0010
,
0100
0000
0001
1000
0100
0010
0001
1000
,
0001
0000
0010
0100
1000
0001
0100
0010
,
1000
0000
0001
0100
0001
1000
0100
1000
,
0001
0000
0010
0001
0010
0001
0010
0001
,
1000
0000
1010
0000
0010
0100
0001
0010
,
0100
0000
0110
0000
0100
1000
0010
0001
,
0010
0000
1010
0000
0010
0100
0001
0010
,
1000
1010
0010
0011
,
0001
0000
1000
0000
0001
0100
0010
1000
,
0100
0000
1000
0000
0001
0010
0100
0000
,
1000
0000
0001
0000
0100
0010
1000
0100
,
0010
0000
0001
0000
1000
0001
1000
0000
,
0001
0100
0010
0100
0010
1000
0010
0100
,
0001
0100
0010
0100
0010
1000
0010
0100
,
0001
0100
0010
0100
0010
1000
0010
0100
,
0010
1000
0001
1000
0100
0000
0010
0000
,
0001
0000
0011
0000
0000
1000
1100
0000
,
1000
0000
1010
0000
0000
0100
0101
0000
,
0001
0000
0011
0000
0000
0100
1100
0000
,
1000
0000
0001
0000
1000
0001
1000
0000
,
0001
0000
0001
0100
0010
1000
0001
1000
,
0001
0000
1000
0100
0010
0001
1000
0001
,
1000
0000
0001
0010
0100
1000
0001
1000
,
0001
0000
0001
0100
0010
0000
0010
1000
,
0100
0000
0100
1000
0001
1000
0010
1000
,
0001
0000
0010
0001
1000
0001
0100
0001
,
1000
0000
0001
0010
0001
1000
0100
1000
,
0001
0000
0100
0001
1000
0010
0000
0000
;
#NOTES:
     dance-single:
     Renard:
     Beginner:
     2:
     0.201,0.326,0.293,0.052,0.000:
0000
0000
0000
0000
,
0000
0000
0000
0000
,
0000
0000
0000
0000
,
0000
0000
0000
0000
,
0000
0000
0000
1001
,
1000
1000
0010
0000
,
0001
0001
0010
0000
,
1000
1000
0100
0000
,
0001
0001
0100
0000
,
1000
1000
0010
0000
,
0001
0001
0010
0000
,
1000
1000
0100
0000
,
0001
0001
0100
0000
,
1000
0000
0000
0000
,
0001
0001
0100
0100
,
0001
0001
0100
0100
,
0010
0010
1000
1000
,
0010
0010
1000
1000
,
0001
0001
0100
0100
,
0010
0010
1000
1000
,
0001
0001
0100
0100
,
0010
0010
1000
1000
,
0002
0000
1000
0100
,
1000
0000
1000
0100
,
2003
0000
0001
0100
,
0001
0000
0001
0100
,
3002
0000
1000
0100
,
1000
0000
1000
0100
,
2003
0000
0001
0100
,
0001
0000
0001
0100
,
3002
1000
0000
1000
,
0000
0001
0000
0001
,
0000
1000
0000
0001
,
2002
0000
0000
3003
,
0110
0110
1001
1001
,
0110
0110
1001
1001
,
0110
0110
1001
1001
,
0110
0110
1001
1001
,
0101
0101
1010
1010
,
0011
0011
1100
1100
,
0101
0101
1010
1010
,
0011
0011
1100
1001
,
0010
0000
0000
0000
;
