#TITLE:Face Was;
#SUBTITLE:;
#ARTIST:m1dy;
#TITLETRANSLIT:;
#SUBTITLETRANSLIT:;
#ARTISTTRANSLIT:;
#CRChallenge:;
#BANNER:face-banner.avi;
#BACKGROUND:face-bg.png;
#LYRICSPATH:;
#CDTITLE:;
#MUSIC:face.ogg;
#OFFSET:0.000;
#SAMPLESTART:21.434;
#SAMPLELENGTH:12.000;
#SELECTABLE:YES;
#BPMS:0.000=420.000,128.000=210.000,140.000=420.000,388.000=210.000,392.000=420.000,520.000=210.000,528.000=420.000;
#STOPS:;
#BGCHANGES:;
#NOTES:
     dance-single:
     Renard:
     Challenge:
     12:
     0.921,1.000,0.136,0.253,0.000:
0000
0000
0000
0000
,
0000
0000
0000
0000
,
0000
0000
0000
0000
,
0000
0000
0000
0000
,
0000
0000
0000
0000
,
0000
0000
0000
0000
,
0000
0000
0000
0000
,
0000
0000
0000
0000
,
0000
0000
0000
0000
,
0000
0000
0000
0000
,
0000
0000
0000
0000
,
0000
0000
0000
0000
,
0000
0000
0000
0000
,
0000
0000
0000
0000
,
0000
0000
0000
0000
,
0000
0000
0000
0000
,
1000
1000
0100
0001
,
0000
0100
1000
0010
,
0000
0000
0100
0000
0001
0100
0001
0000
,
1000
0001
1000
0000
0100
0000
1000
0000
,
0001
0010
0100
1000
0002
0000
0000
0000
,
1000
0000
0100
0000
,
1000
0000
0100
0000
,
1000
0000
0103
0000
,
0001
0000
1000
0001
0100
0000
0001
0000
,
0000
0000
1000
0001
0100
0000
0001
0000
,
0000
1000
0100
0001
,
0100
1000
0100
1000
0100
0000
1000
0000
,
0001
0100
0010
1000
0002
0000
0000
0000
,
1000
0000
0100
0000
,
1000
0000
0100
0000
,
1000
0000
0103
0000
,
2002
0000
0000
0000
,
0000
0000
0000
0000
,
0000
0000
0000
3003
,
0001
0100
0001
1000
,
0100
0000
1000
0001
1000
0000
0001
0000
,
0100
0000
0001
1000
0001
0000
1000
0000
,
0010
1000
0001
1000
0010
0000
1000
0000
,
0001
0000
0100
0000
0001
1000
0001
0000
,
0010
0000
0001
1000
0001
0000
1000
0000
,
0100
1000
0010
0100
,
0001
1000
0001
0100
0001
0000
1000
0000
,
0001
0100
0001
1000
,
0100
0000
1000
0001
1000
0000
0001
0000
,
0100
0000
0001
1000
0001
0000
1000
0000
,
0010
1000
0001
1000
0010
0000
1000
0000
,
0001
0000
0100
0000
0001
1000
0001
0000
,
0010
0000
0001
1000
0001
0000
1000
0000
,
0100
1000
0100
0000
1000
0000
0001
0010
,
0001
0010
0100
1000
0100
0010
0001
0010
,
0002
0000
1000
0000
,
0000
0100
0000
0000
,
2003
0000
0100
0000
,
0000
0001
0000
0000
,
3020
0000
0100
0000
,
0000
1000
0000
0000
,
0230
0000
0001
0000
,
0000
0010
0000
0000
,
0302
0000
1000
0000
,
0000
0100
0000
0000
,
2003
0000
0100
0000
,
0000
0001
0000
0000
,
3020
0000
0100
0000
,
0000
1000
0000
0030
,
0010
1000
0010
1000
0010
0000
1000
0010
,
1000
0010
1000
0000
0010
1000
0010
0000
,
1000
0100
1000
0100
1000
0000
0100
1000
,
0100
1000
0100
0000
0010
0000
0001
0000
,
0100
0001
0100
0001
0100
0000
0001
0100
,
0001
0100
0001
0000
0100
0000
0010
0000
,
1000
0100
1000
0100
1000
0000
0100
1000
,
0100
1000
0100
0000
1000
0000
0100
0000
,
0010
0001
0010
0001
0010
0000
0001
0010
,
0001
0010
0001
0000
1000
0000
0001
0000
,
1000
0100
1000
0100
1000
0000
0100
1000
,
0100
1000
0100
0000
0010
0000
0001
0000
,
0100
0001
0100
0001
0100
0000
0001
0100
,
0001
0100
0001
0000
0100
0000
0010
0000
,
1000
0100
1000
0100
1000
0000
0100
1000
,
0100
1000
0100
0000
1000
0000
0100
0000
,
0010
0001
1000
0000
1000
0000
0001
0010
,
0001
1000
0001
1000
0001
0100
0001
0000
,
2001
0000
3010
0000
,
1002
0000
0103
0000
,
2001
0000
3010
0000
,
1002
0000
0103
0000
,
0001
0100
1000
0000
,
1000
0100
0001
0000
,
0001
0100
0010
1000
,
0100
0010
0001
0000
,
2001
0000
3100
0000
,
1002
0000
0013
0000
,
2001
0000
3010
0000
,
1002
0000
0103
0000
,
0001
0100
1000
0100
,
0001
0010
1000
0010
,
0002
0000
0000
0000
,
0013
0100
0010
0100
0010
0000
0100
0010
,
0100
0010
0100
0000
0010
0100
0010
0000
,
0100
1000
0100
1000
0100
0000
1000
0100
,
1000
0100
1000
0000
0100
1000
0100
0000
,
1000
0001
1000
0001
1000
0000
0001
1000
,
0001
1000
0001
0000
1000
0001
1000
0000
,
0001
0100
0001
0100
0001
0000
0100
0001
,
0100
0001
0100
0000
0001
0100
0001
0000
,
0010
0001
0010
0001
0010
0000
0001
0010
,
0001
0010
0001
0000
0010
0001
0010
0000
,
0100
0010
0100
0010
0100
0000
0010
0100
,
0010
0100
0010
0000
0100
0010
0100
0000
,
1000
0100
1000
0100
1000
0000
0100
1000
,
0100
1000
0100
0000
1000
0100
1000
0000
,
0001
1000
0001
1000
0001
0000
1000
0001
,
1000
0001
1000
0000
0002
0000
0000
0000
,
1003
0000
0100
0000
1000
0100
0010
0000
,
0100
1000
0100
0010
,
1000
0000
0100
0000
0010
0100
1000
0000
,
0100
0010
0100
1000
,
0001
0000
0010
0000
0001
0010
0100
0000
,
0010
0001
0010
0100
,
0001
0000
0010
0000
0100
0010
0001
0000
,
0010
0100
0010
0001
,
1000
0000
0010
0000
1000
0010
0100
0000
,
0010
1000
0010
0100
,
0001
0000
0100
0000
0010
0100
0001
0000
,
0100
0010
0100
0001
,
1000
0000
0010
0000
1000
0010
0100
0000
,
0010
1000
0010
0100
,
0001
0000
0100
0000
0010
0100
0001
0000
,
0100
0010
0100
0001
,
1001
0000
0000
0000
,
0000
0000
0000
0000
,
0001
1000
0001
0100
0001
0000
1001
0000
,
0000
0110
0000
1001
,
0100
0100
0100
0100
,
0010
0100
0010
0100
0001
0100
0001
0100
,
0001
0001
0010
1000
,
0000
0010
0001
0100
,
0000
0000
0010
0000
1000
0010
1000
0000
,
0001
1000
0001
0000
0010
0000
0001
0000
,
1000
0100
0010
0001
2000
0000
0000
0000
,
0001
0000
0010
0000
,
0001
0000
0010
0000
,
0001
0000
3010
0000
,
1000
0000
0001
1000
0010
0000
1000
0000
,
0000
0000
0001
1000
0010
0000
1000
0000
,
0000
0001
0010
1000
,
0010
0001
0010
0001
0010
0000
0001
0000
,
1000
0010
0100
0001
2000
0000
0000
0000
,
0001
0000
0010
0000
,
0001
0000
0010
0000
,
0001
0000
3010
0000
,
0010
1000
0001
0100
,
0000
0100
0010
1000
,
0000
1000
0001
0100
,
0010
1000
0001
0100
0010
0000
1000
0000
,
0100
0010
0001
0010
,
0000
0010
0100
1000
,
0000
1000
0100
0010
,
0001
0010
0100
1000
0100
0000
0010
0000
,
0001
0010
0100
1000
,
0000
1000
0100
0010
,
0000
0010
0100
1000
,
0001
0100
0010
1000
0001
0000
0100
0000
,
0010
1000
0100
0010
,
0000
0010
0100
1000
,
0002
0000
0200
0000
,
0020
0000
1333
0000
,
1111
0000
0000
0000
;
