#TITLE:F.B.Eye Agent;
#SUBTITLE:;
#ARTIST:Omicron Complex;
#TITLETRANSLIT:;
#SUBTITLETRANSLIT:;
#ARTISTTRANSLIT:;
#GENRE:;
#CRChallenge:;
#BANNER:;
#BACKGROUND:;
#LYRICSPATH:;
#CDTITLE:;
#MUSIC:fbeye.ogg;
#OFFSET:0.000;
#SAMPLESTART:1.263;
#SAMPLELENGTH:12.000;
#SELECTABLE:YES;
#BPMS:0.000=190.000;
#STOPS:36.000=3.474
,105.000=0.947
,270.000=3.474
;
#BGCHANGES:;
#KEYSOUNDS:;
#NOTES:
     dance-single:
     pyroko:
     Hard:
     10:
     0.737,0.619,0.446,0.084,0.139:
1001
0101
0110
1010
,
1100
0000
1100
0000
1100
0000
1100
0010
,
0001
1000
0010
0100
0010
0001
0010
1000
,
0100
0010
0100
1000
0001
0100
0010
0001
,
0010
1000
0100
0010
0100
1000
0001
0100
,
0101
0000
0101
0000
0101
0000
0101
0010
,
1000
0100
0010
0001
1000
0010
0100
0010
,
0001
0010
1000
0100
0010
0001
1000
0010
,
0100
0010
0100
0001
1000
0100
0010
0001
,
1001
0000
0000
0000
1000
0100
1000
0100
1000
0100
1000
0100
1000
0100
1000
0100
,
1000
0100
1000
0100
1000
0000
0000
0000
0100
0000
0000
0000
0010
0000
0001
0000
,
1000
0010
0100
0010
,
1000
0000
0100
0000
0100
0000
0010
0001
,
1000
0001
0100
0000
,
0000
0000
1010
0000
0100
1100
0000
0100
,
0011
0000
0001
1000
0010
0100
0010
0001
,
0010
1000
0010
0000
0010
0000
1000
0100
,
0010
0000
0001
1000
0001
0010
0001
1000
,
0100
0010
0001
1000
0010
0100
0010
0001
,
0010
1000
0100
0010
0100
1000
0001
0100
,
0010
0001
0010
1000
0100
0010
0100
1000
,
0001
0000
0100
0000
0010
0000
0001
0000
0010
0000
1000
0000
0100
0010
0001
1000
,
0100
0010
0001
0000
1000
0000
0010
0000
0100
0000
0010
0000
0001
0000
0010
0000
,
1000
0100
0010
0001
1000
0001
0100
0010
,
0001
0010
1000
0100
1000
0100
0010
0001
,
1000
0000
0001
0000
0100
0000
0010
0000
0001
0000
0010
0000
1000
0100
1000
0100
,
2000
0000
3000
0000
1000
0100
1000
0100
,
1000
0100
0010
0001
0010
0001
0010
0001
0010
0000
0000
0000
0001
0000
1000
0000
,
0010
0000
0100
0010
1000
0000
0100
0010
,
0100
0000
1100
0000
0000
0000
0001
0100
,
0001
0000
0010
0001
1000
0000
0100
0010
,
0100
0000
1100
0000
0000
0000
0010
0100
,
0001
0000
0010
0001
1000
0000
0100
0010
,
0100
0000
1100
0000
0000
0000
0100
0010
,
0001
0000
1000
0001
0100
0000
0010
0001
,
0010
0000
1010
0000
0000
0000
0100
1000
,
0100
0000
0100
0010
0001
0000
1000
0001
,
0010
0000
0011
0000
0001
1000
0001
0100
,
0010
0000
1000
0100
0110
0000
0100
1000
,
1001
0000
0101
0000
0001
1000
0100
0010
,
0110
0000
0001
1000
1001
0000
0001
0100
,
0101
0000
0110
0000
0010
1000
0100
0010
,
0110
0000
0001
1000
1001
0000
0001
0100
,
0101
0000
1010
0000
0000
2000
0000
0200
,
0000
0011
0011
3300
,
0000
0000
0000
0000
0000
0002
0000
0200
,
0000
1010
1010
0303
,
0000
0000
0000
0000
1000
1000
1000
0100
,
0010
0000
1000
0010
0100
0000
0010
0001
,
0010
1000
0100
0000
0010
0010
0010
0001
,
1000
0000
0001
0010
0100
0000
0100
1000
,
1000
0100
1000
0000
0000
2000
0000
0002
,
0000
0110
0110
3003
,
0000
0000
0000
0000
0000
0020
0000
0200
,
0000
1001
1001
0330
,
0000
0000
0000
0000
1000
1000
1000
0100
,
0010
0100
1000
0001
0100
0000
0001
0010
,
0001
0001
1000
0100
0010
0010
0010
0100
,
1000
0000
0001
0100
0001
0000
0010
0100
,
1000
1000
0010
0000
1010
0000
1010
0000
,
1010
0000
1010
0100
0010
0001
1000
0001
,
0100
0010
1000
0100
0010
0001
1000
0010
,
0100
0010
0001
0010
1000
0100
0010
0100
,
1000
0001
1000
0001
0011
0000
0011
0000
,
0011
0000
0011
0001
1000
0100
0010
0100
,
1000
0010
0100
0010
0001
0010
1000
0100
,
0010
0100
1000
0001
0100
0001
0010
0100
,
1000
0000
0010
0000
0100
0000
0001
0000
1001
0000
0000
0000
1000
0100
1000
0100
,
1000
0100
1000
0100
1000
0100
1000
0100
1000
0100
1000
0100
1000
0000
0000
0000
,
0100
1000
0010
0000
0100
0001
0010
0000
,
0001
1000
0001
0000
0101
0000
0010
1000
,
0100
0010
0100
1000
0001
0100
0010
1000
,
0100
0010
0001
1000
0001
0001
1000
0000
,
1000
0100
0010
0000
0001
1000
0001
0000
,
0100
0010
0100
0000
0110
0000
1000
0100
,
0010
0000
0001
0000
0100
0000
0010
0000
1000
0000
0001
0000
1000
0100
0010
0001
,
0100
0000
0100
0000
0010
1000
0001
0100
0010
0000
0010
0000
1000
0000
0000
0000
,
1000
0001
0010
0000
0001
0010
0100
0000
,
1000
0100
1000
0000
1010
0000
1000
0010
,
0100
0010
1000
0001
0010
0100
1000
0001
,
0010
0001
1000
0010
0100
0010
1000
0000
,
1000
0010
0100
0000
0001
0010
0001
0000
,
1000
0100
1000
0000
1010
0000
1000
0010
,
0100
0010
1000
0100
0010
0001
1000
0001
,
0100
0000
0010
0000
1000
0100
0010
0001
1000
0010
0100
0010
2000
0000
0000
0000
,
0000
0000
0000
0000
,
0000
0000
3000
0000
;
#NOTES:
     dance-single:
     pyroko:
     Medium:
     9:
     0.671,0.582,0.261,0.109,0.000:
1001
1010
0110
0101
,
0011
0000
0011
0000
0011
0000
0001
0100
,
1000
0001
0100
0010
0100
1000
0100
0001
,
0010
0100
0010
0001
1000
0010
0100
1000
,
0100
0001
0010
0100
0010
0001
1000
0010
,
1000
0000
1010
0000
1010
0000
1000
0100
,
0001
0010
0100
1000
0001
0100
0010
0100
,
1000
0100
0001
0010
0100
1000
0001
0100
,
0010
0100
0010
1000
0001
0010
0100
1000
,
1001
0000
0001
0100
0001
0100
0001
0100
,
0001
0100
0001
0000
0010
0000
0100
1000
,
0001
0100
0010
0100
,
0001
0000
0010
0000
0010
0000
0100
1000
,
0001
1000
0010
0000
,
0000
0000
0101
0000
0010
0011
0000
0010
,
1100
0000
1000
0001
0100
0010
0100
1000
,
0100
0001
0100
0000
0100
0000
0001
0010
,
0100
0000
1000
0001
1000
0100
1000
0001
,
0010
0100
1000
0001
0100
0010
0100
1000
,
0100
0001
0010
0100
0010
0001
1000
0010
,
0100
1000
0100
0001
0010
0100
0010
0001
,
1000
0010
0100
1000
0100
0001
0020
0032
,
2003
3000
0001
0100
0010
0100
1000
0100
,
0001
0010
0100
1000
0001
1000
0010
0100
,
1000
0100
0001
0010
0001
0010
0100
1000
,
0001
1000
0010
0100
0001
0100
0001
0010
,
0002
0000
0003
0000
0001
0010
0001
0010
,
0001
0010
0001
0010
0001
0000
1000
0001
,
0100
0000
0010
0100
0001
0000
0010
0100
,
0010
0000
0011
0000
0000
0000
1000
0010
,
1000
0000
0100
1000
0001
0000
0010
0100
,
0010
0000
0011
0000
0000
0000
0100
0010
,
1000
0000
0100
1000
0001
0000
0010
0100
,
0010
0000
0011
0000
0000
0000
0010
0100
,
1000
0000
0001
1000
0010
0000
0100
1000
,
0100
0000
0101
0000
0000
0000
0010
0001
,
0010
0000
0010
0100
1000
0000
0001
1000
,
0100
0000
1100
0000
1000
0001
1000
0010
,
0100
0000
0001
0010
0100
0000
0010
0001
,
1000
0000
1010
0000
1000
0001
0010
0100
,
0010
0000
1000
0001
1000
0000
1000
0010
,
1000
0000
0110
0000
0100
0001
0010
0100
,
0010
0000
1000
0001
1000
0000
1000
0010
,
1000
0000
0101
0000
0000
0002
0000
0200
,
0000
0010
1000
0303
,
0000
0000
0000
0000
0000
0200
0000
2000
,
0000
0001
0010
3300
,
0000
0000
0000
0000
0001
0001
0001
0010
,
0100
0000
0001
0100
0010
0000
0100
1000
,
0100
0001
0010
0000
0100
0100
0100
1000
,
0001
0000
1000
0100
0010
0000
0010
0001
,
0001
0010
0001
0000
0000
0002
0000
2000
,
0000
0010
0010
3003
,
0000
0000
0000
0020
0000
0200
0000
0000
,
0000
1000
0001
0330
,
0000
0000
0000
0000
0001
0001
0001
0010
,
0100
0010
0001
1000
0010
0000
1000
0100
,
1000
1000
0000
0000
0100
0100
0100
0010
,
0001
0000
1000
0010
1000
0000
0100
0010
,
0001
0001
0100
0000
0101
0000
0101
0000
,
0101
0000
0001
0010
0100
1000
0001
1000
,
0010
0100
0001
0010
0100
1000
0001
0100
,
0010
0100
1000
0100
0001
0010
0100
0010
,
0001
1000
0001
1000
0100
0000
1100
0000
,
1100
0000
0100
1000
0001
0010
0100
0010
,
0001
0100
0010
0100
1000
0100
0001
0010
,
0100
0010
0001
1000
0010
1000
0100
0010
,
0001
0100
0010
1000
1001
0000
0001
0010
,
0001
0010
0001
0010
0001
0010
0001
0000
,
0010
0001
0100
0000
0010
1000
0100
0000
,
1000
0001
1000
0000
1010
0000
0100
0001
,
0010
0100
0010
0001
1000
0010
0100
0001
,
0010
0100
1000
0001
1000
1000
0001
0000
,
0001
0010
0100
0000
1000
0001
1000
0000
,
0010
0100
0010
0000
0110
0000
0001
0010
,
0100
1000
0010
0100
0001
1000
0010
0100
,
0010
1000
0100
0010
0001
1000
0001
0000
,
0001
1000
0100
0000
1000
0100
0010
0000
,
0001
0010
0001
0000
0101
0000
0001
0100
,
0010
0100
0001
1000
0100
0010
0001
1000
,
0100
1000
0001
0100
0010
0100
0001
0000
,
0001
0100
0010
0000
1000
0100
1000
0000
,
0001
0010
0001
0000
0101
0000
0001
0100
,
0010
0100
0001
0010
0100
1000
0001
1000
,
0010
0100
0001
0010
0100
1000
0002
0000
,
0000
0000
0000
0000
,
0000
0000
0003
0000
;
#NOTES:
     dance-single:
     pyroko:
     Easy:
     8:
     0.428,0.328,0.143,0.017,0.000:
1000
0010
0100
0010
,
1000
0000
1000
0000
1000
0000
1000
0001
,
0100
0001
0000
0000
,
1000
0010
0100
0010
,
1000
0000
0001
0000
0010
0001
0010
0000
,
0001
0000
0001
0000
0001
0000
0001
1000
,
0010
0000
1000
1000
,
1000
0100
0010
0001
,
1000
1000
0010
0100
,
0101
0000
0000
0000
,
0000
1000
0100
0010
,
0001
0000
1000
0000
0010
0000
0100
0010
,
0100
0010
1000
0001
,
0010
0000
0001
0000
0010
0000
0001
0010
,
0100
1000
0010
0100
,
0010
0000
1000
0000
0001
0000
0100
0001
,
0100
0001
0010
0100
,
1000
0000
0100
0000
1000
0000
0001
0010
,
0001
1000
0010
0100
,
0010
0000
1000
0000
0001
0000
0010
0001
,
0010
0001
1000
0100
,
1000
0000
0010
0000
0100
0000
0010
1000
,
0001
0010
0001
1000
,
0100
0010
0100
1000
,
0001
0100
0010
1000
,
0001
0000
0010
0001
0010
0100
1000
0100
,
0020
0030
0000
0000
,
0000
0000
0000
1000
,
0001
0010
0001
1000
,
0100
0010
0000
0001
,
1000
0001
0100
0010
,
1000
1001
0000
0001
,
0010
0001
0010
0100
,
1000
1100
0000
1000
,
0010
0100
0010
0100
,
0001
1001
0000
0001
,
0010
0001
0010
0100
,
1000
1100
0000
1000
,
0010
0100
0010
0100
,
0001
0011
0000
1000
,
0010
0100
0010
0100
,
0001
1001
0000
1000
,
0100
0010
0001
0010
,
0100
1100
1000
0010
,
0100
0001
1000
0001
,
0010
0000
0011
0000
0000
0000
1000
0001
,
1000
0000
0001
0100
0001
0000
0100
0001
,
0100
0000
0101
0000
0000
0000
0001
1000
,
0001
0000
1000
0001
1000
0000
0001
1000
,
0001
0000
1001
0000
0000
0000
0010
0100
,
0010
0000
0100
0010
0100
0000
0010
0100
,
0010
0110
0001
1000
,
0010
0100
0010
1000
,
1001
1001
0000
0001
,
0010
0100
1000
0100
,
1000
1100
0000
1000
,
0010
0100
0010
0100
,
0001
1001
0000
1000
,
0010
0100
0001
1000
,
0001
0011
0001
1000
,
0010
0000
0100
0010
0100
0000
0001
0000
,
1000
0100
0010
0001
,
1000
0010
0100
0001
,
1000
0100
0010
0010
,
0010
0000
0010
0001
1000
0000
0001
0000
,
0100
0010
1000
0001
,
0010
0001
0010
0100
,
1000
0100
1000
0000
,
0000
0000
0000
1000
,
0010
0100
0010
0000
1000
0000
0001
0000
,
0010
0001
1000
0000
,
0001
1000
0001
0000
0010
0000
0100
0000
,
1000
0001
0010
0001
,
0100
0010
0100
0000
0010
0000
1000
0000
,
0001
0010
0001
1000
,
0100
0010
0001
0010
,
0001
0000
0010
0100
0010
0000
0100
0000
,
1000
0010
0100
0001
,
0010
0001
1000
0010
,
0100
0010
1000
0100
,
0010
0100
1000
0001
,
0010
0001
0010
0000
0001
0000
1000
0000
,
0100
0010
0100
1000
,
0010
0100
0001
0010
,
0001
0010
0100
2000
,
0000
0000
0000
0000
,
0000
0000
3000
0000
;
#NOTES:
     dance-single:
     pyroko:
     Beginner:
     5:
     0.278,0.073,0.042,0.253,0.000:
0000
0000
0000
0000
,
1000
0000
0100
0000
,
0010
0001
0010
0001
,
1000
0000
0010
0000
,
0100
0100
0001
1000
,
0001
0000
1000
0000
,
0010
0100
0010
0100
,
0001
0000
0000
0000
,
1000
0000
0100
0010
,
0001
0000
0000
0000
,
0000
1000
0000
0100
,
0000
0010
0001
0010
,
0001
1000
0000
0010
,
0000
0100
0010
0100
,
0010
0100
0000
0001
,
0000
1000
0000
0001
,
1000
0010
0000
0100
,
0000
0001
0100
0001
,
0100
0001
0000
0010
,
0000
0100
0000
1000
,
0100
0010
0000
0001
,
0000
1000
0001
0200
,
0310
1000
0000
0100
,
0000
0100
0000
0010
,
0000
0010
0000
0001
,
0000
0001
0000
1001
,
1001
1001
0000
0000
,
0000
0000
0000
2000
,
0000
3020
0000
0230
,
0000
0300
0000
0002
,
0000
0023
0000
0230
,
0000
0300
0000
2000
,
0000
3020
0000
0230
,
0000
0300
0000
0002
,
0000
0023
0000
0230
,
0000
0300
0000
2000
,
0000
3020
0000
0230
,
0000
0300
0000
0002
,
0000
0023
0000
0230
,
0000
0300
0000
2000
,
0000
3020
0000
0230
,
0000
0300
0000
0002
,
0000
0023
0000
0230
,
0000
0300
1000
0010
,
1000
0000
0001
0010
,
0001
1001
0000
1000
,
0100
1000
0010
1000
,
0001
1000
0000
0001
,
0010
0001
0000
0010
,
0001
1000
0000
0010
,
0100
0010
1000
0001
,
1000
0100
0000
0000
,
0010
0000
0001
0000
,
1000
0001
0000
0100
,
0000
0010
0000
1000
,
0100
0010
0000
0001
,
0000
1000
0000
0010
,
0100
0010
0000
1000
,
0000
0100
0000
0010
,
0100
0010
0001
0001
,
0001
1000
0010
0000
,
0000
0000
1000
0000
,
0000
0000
0010
0000
,
0000
0000
1000
1000
,
1000
1000
0001
0000
,
0000
0000
0010
0000
,
0100
0000
1000
0000
,
0001
0000
0110
0000
,
0000
0000
0000
1000
,
0000
0010
0000
0100
,
0000
0001
0000
0000
,
0010
0000
0100
0000
,
1000
0001
0100
0000
,
0020
0000
2030
0000
,
3200
0000
0300
0010
,
0010
0001
0001
1000
,
0000
0020
0130
0000
,
0001
1000
0001
0010
,
0100
1000
0001
0100
,
0000
0010
0000
1000
,
0000
0001
0010
0100
,
0000
1000
0000
0010
,
0000
0100
0000
0001
,
0000
0010
0000
0100
,
1000
0001
0100
0020
,
0000
0000
0000
0000
,
0000
0000
0030
0000
;
