#TITLE:Explosive;
#SUBTITLE:;
#ARTIST:Bond;
#TITLETRANSLIT:;
#SUBTITLETRANSLIT:;
#ARTISTTRANSLIT:;
#CRChallenge:;
#BANNER:explosive.png;
#BACKGROUND:explosive-bg.png;
#LYRICSPATH:;
#CDTITLE:!cdtitle.png;
#MUSIC:explosive.ogg;
#OFFSET:0.000;
#SAMPLESTART:38.040;
#SAMPLELENGTH:12.000;
#SELECTABLE:YES;
#BPMS:0.000=115.000;
#STOPS:;
#BGCHANGES:;
#NOTES:
     dance-single:
     pyroko:
     Medium:
     10:
     0.765,0.824,0.399,0.533,0.965:
0000
0000
0000
0000
,
0000
0000
0000
0000
,
0000
0000
0000
0000
,
0000
0000
0000
0000
,
1000
0100
0010
0001
2000
0000
0000
0000
0000
0000
0020
0000
0000
0000
0000
3000
,
0200
0000
0000
0030
0020
0000
0000
0000
0000
0300
2000
0000
0000
0000
0000
0030
,
0002
0000
0000
3000
0020
0000
0000
0000
0000
0000
0000
0000
0000
0000
0000
0000
,
0000
0000
0033
0000
0001
1001
0000
0010
1010
0000
0100
0101
0000
0010
0110
0000
,
0202
0000
0303
0000
0010
1000
0010
1010
0000
0000
0001
0100
0001
0101
0000
0000
,
0000
0000
0000
0000
0001
1000
0001
1001
0000
0000
0010
1000
0010
1010
0000
0000
,
0000
0000
0000
0000
0010
0100
0010
0110
0000
0000
0001
0100
0001
0101
0000
0000
,
0000
0000
0000
0000
0010
1000
0010
1010
0000
0000
1000
0001
1000
1001
0000
0000
,
1000
0010
0100
0010
2000
0000
0000
0000
0000
0000
0020
0000
0000
0000
0000
3000
,
0200
0000
0000
0030
0002
0000
0000
0000
0000
0300
2000
0000
0000
0000
0000
0003
,
0200
0000
0000
3000
0020
0000
0000
0000
0330
0000
0001
0100
0101
0001
0000
0000
,
0000
0000
0000
0000
0001
1000
0001
1000
0000
0000
0010
0100
0110
0010
0000
0000
,
0010
1000
0100
0010
0002
0000
0000
0000
0000
0000
2000
0000
0000
0000
0000
0003
,
0020
0000
0000
3000
0002
0000
0000
0000
0000
0030
0020
0000
0000
0000
0000
0003
,
2000
0000
0000
0030
3200
1300
0100
0010
0001
0000
0001
0100
0010
1000
0100
0010
,
0001
1000
0010
0100
0010
0001
0010
1000
0100
0010
0001
0010
0100
1000
0010
0100
,
0010
0001
0010
0100
0010
1000
0100
0010
0001
1000
0010
0100
0010
0001
0010
1000
,
0100
0010
0001
1000
0100
0010
0001
0100
0020
0000
0130
0001
1000
0100
0010
0001
,
1000
0010
0100
0010
0001
0010
0100
0010
2000
0000
3100
0010
0100
1000
0001
0100
,
0010
0001
0010
0100
0010
1000
0100
0010
0200
0000
1300
0001
0100
0010
0001
0010
,
1000
0100
0010
0001
1000
0010
0100
0010
0002
0000
0013
0100
0010
1000
0100
0010
,
1000
0001
1000
0010
0001
1000
0010
0110
0000
0000
0110
0000
0000
0101
0000
1001
,
0000
0000
0000
0000
1000
0010
0100
0010
2000
0000
3100
0010
0100
1000
0001
0100
,
0010
0001
0010
0100
0010
1000
0100
0010
1000
0001
1000
0010
0001
1000
0010
0100
,
0010
0001
0010
0100
0010
1000
0100
0010
1000
0001
1000
0010
0001
1000
0010
0100
,
0010
0001
0010
1000
0100
0010
0001
1000
0020
0000
0130
0010
1000
0100
0010
0001
,
1000
0010
0100
0010
0001
0010
1000
0100
0020
0000
0031
1000
0010
0100
0010
0001
,
0010
1000
0100
0010
1000
0001
1000
0010
0100
1000
0001
0100
0010
0001
0010
0100
,
0010
1000
0100
0010
0100
0010
0001
1000
0010
0100
0010
0001
0010
1000
0100
0010
,
0001
1000
0010
0100
0010
0001
0010
1000
0200
0000
0310
0001
1000
0010
0001
0010
,
2000
0000
0000
0000
3010
1000
0010
0100
0002
0000
1003
0100
0010
0001
1000
0010
,
0100
0010
0001
0010
1000
0100
0010
0001
2000
0000
3010
0100
0010
0001
0010
1000
,
0100
0010
0001
1000
0010
0100
0010
0001
0020
0000
1030
0100
0010
0001
1000
0010
,
0100
0010
0001
0010
2000
0000
3100
0010
0002
0000
1003
0010
0001
0010
1000
0100
,
0020
0000
0002
0033
1000
0010
1000
1010
0000
0000
1000
0100
0010
1001
0000
0000
,
0000
0000
0000
0000
1000
0010
0100
1010
0000
0000
1000
0100
0010
1001
0000
0000
,
1000
0010
0100
0010
2000
0000
0000
0000
0000
0000
0200
0000
0000
0000
0000
3000
,
0002
0000
0000
0300
0200
0000
0000
0000
0000
0003
2000
0000
0000
0000
0000
0300
,
0020
0000
0000
3000
0032
0013
1000
0100
0000
0000
0010
0001
1001
1010
0000
0000
,
0000
0000
0000
0000
1000
0010
0100
0010
0000
0000
1000
0100
0110
0011
0000
0000
,
1000
0100
0010
0001
2000
0000
0000
0000
0000
0000
0020
0000
0000
0000
0000
3000
,
0002
0000
0000
0030
2000
0000
0000
0000
0000
0003
0200
0000
0000
0000
0000
3000
,
0002
0000
0303
0000
0101
1001
0000
1001
1100
0000
0110
0011
0000
0011
0101
0000
,
1001
0000
1001
0000
0100
0001
0100
0010
2000
0000
3010
0001
0010
1000
0001
0000
,
0101
0000
0101
0000
0010
0100
1000
0100
0020
0000
0130
0001
0010
1000
0010
0000
,
0110
0100
1100
0000
2002
0000
0000
0000
3003
0000
0000
0000
0000
0000
0000
0000
;
#NOTES:
     dance-single:
     pyroko:
     Easy:
     8:
     0.518,0.494,0.019,0.333,0.418:
0000
0000
0000
0000
,
0000
0000
0000
0000
,
0000
0000
0000
0000
,
0000
0000
0000
0000
,
1000
0100
0010
0001
2000
0000
0000
0000
0000
0000
0020
0000
0000
0000
3000
0000
,
0200
0030
0002
0000
0300
0020
0000
0003
,
0200
0030
2000
0000
0000
0000
0000
0000
,
0000
0000
3300
0000
1000
0001
0000
0001
1000
0000
0010
0100
0000
0100
0010
0000
,
0010
0000
0000
0000
1000
0100
1000
0100
0000
0000
0010
0001
0010
0001
0000
0000
,
0000
0000
0000
0000
1000
0001
1000
0001
0000
0000
0100
0001
0100
0001
0000
0000
,
0000
0000
0000
0000
0010
0001
0010
0001
0000
0000
0010
0100
0010
0100
0000
0000
,
0000
0000
0000
0000
1000
0100
1000
0100
0000
0000
1000
0001
1000
0001
0000
0000
,
1000
0010
0100
0010
2000
0000
0000
0000
0000
0000
0002
0000
0000
0000
3000
0000
,
0020
0003
0002
0000
0030
0020
0000
0003
,
0200
0030
2000
0000
0000
3300
0000
0000
,
0000
0000
0000
0000
1000
0001
1000
0001
0000
0000
0100
0001
0100
0001
0000
0000
,
0010
0001
1000
0001
0020
0000
0000
0000
0000
0000
0200
0000
0000
0000
0030
0000
,
2000
0300
0200
0000
3000
2000
0000
0300
,
0020
3000
0130
0001
0010
0001
1000
0010
,
0100
0010
1000
0100
0010
0001
1000
0001
,
0010
0100
1000
0100
0010
0001
1000
0010
,
0100
0000
0010
0000
1000
0010
1000
0010
1000
0000
0100
0000
0010
0000
0001
0000
,
1000
0000
0001
0000
0010
0001
0010
0001
0010
0000
0001
0000
1000
0000
0001
0000
,
0010
0100
1000
0100
1000
0010
0100
0010
,
1000
0001
0010
0100
1000
0001
0100
0001
,
0010
0000
0001
0000
1000
0001
1000
0001
0000
0000
0011
0000
0000
0001
0000
0100
,
0000
0000
0000
0000
0010
1000
0010
1000
0100
0000
0010
0000
0001
0000
1000
0000
,
0001
0010
0100
1000
0010
0100
0010
0001
,
0010
0000
1000
0000
0100
0010
0100
0000
1000
0000
0001
0000
0100
0000
0010
0000
,
0001
0010
0100
0010
1000
0100
0010
1000
,
0001
1000
0010
0001
1000
0001
0100
0010
,
0001
0000
0010
0000
1000
0100
1000
0100
1000
0000
0100
0000
0010
0000
0001
0000
,
1000
0010
0100
0010
0001
0010
1000
0100
,
0010
0000
1000
0000
0010
0000
0001
0010
0001
0000
1000
0010
0100
0010
0001
0010
,
1000
0100
0010
0000
0001
0000
1000
0000
0001
0000
0010
0000
0100
0000
1000
0000
,
0100
0000
1000
0000
0010
0100
0010
1000
0001
0000
0010
0000
0100
0000
1000
0000
,
0001
0000
0100
0000
0010
0001
0010
0100
0010
0000
1000
0000
0100
0000
0010
0000
,
0001
0000
1000
0000
0001
0010
0000
0100
1000
0000
0001
0010
0000
0100
1000
0000
,
0020
0000
0130
0000
0001
1000
0001
1000
0000
0000
0010
0100
0010
0100
0000
0000
,
0000
0000
0000
0000
0010
1000
0010
1000
0000
0000
0001
0010
0001
0010
0000
0000
,
0001
1000
0001
1000
0200
0000
0000
0000
0000
0000
0020
0000
0000
0000
0300
0000
,
0002
0030
2000
0000
0003
0020
0000
3000
,
0200
0000
0030
0000
0310
1000
0100
0010
0001
0000
1000
0100
0010
0001
0000
0000
,
0000
0000
0000
0000
1000
0100
1000
0100
0000
0000
0010
0001
1000
0001
0000
0000
,
0100
0010
0001
0010
2000
0000
0000
0000
0000
0000
0200
0000
0000
0000
3000
0000
,
0020
0300
0200
0000
0030
2000
0000
0300
,
0002
0000
3000
0000
0103
0010
0000
1000
0010
0000
0010
0001
0000
1000
0100
0000
,
0010
0000
0001
0000
1000
0100
0000
0010
0001
0000
1000
0010
0000
0100
0010
0000
,
1000
0000
0100
0000
0010
0001
0000
1000
0001
0000
0100
0010
0000
0001
0010
0000
,
1000
0100
0220
0000
0330
0000
0000
0000
;
#NOTES:
     dance-single:
     pyroko:
     Beginner:
     5:
     0.277,0.306,0.029,0.390,0.024:
0000
0000
0000
0000
,
0000
0000
0000
0000
,
0000
0000
0000
0000
,
0000
0000
0000
0000
,
1000
0001
0200
0000
0000
0020
0300
0000
,
2030
0000
0200
0000
3000
0020
0300
0000
,
0032
2003
0000
0000
,
3000
0000
0000
0000
,
0000
0000
1000
0100
1000
0000
0001
0010
,
0000
0000
0001
0010
0001
0000
1000
0001
,
0000
0000
0100
0001
0100
0000
0001
0100
,
0000
0000
0010
1000
0010
0000
1000
0010
,
0000
0000
0020
0000
0000
0002
0000
0000
,
0030
0000
2000
0000
0003
0020
0000
0000
,
3030
0110
0000
0000
,
0000
0000
0001
1000
0001
0000
0010
0001
,
0000
2000
0000
0000
,
0000
0000
0020
0000
3000
0200
0030
0000
,
0302
0000
1003
0010
1000
0000
0001
1000
,
0001
0100
0001
0010
,
0100
0000
1000
0100
1000
0000
0100
0000
,
0010
0000
0001
0010
0001
0010
0001
0000
,
1000
0001
0100
0010
,
1000
0000
0010
1000
0010
0000
1000
0100
,
1000
0001
0010
0001
,
1000
0001
1000
0001
,
0000
0200
0000
0000
,
0310
2000
0000
0000
,
3001
0020
0000
0000
,
0130
0000
0000
1000
0100
0000
0000
0000
0010
0000
0000
0001
1000
0000
0000
0000
,
0001
0200
0000
0000
,
0310
2000
0000
0000
,
3001
0200
0000
0000
,
0310
0000
0000
1000
0010
0000
0000
0000
1000
0000
0000
0100
0010
0000
0000
0000
,
0100
2000
0000
0000
,
3001
0020
0000
0000
,
0130
2000
0000
0000
,
3010
0000
0000
0100
0020
0000
0000
0000
0000
0000
0000
0000
0000
0000
0000
0000
,
0030
0000
1000
0100
1000
0000
0100
0010
,
0000
0000
0100
0010
0100
0000
0010
0001
,
1000
0001
0200
0000
0000
0020
0000
0300
,
2000
0030
0200
0000
3000
2000
0000
0300
,
0200
3000
0020
0000
0330
0000
1001
0000
,
0000
0000
0001
1000
0001
0000
0100
0001
,
0000
0000
0002
0000
0000
2000
0000
0003
,
0020
3000
0200
0000
0030
0002
0000
0300
,
0020
0003
0200
0000
0000
0000
0000
0330
,
0000
0000
1000
0001
0100
0000
0001
0010
,
0001
0000
1000
0010
0100
0010
1000
0100
,
0010
0001
2002
0000
3003
0000
0000
0000
;
#NOTES:
     dance-single:
     Team Fuego:
     Challenge:
     14:
     1.000,1.000,1.000,0.428,1.000:
0000
0000
0000
0000
,
0000
0000
0000
0000
,
0000
0000
0000
0000
,
0000
0000
0000
0000
,
2000
0200
0010
0001
0020
0000
0000
0000
0000
0000
0002
0000
0000
0000
3000
0000
,
2000
0300
0200
0000
0030
0020
0000
0003
,
0002
0033
0022
0000
0000
0000
3333
0000
,
0000
0000
0000
0000
1100
1110
0000
0101
0111
0000
1001
1011
0000
1001
0110
0000
,
1111
0000
0000
0000
0101
0101
0101
0101
0010
0000
1100
1100
1100
1100
0010
0000
,
1001
0000
0100
0000
0101
0101
0101
0101
0010
0000
1100
1100
1100
1100
0010
0000
,
1001
0000
0100
0000
1010
1010
1010
1010
0100
0000
0011
0011
0011
0011
0100
0000
,
1001
0000
0010
0000
1010
1001
1010
1100
1010
0000
0011
0101
1001
0101
0011
0000
,
0001
0100
1000
0010
0001
0100
0010
1000
0010
0000
1000
0010
0100
0001
0100
0000
,
0001
1000
0100
0010
0001
1000
0100
0010
0100
0000
0010
0100
1000
0001
0010
0000
,
0001
1000
0100
0010
0100
1000
0001
0010
0001
0000
0100
0010
1000
0100
0010
0000
,
0100
1000
0001
0010
0100
0010
0001
1000
0010
0000
0100
0001
0100
0010
1000
0000
,
0010
0001
0010
0100
1000
0100
0001
0100
1000
0000
0100
0010
0001
0010
1000
0000
,
0010
0100
0001
0000
0100
1000
0001
0010
1000
0000
0010
0001
1000
0100
0001
0000
,
0100
0010
1000
0000
0001
0001
0100
0100
0010
0000
1000
1000
0010
0010
0100
0100
,
0001
0001
0010
0010
0100
0100
0100
0100
1000
1000
1000
1000
0001
0010
0100
1000
,
0001
0010
0100
1000
0001
0001
0001
0001
0010
0010
0010
0010
0100
1000
0001
0010
,
0100
1000
0100
0010
0001
0001
0001
0001
0010
0000
0010
0010
0001
0001
0001
0001
,
0010
0000
0010
0010
0001
0001
0100
0100
0010
0000
1000
1000
0010
0010
0100
0100
,
0001
0001
0010
0010
0100
0100
0100
0100
1000
1000
1000
1000
0001
0010
0100
1000
,
0001
0010
0100
1000
0001
0001
0001
0001
0010
0010
0010
0010
0100
1000
0001
0010
,
0100
1000
0100
1000
1100
1100
0000
1100
0000
0000
1100
0000
0011
0011
0000
0011
,
1001
0000
0000
0000
0011
0010
0100
1000
1100
0100
0010
0001
0011
0010
0100
1000
,
1100
0100
0010
0001
0101
0100
0010
1000
1010
1000
0010
0100
0101
0100
0010
1000
,
1010
1000
0100
0010
1001
0010
0100
1000
1001
0100
0010
0001
1001
0010
0100
1000
,
1001
0100
0010
0001
1100
0010
1100
0010
1100
0000
1100
0000
0011
0100
0011
0100
,
0011
0000
0011
0000
1001
0100
1001
0100
1001
0000
0101
0100
0110
0010
1000
0100
,
0010
0001
0010
0100
1001
0010
1001
0010
1001
0000
1010
0010
0110
0100
0001
0010
,
0100
1000
0100
0010
0011
0100
1000
0100
0011
0100
1000
0100
0011
0100
1000
1100
,
0011
0100
1000
0010
0101
0010
1001
0100
1010
0100
1001
1010
0100
1010
1001
0100
,
1010
1001
1010
0000
0101
0010
1000
0110
1011
0000
0010
1000
0110
0001
1100
0011
,
1011
0000
0100
0010
1010
0100
0001
0110
1101
0000
0100
0001
0110
1000
0011
1100
,
1101
0000
0010
0100
1100
0001
0010
1001
0111
0000
0001
0010
1001
0100
1010
0101
,
0111
0000
1000
0001
1001
1011
0000
1011
0000
0000
1101
0000
0022
1133
0000
1111
,
0000
0000
0000
0000
1100
0110
0011
1100
0110
0000
0011
0110
1100
0011
0110
0000
,
1001
0000
0000
0000
1100
0110
0011
1100
0110
0000
0110
1100
0011
0110
1100
0000
,
0001
0001
0001
0001
0002
0000
0000
0000
0000
0000
0023
0000
0000
0000
0000
0000
,
0230
0000
2300
0000
0000
3020
0000
0000
,
0130
0000
0000
0000
1100
0110
0011
1111
0000
0000
0011
0110
1100
1111
0000
0000
,
0000
0000
0000
0000
1100
0110
0011
1111
0000
0000
0011
0110
1100
1111
0000
0000
,
0010
0010
0010
0010
0020
0000
0000
0000
0000
0030
0020
0000
0000
0000
0000
0030
,
0010
0000
0000
0000
0200
0000
0000
0000
0000
0300
0200
0000
0000
0000
0000
0300
,
0100
0000
0000
0000
0202
0010
0303
2200
0010
3300
2002
0010
3003
0220
1000
0330
,
1111
0000
1111
0000
2200
0001
3300
2020
0001
3030
0220
0001
0330
2002
0010
3003
,
1111
0000
1111
0000
2020
0100
3030
0022
0100
0033
2002
0100
3003
0220
0001
0330
,
1111
1111
0110
0000
0000
0000
0000
0000
;
