#TITLE:Exodus;
#SUBTITLE:;
#ARTIST:Noisia & Mayhem;
#TITLETRANSLIT:;
#SUBTITLETRANSLIT:;
#ARTISTTRANSLIT:;
#CRChallenge:;
#BANNER:exodus.png;
#BACKGROUND:exodus-bg.png;
#LYRICSPATH:;
#CDTITLE:;
#MUSIC:exodus.ogg;
#OFFSET:0.000;
#SAMPLESTART:16.564;
#SAMPLELENGTH:12.000;
#SELECTABLE:YES;
#BPMS:0.000=172.000,112.000=86.000,128.000=172.000;
#STOPS:;
#BGCHANGES:;
#NOTES:
     dance-single:
     Renard:
     Medium:
     9:
     0.511,0.937,0.524,0.487,0.161:
0000
0000
0000
0000
,
0000
0000
0000
0000
,
0000
0000
0000
0000
,
0000
0000
0000
0000
,
0000
0000
0000
0000
,
0000
0000
0000
0000
,
0000
0000
0000
0000
,
0000
0000
0000
0000
,
2000
0000
0001
0001
0000
0010
3020
0000
,
0000
0000
0100
0100
0000
1000
1030
0000
,
0201
0000
0310
1000
0000
0000
0000
0000
,
0000
0000
0000
0000
,
1000
0000
0110
0000
0000
1011
0000
0000
,
0000
0000
0001
0010
1000
0000
0010
0000
0000
0000
1001
0000
0000
0000
0000
0000
,
0001
0000
0100
0000
0010
0000
0000
1000
0000
0000
0100
0000
0000
0010
0000
0000
,
0001
0100
0001
0000
1000
0000
0100
0000
0000
0100
0010
0000
0002
0000
0000
0000
,
1003
0100
1001
0000
0000
0110
0000
0000
,
0010
0000
1000
0001
1000
0000
0001
0000
0000
0000
0110
0000
0000
0000
0000
0000
,
0010
0000
1000
0000
0101
0000
0000
0010
0000
0000
1000
0000
0000
0100
0000
0000
,
0010
0001
0010
0000
0001
0000
1001
0000
0000
0000
0110
0000
0000
0000
0010
0000
,
1000
0000
0202
0000
0000
0313
0000
0000
,
0000
0000
0001
1000
0200
0000
2000
0000
0000
0000
3301
0000
0000
0000
0000
0000
,
1000
0000
0001
0000
0110
0000
0000
1000
0000
0000
0001
0000
0000
0010
0000
0000
,
1000
0010
0001
0000
0010
0000
0100
0000
0000
0100
1000
0000
0001
0000
0010
0000
,
0100
0000
1001
0010
0000
1001
0100
0010
,
0000
0000
1000
0001
1000
0000
0001
0000
0000
0000
0210
0000
0001
0000
0300
0000
,
0010
0000
1000
0000
0100
0000
0000
0001
0000
0000
0100
0000
0000
0010
0000
0000
,
0002
0000
0023
0000
0000
2000
0000
3030
,
1010
0000
0000
0100
0000
0000
0011
0000
0000
0100
0000
0000
1010
0000
0000
0001
0000
0001
0010
0000
0000
1100
0000
0000
,
1001
0000
0000
0100
0001
1000
0010
0000
0000
0100
0000
0000
0001
0000
1000
0010
0000
0000
1001
0000
0000
0110
0000
0000
,
1010
0000
0000
0100
0000
0000
0011
0000
0000
0100
0000
0000
0100
0000
0000
0010
0000
1000
0010
0000
0000
0011
0000
0000
,
1010
0000
0000
0100
0000
0000
1001
0000
0000
0010
0000
0000
0100
0000
0001
0010
0000
0000
1001
0000
0000
0000
0000
0000
,
1002
0000
0000
0100
0000
0000
0013
0000
,
0012
0000
0000
0100
0000
0000
1003
0000
,
2001
0000
0000
0010
0000
0000
3100
0000
,
2100
0000
0000
0010
0000
0000
3001
0000
,
0101
0000
1000
0100
0000
0001
0010
0000
,
0000
1000
0010
0001
0000
0010
1000
0000
,
1010
0000
0000
0000
0012
0000
0000
0020
0003
0000
0200
0030
0000
2000
0300
0000
,
0002
3000
0000
0200
0003
0000
0002
0300
0000
2000
0003
0000
0002
3000
0000
0000
,
1003
0000
1100
0000
0000
0011
0000
0000
,
1001
0000
0000
0110
0000
0010
1001
0100
,
2010
0000
0000
0000
3002
0000
0000
0023
0000
0000
0230
0000
0000
2300
0000
0000
,
3001
0010
0100
1000
0000
1000
0001
0000
,
0100
0000
2010
0001
3000
0012
1000
0003
,
0000
0100
0010
1000
0000
0001
0100
0000
,
2001
0000
0000
0000
3010
0000
0000
1010
0000
0000
0100
0000
0000
0101
0000
0000
,
0010
0100
1001
0000
0100
1001
0000
0100
,
0010
0000
1000
0001
0000
0100
0010
1000
,
1001
0000
0100
0010
0000
1000
0001
0000
,
2100
0000
0000
0000
3010
0000
0000
0001
0000
0000
0010
0000
0000
1000
0000
0000
,
0100
0000
0000
0001
0000
0000
0100
0000
0000
1000
0000
0000
0010
0000
0000
0000
,
0200
0000
0001
0001
0000
0010
0010
0000
,
0000
0000
1000
1000
0000
0010
0320
0000
,
2030
0000
3200
0000
,
0320
0000
0000
0000
,
0032
0000
0100
0100
0000
1000
1003
0000
,
2000
0000
0010
0010
0000
3001
1001
0000
,
0201
0000
0000
0000
,
0320
0000
0000
0000
2030
0000
0000
3000
,
2001
0000
0010
3010
0000
0102
0200
0000
,
0000
0003
0010
0010
0000
0001
0301
0000
,
1011
0000
0000
0000
,
0000
0000
0000
0000
,
2010
0000
0100
0100
0000
0001
0002
0000
,
0000
3000
0100
0100
0000
0010
0020
0033
,
2002
0000
0000
0000
,
0000
0000
0000
0000
,
0020
0000
0000
0000
,
0000
0000
0000
0000
,
0000
3033
0000
0000
;
#NOTES:
     dance-single:
     Renard:
     Easy:
     5:
     0.268,0.549,0.193,0.165,0.000:
0000
0000
0000
0000
,
0000
0000
0000
0000
,
0000
0000
0000
0000
,
0000
0000
0000
0000
,
0000
0000
0000
0000
,
0000
0000
0000
0000
,
0000
0000
0000
0000
,
0000
0000
0000
0000
,
0001
1000
0000
0000
,
0000
0000
0010
0000
0000
0100
0000
0000
,
0010
0000
0010
0100
0000
0000
0000
0000
,
0000
0000
0000
0000
,
0001
0000
1000
0000
0000
1010
0000
0000
,
0000
0000
0010
1000
0000
0001
0000
0000
,
0100
0001
0000
1000
,
0010
0000
1000
0000
0001
0100
0001
0000
,
1000
0000
1001
0000
0000
0110
0000
0000
,
0000
0000
0010
1000
0000
0001
0100
0000
,
0001
1001
0000
1000
,
0001
0100
0010
1000
,
0001
0000
1001
0000
0000
1010
0000
0000
,
0000
1000
0010
0100
0000
0010
1000
0000
,
0010
0010
0000
0100
,
0001
1000
0001
0100
,
0010
0000
1010
0000
0000
0101
0000
0000
,
0000
0001
1000
0010
0000
1000
0001
0000
,
0100
0020
0000
0000
,
0000
0000
0000
0000
,
0130
0100
0010
0010
0100
0010
1001
0000
,
0010
0010
0100
0100
0010
0100
1001
0000
,
0100
0100
0010
0010
0100
0010
1001
0000
,
0010
0010
0100
0100
0010
0100
1001
0000
,
0002
0000
0000
1000
0000
0000
1000
0000
,
1000
0000
0000
1000
0000
0000
1000
0000
,
1000
0000
0000
1000
0000
0000
1000
0000
,
1000
0000
0000
1000
0000
0000
1000
0000
,
1003
0000
1001
0000
0000
0110
0000
0000
,
0000
0000
0010
1000
0000
0001
0100
0000
,
0001
1000
0000
0001
,
0100
0010
1000
0010
,
0100
0000
0001
0000
0000
1000
0000
0000
,
0000
0000
0010
1000
0000
0001
0100
0000
,
0010
0000
1000
0000
0000
0001
0000
0000
,
0100
0010
1000
0010
,
1000
0000
1001
0000
0000
0110
0000
0000
,
0000
0010
0100
0001
0000
0100
0010
0000
,
1000
1001
0000
0000
,
1000
0000
0001
0000
0100
0010
0000
1000
,
0010
0000
1010
0000
0000
1001
0000
0000
,
0000
1000
0001
0100
0000
0001
1000
0000
,
0002
2000
0000
0000
,
0000
0000
0000
3003
,
2020
0000
0000
0000
,
0000
0000
0000
0030
,
0002
3000
0200
0003
,
0020
0000
0000
0300
,
2000
0000
0000
0000
,
0000
0000
0000
0000
,
0000
0000
0000
0030
,
0002
0000
0000
3000
,
0200
0000
0000
0000
,
0000
0000
0000
0003
,
0020
0000
0000
0300
,
2000
0000
0000
0030
,
0002
0000
0000
0000
,
0000
0000
0000
3000
,
0200
0000
0000
0000
,
0000
0000
0000
0000
,
2020
0000
0000
0000
,
0000
0000
0000
0000
,
0000
3333
0000
0000
;
#NOTES:
     dance-single:
     Renard:
     Beginner:
     3:
     0.177,0.452,0.092,0.193,0.000:
0000
0000
0000
0000
,
0000
0000
0000
0000
,
0000
0000
0000
0000
,
0000
0000
0000
0000
,
0000
0000
0000
0000
,
0000
0000
0000
0000
,
0000
0000
0000
0000
,
0000
0000
0000
0000
,
0000
0000
0000
0000
,
0000
0000
0000
0000
,
0000
0000
0000
0000
,
0000
0000
0000
0000
,
0001
0000
1000
0000
0000
0010
0000
0000
,
0000
0000
1000
0010
0000
1000
0000
0000
,
0010
0200
0000
0000
,
0000
0000
0000
0000
,
0301
0000
1000
0000
0000
0010
0000
0000
,
0000
0000
1000
0001
0000
0100
0000
0000
,
0001
0020
0000
0000
,
0000
0000
0000
0000
,
0130
0000
1000
0000
0000
0001
0000
0000
,
0000
0000
0100
0001
0000
1000
0000
0000
,
0010
0200
0000
0000
,
0000
0000
0000
0000
,
0310
0000
1000
0000
0000
0001
0000
0000
,
0000
0000
0100
0001
0000
1000
0000
0000
,
0020
0000
0000
0000
,
0000
0000
0000
0000
,
0130
0110
0010
0110
,
0100
0110
0010
0110
,
0001
1001
1000
1001
,
0001
1000
0001
1000
0001
1000
0010
0000
,
2000
0000
0000
0001
0000
0000
0001
0000
,
0001
0000
0000
0001
0000
0000
0001
0000
,
0001
0000
0000
0001
0000
0000
0001
0000
,
0001
0000
0000
0001
0000
0000
0001
0000
,
3001
0000
0000
0100
0000
0000
0010
0000
,
1000
0000
0000
0010
0000
0000
0100
0000
,
0001
2000
0000
0000
,
0000
0000
0000
0000
,
3010
0000
1000
0000
0000
0001
0000
0000
,
1000
0000
0000
0100
0000
0000
0010
0000
,
0000
0002
0000
0000
,
0000
0000
0000
0000
,
0103
0000
0010
0000
0000
1000
0000
0000
,
0100
0000
0010
0000
0000
0001
0000
0000
,
1000
0020
0000
0000
,
0000
0000
0000
0000
0000
0000
0000
0030
,
0100
0000
0101
0000
0000
0101
0000
0000
,
0000
0000
1010
0000
0000
1010
0000
0000
,
2000
0000
0000
0000
,
0000
0000
0000
0000
,
3002
0000
0000
0000
,
0000
0000
0000
0000
,
0203
0000
0320
0000
,
2030
0000
0000
0000
,
3200
0000
0000
0000
,
0000
0000
0000
0000
,
0320
0000
0000
0000
,
0032
0000
0000
0000
,
2003
0000
0000
0000
,
0000
0000
0000
0000
,
3020
0000
0000
0000
,
0230
0000
0000
0000
,
0302
0000
0000
0000
,
0000
0000
0000
0000
,
2000
0000
0000
0000
,
0000
0000
0000
0000
,
0010
0000
0000
0000
,
0000
0000
0000
0000
,
0000
3003
0000
0000
;
