#TITLE:Evergreen;
#SUBTITLE:;
#ARTIST:Sonitus Vir;
#TITLETRANSLIT:;
#SUBTITLETRANSLIT:;
#ARTISTTRANSLIT:;
#CRChallenge:;
#BANNER:evergreen-banner.avi;
#BACKGROUND:evergreen-bg.png;
#LYRICSPATH:;
#CDTITLE:!cdtitle.png;
#MUSIC:evergreen.ogg;
#OFFSET:0.000;
#SAMPLESTART:21.293;
#SAMPLELENGTH:12.000;
#SELECTABLE:YES;
#BPMS:0.000=135.000;
#STOPS:;
#BGCHANGES:;
#NOTES:
     dance-single:
     Renard:
     Hard:
     9:
     0.608,0.562,0.722,0.110,0.447:
0000
0000
0000
0000
,
0000
0000
0000
0000
,
0000
0000
0000
0000
,
0000
0000
0000
0000
0000
0000
0000
0000
0000
1000
0100
1000
0100
0000
0010
0000
0001
0000
1000
0000
0100
0000
0010
0000
,
0001
0000
0000
0000
1100
0000
0000
0000
1000
0000
0000
0010
0000
0000
0100
0000
,
0001
0000
0000
0000
1100
0000
0000
0000
1000
0000
0000
0001
0000
0000
0010
0001
,
0010
0000
0000
0000
0101
0000
0000
0000
0010
0000
0000
1000
0000
0000
0100
1000
,
0100
0000
0000
0000
1000
0000
0000
0000
0001
0000
0000
0100
0000
0000
0010
0000
,
1000
0000
0000
0000
1001
0000
0000
0000
0001
0000
0000
0010
0000
0000
0100
0000
,
1000
0000
0000
0000
1100
0000
0000
0000
1000
0000
0000
0001
0000
0000
0100
0010
,
0100
0000
0000
0000
1010
0000
0000
0000
1000
0000
0000
0001
0000
0000
0100
0010
,
0100
0000
0000
0000
1001
0000
0000
1000
0100
0000
0000
0000
0011
0000
0000
0000
,
0100
0000
0000
0000
1000
0000
0001
0100
0001
0000
0000
0000
0110
0000
0010
1000
,
0010
0000
0000
1100
0000
0000
1001
0000
1010
0000
0000
0000
1100
0000
0000
0000
,
1001
0000
0000
0001
0010
0000
0001
0000
1001
0000
0000
0001
0100
0000
0010
0000
,
1000
0100
1000
0000
0001
0000
0100
0010
0100
0000
0010
0000
1000
0000
0100
0000
,
0010
0000
0000
0000
0011
0000
0010
0100
1000
0000
0000
0000
1010
0000
1000
0010
,
0100
0000
0000
0101
0000
0000
1001
0000
1100
0000
0000
0000
1001
0000
0000
0000
,
1010
0000
0000
0010
0100
0000
0001
0000
0011
0000
0000
0010
0100
0000
2000
0000
,
0002
0000
0000
0000
0000
0000
3013
0000
0000
0000
0000
0000
0000
0000
0000
1000
0001
1000
0001
0000
0000
0000
0000
0000
,
0100
0010
0100
0000
0000
0000
1010
0000
0101
0000
0000
0000
0000
0000
0000
0000
,
1000
0100
1000
0000
0000
0000
0011
0000
0110
0000
0000
0000
0000
0000
0000
0000
,
0100
1000
0010
0000
0000
0000
0101
0000
1010
0000
0000
0000
0000
0000
0000
0000
,
0010
1000
0001
0000
0000
0000
0101
0000
0110
0000
0000
0000
1001
0000
0000
0000
,
1000
0100
1000
0000
0001
0000
0100
0000
0010
0000
0000
1000
0000
0000
1000
0000
,
0010
0100
0010
0000
0100
0000
0001
0000
0010
0000
0000
0001
0000
0000
0001
0000
,
0010
0100
0010
0000
0100
0000
1000
0000
0010
0000
0000
1000
0000
0000
1000
0000
,
0010
0100
0010
0000
0100
0000
0002
0000
2000
0000
0000
0000
3013
0000
0000
0000
,
0001
0000
0000
0000
0110
0000
0010
1000
0010
0000
0000
0000
1100
0000
1000
0001
,
0100
0000
0000
1001
0000
0000
1100
0000
1000
0000
0000
0000
0110
0000
0000
0000
,
1010
0000
0000
1000
0010
0000
0100
0000
0110
0000
0000
0100
0001
0000
0010
0000
,
0001
1000
0001
0000
1000
0000
0100
1000
0001
0000
0000
0100
0001
0000
0001
0000
,
1000
0000
0000
0000
1100
0000
0001
0010
0001
0000
0000
0000
1001
0000
0100
0010
,
1000
0000
0000
1010
0000
0000
1000
0000
0100
0000
0000
0000
0011
0000
0000
0000
,
0110
0000
0000
0100
1000
0000
0010
0000
0110
0000
0000
0100
0001
0000
2000
0000
,
0002
0000
0000
0000
0000
0000
3013
0000
0000
0000
0000
0000
0000
0000
0000
1000
0001
1000
0001
0000
0000
0000
0000
0000
,
1001
0000
0000
0000
0110
0000
0100
0001
0100
0000
0000
0000
0011
0000
0001
1000
,
0010
0000
0000
1001
0000
0000
0011
0000
0001
0000
0000
0000
0110
0000
0000
0000
,
0101
0000
0000
0001
0100
0000
0010
0000
0110
0000
0000
0010
1000
0000
0100
0000
,
1000
0001
1000
0000
0001
0000
0010
0001
1000
0000
0000
0010
1000
0000
1000
0000
,
0001
0000
0000
0000
0011
0000
1000
0100
1000
0000
0000
0000
1001
0000
0010
0100
,
0001
0000
0000
0101
0000
0000
0001
0000
0010
0000
0000
0000
1100
0000
0000
0000
,
0110
0000
0000
0010
0001
0000
0100
0000
0110
0000
0000
0010
1000
0000
0002
0000
,
2000
0000
0000
0010
0000
0000
0020
0000
0000
3003
0000
0000
0030
0000
0000
0001
1000
0001
1000
0000
0000
0000
0000
0000
;
#NOTES:
     dance-single:
     Renard:
     Medium:
     8:
     0.425,0.428,0.294,0.000,0.245:
0000
0000
0000
0000
,
0000
0000
0000
0000
,
0000
0000
0000
0000
,
0000
0000
1001
0000
,
1000
0000
0000
0000
0100
0000
1000
0000
0001
0000
0000
0100
0000
0000
0001
0000
,
1000
0000
0000
0000
0001
0000
0010
0000
0001
0000
0000
1000
0000
0000
0010
0000
,
1000
0000
0000
0000
0100
0000
0000
0000
1000
0000
0000
0001
0000
0000
1000
0000
,
0010
0100
0001
0010
,
0001
0000
0000
0000
1000
0000
0100
0000
1000
0000
0000
0010
0000
0000
1000
0000
,
0001
0000
0000
0000
0100
0000
0000
0000
0001
0000
0000
1000
0000
0000
0001
0000
,
0010
0000
0000
0000
0001
0000
0000
0000
1000
0000
0000
0010
0000
0000
1000
0000
,
0001
0100
0010
1010
,
1000
0000
0000
0000
0010
0000
1000
0010
1000
0000
0000
0000
0010
0000
0000
0000
,
0100
0000
0000
0001
0000
0000
0010
0000
0001
0000
0000
0000
1000
0000
0000
0000
,
0001
0000
0000
0001
0000
0000
0001
0000
1000
0000
0000
1000
0000
0000
1000
0000
,
0010
0100
0010
0000
0000
0000
0000
0000
1000
0000
0000
0000
0001
0000
0000
0000
,
0100
0000
0000
0000
0001
0000
1000
0100
1000
0000
0000
0000
0001
0000
1000
0001
,
1000
0000
0000
0001
0000
0000
0010
0000
0100
0000
0000
0000
1000
0000
0000
0000
,
0010
0000
0000
0100
0000
0000
0010
0000
1000
0000
0000
0010
0000
0000
0100
0000
,
0000
0000
1001
0000
0000
1000
0001
0000
,
0100
0000
0010
1000
0010
0000
0101
0000
,
0010
0000
1000
0010
1000
0000
0101
0000
,
0010
0000
0000
0000
0100
0000
1000
0100
0000
0000
0000
0000
0011
0000
0000
0000
,
0100
1000
0100
0000
0000
0000
1000
0000
0001
0000
0000
0000
0101
0000
0000
0000
,
0001
1000
0001
0000
0000
0000
1000
0000
1000
0000
0000
0000
1100
0000
0000
0000
,
1000
0001
1000
0000
0000
0000
0001
0000
0001
0000
0000
0000
0011
0000
0000
0000
,
0001
1000
0001
0000
0000
0000
1000
0000
1000
0000
0000
0000
1010
0000
0000
0000
,
1000
0001
1000
0000
0000
0000
0001
0000
0100
0000
0000
0000
0110
0000
0000
0000
,
0010
0000
0000
0000
0000
0000
1000
0010
1000
0000
0000
0000
0000
0000
0010
0100
,
0010
0000
0000
0100
0000
0000
0001
0000
0010
0000
0000
0000
0100
0000
0000
0000
,
1000
0000
0000
1000
0000
0000
1000
0000
0001
0000
0000
0100
0000
0000
0010
0000
,
1000
0010
1000
0000
0001
0000
0000
0000
0100
0000
0000
0000
0010
0000
0000
0000
,
1000
0000
0000
0000
0000
0000
0100
1000
0100
0000
0000
0000
1000
0000
0001
1000
,
0001
0000
0000
1000
0000
0000
0001
0000
0100
0000
0000
0000
0010
0000
0000
0000
,
1000
0000
0000
0010
0000
0000
0100
0000
0001
0000
0000
1000
0000
0000
0001
0000
,
0010
0000
0000
0000
1001
0000
0000
0000
0000
0000
0001
0100
0001
0000
0000
0000
,
1000
1100
1000
1010
,
0010
0000
0000
0100
0000
0000
0001
0000
0010
0000
0000
0000
0110
0000
0000
0000
,
0010
0000
0000
0011
0000
0000
0001
0000
0100
0000
0000
0110
0000
0000
0010
0000
,
1000
0100
1000
0001
0100
0000
0110
0000
,
0010
0000
1000
0100
0010
0000
0001
0010
,
0100
0000
0000
0110
0000
0000
0100
0000
1000
0000
0000
0000
1010
0000
0000
0000
,
0100
0000
0000
0110
0000
0000
0100
0000
0001
0000
0000
0011
0000
0000
0010
0000
,
0100
0000
1001
0000
0000
0100
1001
0000
;
#NOTES:
     dance-single:
     Renard:
     Easy:
     6:
     0.339,0.375,0.184,0.220,0.006:
0000
0000
0000
0000
,
0000
0000
0000
0000
,
0000
0000
0000
0000
,
0000
0000
0000
0000
,
1000
0000
0001
0100
0001
0000
1000
0000
,
0001
0000
1000
0100
1000
0000
0001
0000
,
1000
0000
0001
0100
0001
0000
1000
0000
,
0001
0000
1000
0100
1000
0000
0001
0100
,
0001
0000
1000
0010
1000
0000
0001
0000
,
1000
0000
0001
0010
0001
0000
1000
0000
,
0001
0000
1000
0010
1000
0000
0001
0000
,
1000
0000
0001
0010
0001
0000
1001
0000
,
0000
0000
0000
1000
0100
0000
0000
0010
,
0001
0001
1000
1000
,
0001
0000
0001
0100
0010
0000
0010
1000
,
0200
0000
2000
3300
,
1100
0000
0000
1000
0010
0000
0000
0100
,
0001
0010
0001
0001
,
1000
0000
0100
1000
0010
0000
0100
0002
,
2000
3013
0000
0000
,
2000
0000
0000
0001
3001
0000
0000
0000
,
0002
0000
0000
0100
0103
0000
0000
0000
,
0200
0000
0000
0010
0310
0000
0000
0000
,
0020
0000
0000
1000
1030
0000
0000
0000
,
0200
0000
0000
1000
1300
0000
0000
0000
,
0002
0000
0000
0010
0013
0000
0000
0000
,
0200
0000
0000
0010
0310
0000
0000
0000
,
0001
0000
0000
2000
0002
0000
3013
0000
,
0000
0000
0000
1000
0001
0000
0000
0100
,
0001
0010
0100
0100
,
1000
0000
1000
0010
0100
0000
0100
0010
,
2000
0000
0001
0000
,
3001
0000
0000
0100
0001
0000
0000
0001
,
1000
0100
1000
0001
,
0010
0000
2002
0000
,
0000
0000
3013
0000
0000
1000
0001
0000
,
0100
0101
0001
1001
,
1000
1100
0100
0110
,
0010
0011
0001
1001
,
1000
0001
1000
0001
1000
0000
0001
0000
,
0100
0101
0001
1001
,
1000
1100
0100
0110
,
0010
0000
0011
0000
0001
1000
0010
0000
,
2002
0000
0000
0000
3013
0000
0000
0000
0000
0000
1000
0001
1000
0000
0000
0000
;
#NOTES:
     dance-single:
     Renard:
     Beginner:
     3:
     0.315,0.348,0.184,0.392,0.000:
0000
0000
0000
0000
,
0000
0000
0000
0000
,
0000
0000
0000
0000
,
0000
0000
0000
0000
,
1000
0000
1000
0001
,
0100
0000
0100
0001
,
0010
0000
0010
0001
,
2000
0000
0002
3003
,
0000
1000
0001
0100
,
0000
0001
1000
0100
,
0000
1000
0001
0010
,
0000
0001
1000
0000
,
0001
0000
0100
0000
,
0010
0000
1000
0000
,
0001
0100
0010
1000
,
0100
0010
0002
0000
,
1003
0000
0010
0000
,
0100
0000
0001
0000
,
1000
0100
0010
0002
,
2000
3003
0000
1001
,
1000
1001
0001
1001
,
1000
1001
0001
1001
,
1000
1001
0001
1001
,
1000
0001
1000
0001
,
0100
0110
0010
0110
,
0100
0110
0010
0110
,
0100
0110
0010
0110
,
0010
1000
0001
1000
,
0002
0000
0203
0000
,
0310
1000
0100
0010
,
0002
1003
0020
0130
,
0002
1003
0020
0130
,
0002
0000
2003
0000
,
3100
0010
0001
1000
,
2000
3010
0200
0301
,
2000
3001
0000
1001
,
0002
0103
0002
0013
,
2000
3100
2000
3010
,
0002
0013
0002
0103
,
2000
3100
2000
3010
,
0002
0103
2000
3100
,
0002
0013
2000
3010
,
0002
0103
0020
1030
,
0100
2002
0000
3013
;
