#TITLE:Epileptic Crisis;
#SUBTITLE:;
#ARTIST:Nightmare;
#TITLETRANSLIT:;
#SUBTITLETRANSLIT:;
#ARTISTTRANSLIT:;
#GENRE:;
#CRChallenge:;
#BANNER:crisis.png;
#BACKGROUND:crisis-bg.png;
#LYRICSPATH:;
#CDTITLE:;
#MUSIC:Epileptic Crisis.ogg;
#OFFSET:-0.050;
#SAMPLESTART:20.240;
#SAMPLELENGTH:10.400;
#SELECTABLE:YES;
#DISPLAYBPM:190.000:380.000;
#BPMS:0.000=190.000,24.000=380.000,32.000=190.000,45.000=380.000,46.000=190.000,54.000=380.000,56.000=190.000,60.000=379.998,128.000=189.999,129.000=380.000,143.000=190.000,144.000=380.000,151.000=190.000,153.000=380.000,165.000=190.000,166.000=380.000,171.000=190.000,172.000=380.000,276.000=190.000,321.000=380.000,322.000=190.000,330.000=380.000,332.000=190.000,336.000=380.000,459.000=760.000,463.000=700.001,463.500=670.001,464.000=640.001,464.500=610.001,465.000=580.001,465.500=550.002,466.000=510.002,466.500=470.002,467.000=441.002,467.500=408.002,468.000=376.002,468.500=317.002,469.000=274.003,469.500=237.003,470.000=202.004,470.500=192.004,471.000=380.000,478.000=190.000,479.000=380.000,482.500=190.000,483.500=380.000,493.000=190.000,494.000=380.000,495.000=190.000,496.000=380.000,497.000=190.000,506.000=380.000,508.000=190.000,511.000=380.000,513.000=190.000,515.000=380.000,517.000=190.000,519.000=380.000,521.000=190.000,524.000=380.000,526.000=190.000,529.000=380.000,531.000=190.000,532.000=380.000,534.000=190.000,535.000=380.000,537.000=190.000;
#STOPS:24.000=0.158
,25.000=0.158
,26.000=0.118
,26.750=0.118
,27.500=0.158
,28.500=0.079
,29.000=0.158
,30.000=0.079
,30.500=0.039
,30.750=0.039
,31.000=0.039
,31.250=0.039
,31.500=0.080
,45.000=0.039
,45.250=0.039
,45.500=0.039
,45.750=0.039
,54.000=0.053
,54.333=0.053
,54.667=0.053
,55.000=0.053
,55.333=0.053
,55.667=0.053
,60.000=0.079
,60.500=0.079
,61.000=0.079
,61.500=0.079
,62.000=0.039
,62.250=0.039
,62.500=0.039
,62.750=0.039
,63.000=0.039
,63.250=0.039
,63.500=0.039
,63.750=0.039
,321.000=0.039
,321.250=0.039
,321.500=0.039
,321.750=0.039
,330.000=0.053
,330.333=0.053
,330.667=0.053
,331.000=0.053
,331.333=0.053
,331.667=0.053
,336.000=0.079
,336.500=0.079
,337.000=0.079
,337.500=0.079
,338.000=0.039
,338.250=0.039
,338.500=0.039
,338.750=0.039
,339.000=0.039
,339.250=0.039
,339.500=0.039
,339.750=0.039
,379.500=0.157
,380.000=0.158
,380.500=0.079
,381.000=0.158
,381.500=0.158
,382.000=0.079
,459.000=0.039
,459.500=0.039
,460.000=0.039
,460.500=0.039
,461.000=0.039
,461.500=0.039
,462.000=0.040
,462.500=0.040
,471.000=0.157
,472.000=0.079
,472.500=0.079
,473.000=0.039
,473.250=0.039
,473.500=0.039
,473.750=0.039
,474.000=0.080
,474.500=0.118
,475.250=0.118
,476.000=0.079
,476.500=0.039
,476.750=0.039
,477.000=0.039
,477.250=0.039
,477.500=0.080
,479.000=0.159
,480.000=0.079
,480.500=0.039
,480.750=0.039
,481.000=0.080
,481.500=0.039
,481.750=0.039
,482.000=0.039
,482.250=0.040
,483.500=0.079
,484.000=0.059
,484.333=0.059
,484.667=0.060
,485.000=0.159
,486.000=0.159
,487.000=0.150
,488.000=0.079
,488.500=0.039
,488.750=0.039
,489.000=0.080
,489.500=0.039
,489.750=0.039
,490.000=0.039
,490.250=0.039
,490.500=0.039
,490.750=0.040
,491.000=0.079
,491.500=0.395
,492.000=0.395
,492.500=0.079
,494.000=0.039
,494.250=0.039
,494.500=0.039
,494.750=0.040
,496.000=0.039
,496.250=0.039
,496.500=0.039
,496.750=0.040
;
#BGCHANGES:;
#KEYSOUNDS:;
#NOTES:
     dance-single:
     WinDEU:
     Medium:
     8:
     0.616,0.000,0.168,0.538,0.084:
0000
0000
0000
0000
,
0000
0000
0000
0000
,
0000
0000
0000
0000
,
0000
0000
0000
0000
,
0002
0000
0000
0000
,
0003
0000
0000
0000
0000
0000
1000
0001
1000
0001
0000
0000
,
2000
0000
0000
0000
3001
0000
0000
0000
0100
0000
0000
0100
0000
0000
0200
0000
,
0000
0001
0301
0000
2002
0000
3003
0000
,
2000
0100
0100
3100
,
0020
0001
0001
0031
,
0200
0010
0010
0310
,
1000
0001
0100
0010
1000
0000
0100
0000
,
1000
0100
0010
0001
,
0100
0000
0000
0001
0000
0000
1000
0000
0000
0000
0000
0000
0001
0000
1000
0000
0001
0000
1000
0000
0001
0000
1000
0000
,
0001
0000
1000
0000
0100
0010
0100
0000
,
1000
0010
0100
0001
0020
0000
0000
0000
,
0032
0000
0003
1000
,
0001
0100
0010
1000
,
0000
1010
0000
0001
,
0000
0000
0101
0000
0000
1000
0000
0000
,
1100
0000
0000
0000
0000
0000
1000
0001
,
1000
0100
0010
0001
,
1000
0000
0010
0000
0100
0000
0020
1000
,
0000
1000
0030
0000
1000
0000
0001
0000
,
0020
0000
0030
0001
,
0100
0010
1000
0100
,
0000
0000
2000
0000
0000
0001
0000
0001
,
3000
0000
0200
0000
0000
0010
0000
0310
,
2000
0000
3000
0001
,
0100
0010
1000
0100
,
0000
1000
0010
0100
,
0001
0000
0020
0100
0000
0100
0000
0130
,
2000
00M0
3002
0000
0000
0000
0103
0000
,
0100
0010
1000
0100
,
0010
0000
0001
1000
,
0100
0000
1000
0000
0001
0000
0200
M000
,
0310
0000
1000
0001
,
0010
0000
0000
0000
0100
0000
2000
00M0
,
0001
3001
0100
0010
,
1000
0001
0010
0000
,
0001
0100
0010
1000
,
0100
0000
2000
000M
3010
0000
0100
0000
,
0010
0000
1000
0000
0100
0000
0020
M000
,
0031
0000
0100
0001
,
1000
0000
0001
0010
,
0000
0000
0004
4000
0000
0000
0000
0000
,
0000
0000
3003
0000
,
2000
0000
3001
0200
,
0000
0310
1000
0010
,
0200
0000
0301
0020
,
0000
0130
1000
0001
,
0200
0000
0310
2000
,
0000
3100
0010
0100
,
2000
0000
3001
0020
,
0000
0000
0000
0130
0000
0000
0010
0000
0001
0000
0010
0000
,
0002
0000
1003
0020
,
0000
0000
0000
0130
0000
0000
0001
0000
0100
0000
0001
0000
,
0200
0000
0301
2000
,
0000
0000
0000
3100
0000
0000
1000
0000
0100
0000
1000
0000
,
0200
0000
1000
0000
,
0000
0010
0000
0310
,
0000
0000
0002
0000
,
0000
0100
0000
0103
,
0010
1000
0100
0010
,
0001
1000
0010
0100
,
0001
1000
0100
1000
,
0001
0100
0010
1000
,
0100
0010
0001
0100
,
0010
0000
0100
0000
,
2002
0000
0000
0000
,
0000
0000
0000
0000
,
0000
0000
0000
0000
,
0000
0000
0000
0000
,
0000
0000
0000
0000
,
0000
0000
0000
0000
,
0000
0000
0000
0000
,
0000
0000
3003
0000
,
1001
0000
0000
0000
1000
0001
0100
0000
,
0002
0000
0023
0000
,
0230
0000
2300
0000
,
3001
0100
0010
1000
0100
0000
1000
0001
,
0100
0010
1000
0100
,
1000
0000
0000
0001
0000
0000
1000
0001
1000
0001
1000
0001
,
1000
0000
0010
0000
0100
0001
0100
0000
,
0001
1000
0001
1000
0200
0000
0000
0000
,
2300
0000
3000
0001
,
0010
0001
0100
0010
,
0000
1010
0000
0001
,
0000
0000
0101
0000
0000
1000
0000
0000
,
1100
0000
0000
1000
,
0001
0010
0100
0010
,
0001
0000
1000
0000
0010
0000
0200
0001
,
0000
0001
0300
0000
0001
0000
1000
0000
,
0200
0000
0300
0010
,
0001
0000
0100
0000
0001
0000
2000
000M
,
000M
000M
000M
000M
000M
0000
3002
0000
,
0000
0003
0100
0010
,
1000
0100
1000
0000
,
0001
1000
0010
0100
,
0020
1000
0000
1000
0000
1030
0010
0000
,
0100
0001
1000
0100
,
0010
0100
1000
0001
,
0100
0010
1000
0100
,
1000
0010
0100
0001
,
0010
0001
0100
0010
,
1000
0100
0010
0001
,
0010
0100
1000
0001
,
1000
0001
1000
0001
1000
0000
0010
0000
,
0100
0002
0000
0013
,
0100
2000
0000
3010
,
0100
0002
0000
0013
,
0100
2000
0000
3001
,
0000
0101
0000
1000
,
0000
1010
0000
1000
,
0001
0100
0010
1000
,
0000
0000
0000
1001
,
0000
0000
0000
0000
,
0000
0000
0000
1001
,
1000
0000
0001
0000
0100
0000
0001
0000
1000
0000
0100
0000
0000
0100
0000
0000
,
0100
1000
2000
3010
,
0100
0001
0010
0001
1000
0100
0000
0100
,
1000
0110
1001
0001
,
0010
0100
0010
0001
0100
0010
2000
0000
,
3002
0103
0100
0010
,
0010
0000
0000
0000
1000
0000
0000
0001
0000
0000
1000
0000
0000
0001
0000
0000
,
1000
0002
0100
1000
,
0103
0020
1000
0000
,
0100
1030
0002
0010
,
0000
1000
0013
0200
,
0000
1000
0010
1300
,
0000
0020
0100
1000
,
0130
0000
0002
0010
,
0100
0013
0000
0100
,
1100
0000
0001
0011
,
0000
1001
0000
0110
,
0000
2002
0000
0000
,
3003
0000
0000
0000
;
#NOTES:
     dance-single:
     WinDEU:
     Easy:
     5:
     0.396,0.000,0.185,0.328,0.000:
0000
0000
0000
0000
,
0000
0000
0000
0000
,
0000
0000
0000
0000
,
0000
0000
0000
0000
,
1001
0000
0000
0000
,
0000
0000
0000
0000
,
0001
0000
0000
0000
0100
0000
0000
0101
,
0000
0000
1000
0000
,
0100
0100
0100
0100
,
0010
0010
0010
0010
,
0001
0001
0001
0001
,
0001
0001
0001
0001
,
1000
0010
0100
0010
,
1000
0001
0010
0001
,
0100
0010
1000
0001
,
2002
0000
0000
3003
,
1000
0000
0000
1000
,
0001
0000
0000
0100
,
0000
0100
0000
0100
,
0000
0000
0100
0000
0000
0100
0000
0000
,
0010
0000
0000
1000
,
0010
0000
0100
0000
,
0001
0000
1000
0000
0100
0000
0000
0100
,
0000
0000
0010
0000
,
0001
0000
0000
0001
,
1000
0000
0000
0010
,
0000
0000
0010
0000
0000
0010
0000
0000
,
0000
0000
0100
0000
0000
0100
0000
0000
,
0001
0000
0000
0001
,
1000
0000
0100
0000
,
1000
0000
0001
0000
,
0100
0000
0010
0000
,
1001
1001
0000
0100
,
0000
0001
1000
0001
,
1000
0000
1000
0100
,
1000
0100
1000
0100
,
1100
0000
1000
0001
,
1000
0000
0001
0100
,
0101
0001
0100
0001
,
0100
0000
0010
0000
,
0010
0000
1000
0000
,
1000
0001
0001
0100
,
0000
0010
0000
0010
,
0010
0000
0010
0000
,
1000
0000
0000
2002
,
0000
0000
0000
0000
,
0000
0000
3003
0000
,
0000
0000
1000
0000
,
0000
1000
0000
1000
,
0000
0000
0001
0000
,
0000
0001
0000
0001
,
0000
0000
0100
0000
,
0000
0100
0000
0100
,
0000
0000
0010
0000
,
0000
0010
2000
0000
,
3100
0000
0010
0000
,
0000
0010
0002
0000
,
0103
0000
0010
0000
,
0000
0010
2000
0000
,
3001
0000
0010
0000
,
0000
0010
0001
0010
,
0000
0000
0100
0000
,
0000
0100
1000
0100
,
1000
0001
1000
0001
,
1000
0001
1000
0001
,
1000
0001
1000
0001
,
1000
0001
1000
0001
,
1000
0001
1000
0001
,
1000
0001
1000
0000
,
1001
0000
0000
0000
,
0000
0000
0000
0000
,
0000
0000
0000
0000
,
0000
0000
0000
0000
,
0000
0000
0000
0000
,
0000
0000
0000
0000
,
0000
0000
0000
0000
,
0000
0000
0000
0000
,
1001
0000
0001
1000
,
0200
0000
0320
0000
,
0032
0000
2003
0000
,
3020
0000
0230
0000
,
0301
1000
0100
1000
,
0010
0100
0001
0010
,
0001
0100
0010
1000
,
2002
0000
0000
3003
,
0001
0000
0000
0001
,
1000
0000
0000
0010
,
0000
0010
0000
0010
,
0000
0000
0010
0000
0000
0010
0000
0000
,
0100
0000
0000
0001
,
0100
0000
0010
0000
,
1000
0000
0001
0000
0010
0000
0000
0010
,
0000
0000
0100
0000
,
1000
0000
0000
1000
,
0001
0000
0000
0100
,
0000
0000
0000
0001
,
0000
0000
1000
0001
,
0000
0010
0000
0001
,
0000
1000
0000
0010
,
0000
0100
0000
0001
,
0000
0100
0000
0010
,
0000
1000
0000
0100
,
0000
0010
0000
0001
,
0000
0010
0000
0001
,
0000
1000
0000
0010
,
0000
0100
0000
0010
,
0000
1000
0000
0001
,
0000
1000
0000
0200
,
0000
2300
0000
3020
,
0000
0230
0000
0302
,
0000
0023
0000
0230
,
0000
0320
0000
0032
,
0000
0203
0000
0320
,
0000
2030
3000
2002
,
0000
0000
0000
0000
,
0000
0000
0000
0000
,
0000
0000
0000
0000
,
0000
0000
3003
1000
,
1000
0000
0100
0000
0000
0010
0000
0000
,
0010
0001
1001
0001
,
1000
0000
0010
0000
0000
0100
0000
0100
,
0001
1001
1001
1000
,
0100
0010
0001
1001
,
0110
1001
0000
0110
,
0000
2002
0000
0000
,
3003
0002
0000
0000
,
0000
0203
0000
0000
,
0000
0000
0320
0000
,
0000
0000
0000
2030
,
0000
0000
0000
0000
,
0000
3200
0000
0000
,
0000
0000
0320
0000
,
0000
0000
0030
2002
,
0000
0000
0000
0000
,
0000
0000
0000
0000
,
3003
1001
0000
0000
;
#NOTES:
     dance-single:
     WinDEU:
     Hard:
     11:
     0.951,0.000,0.050,0.471,0.416:
0000
0000
0000
0000
,
0000
0000
0000
0000
,
0000
0000
0000
0000
,
0000
0000
0000
0000
,
1000
0000
0001
0100
0000
0100
0010
0000
,
1000
0100
0000
0100
1000
0000
1001
0000
,
0001
0000
0000
0000
1000
0000
0000
0000
0100
0000
0000
0100
0000
0000
0200
0000
,
0000
0000
0010
0000
0310
0000
0000
0000
0001
0000
1000
0010
1000
0010
1000
0000
,
0001
0000
0100
0000
0010
0000
1000
0001
,
0010
0000
0100
0000
0010
0000
0001
1000
,
0010
0100
0010
1000
,
0100
0000
0010
0000
0001
1000
0001
1000
0001
0000
0000
0000
0100
0000
0001
0000
,
1000
0100
0010
0001
0010
0100
1000
0001
,
0100
0000
0000
0010
0000
0000
1000
0000
0000
0001
0000
0000
1000
0000
0001
0000
1000
0000
0001
0000
1000
0000
0001
0000
,
1000
0100
1000
0100
1000
0000
0001
0000
0100
0000
0010
0000
1010
0000
0000
0000
,
1000
0000
0001
0000
0100
0000
0010
0000
0100
0001
0100
0001
0100
0001
0100
0001
,
0100
0001
0010
0100
,
0010
0001
1000
0010
,
0200
0301
2000
3100
,
0020
0000
0031
0000
1000
0010
0000
1000
,
0002
0000
0000
0000
0103
0000
0001
1000
,
0001
1000
0100
1000
,
0010
0000
0100
0000
0010
0000
0100
0002
,
0000
1000
0003
0000
0001
0000
1000
0001
,
1000
0000
1010
1000
,
0001
0100
0001
0010
,
0001
0000
1000
0000
0100
1000
0000
0010
,
0100
0000
0001
0000
0010
0100
0000
0010
,
0002
0000
0000
0000
1003
0000
0010
1000
,
0010
0100
0001
0100
,
0001
0010
0001
0010
0001
0000
1000
0010
,
1000
0010
1000
0010
0000
0100
0000
0001
,
2000
3200
0000
0310
,
0001
0000
1000
0010
1000
0010
1000
0000
,
0002
0000
0103
0010
,
1000
0000
0100
1000
0100
1000
0200
0000
,
0320
0000
0000
0000
0031
0000
1000
0010
,
2000
0000
3000
0001
1000
0001
2000
0000
,
0100
0000
3001
0000
0100
0001
0100
0001
,
0100
0000
0001
1000
0001
0000
0000
0000
,
1000
0000
0010
0000
0100
0000
0001
1000
,
0001
0020
0130
1000
,
0010
0000
0100
0010
0100
0010
0200
0000
,
0320
0000
0000
0000
1030
0000
0001
1000
,
0001
0000
0000
1000
0100
1000
0100
0000
,
0000
0000
1000
0001
1000
0001
0100
0001
,
0100
0001
1000
0001
1000
0100
1000
0000
,
0001
0100
0001
0100
0001
0000
0100
0001
,
0100
0001
0100
0000
0001
0100
0001
0000
,
1000
0001
1000
0001
1000
0000
0001
1000
,
0001
1000
0001
0000
1000
0001
1000
0000
,
0010
1000
0010
1000
0010
0000
1000
0010
,
1000
0010
1000
0000
0010
1000
0010
0000
,
1000
0100
1000
0100
1000
0000
0100
1000
,
0100
0000
0000
1000
0000
0000
0100
0000
0000
0000
0000
0000
1000
0000
0000
0000
0001
0000
0000
0000
1000
0000
0000
0000
,
0001
0100
0001
0100
0001
0000
1000
0001
,
1000
0000
0000
0001
0000
0000
1000
0000
0000
0000
0000
0000
0010
0000
0000
0000
0100
0000
0000
0000
0001
0000
0000
0000
,
1000
0010
1000
0010
1000
0000
0010
0100
,
0010
0000
0000
0100
0000
0000
0010
0000
0000
0000
0000
0000
0100
0000
0000
0000
0001
0000
0000
0000
1000
0000
0000
0000
,
0100
1000
0100
1000
0100
0000
1000
0001
,
1000
0001
1000
0000
0010
0000
0010
0000
,
0100
0001
0100
0001
0100
0000
0001
0010
,
0001
0010
0001
0000
1000
0000
1000
0000
,
0002
0023
0230
0320
,
0032
2003
3020
0230
,
0302
0023
0230
2300
,
3020
0230
0320
2030
,
3001
1000
0001
1000
0010
1000
0010
1000
,
0010
0100
0010
0100
0001
0100
0001
0000
,
2002
0000
0000
0000
,
0000
0000
0000
0000
,
0000
0000
0000
0000
,
0000
0000
0000
0000
,
0000
0000
0000
0000
,
0000
0000
0000
0000
,
0000
0000
0000
0000
,
0000
0000
0000
3003
,
0100
0000
0001
1000
0010
0000
0100
0001
,
1000
0000
0100
0010
0001
0000
1000
0000
,
0001
0100
0010
1000
,
0100
0000
0010
0000
0001
1000
0001
1000
0001
0000
0000
0000
1000
0000
0000
0001
,
0100
0001
1000
0100
0010
0000
0001
1000
,
0100
0000
0000
1000
0000
0000
0010
0000
0000
0100
0000
0000
0001
0000
1000
0000
0001
0000
1000
0000
0001
0000
1000
0000
,
0001
0000
1000
0010
1000
0000
0001
0000
0100
0000
0010
0000
0100
0000
0000
0000
,
0001
0000
1000
0000
0100
0000
0010
0000
0001
1000
0001
1000
0001
1000
0001
1000
,
0001
0000
0100
0001
,
1000
0100
1000
0010
,
0200
0301
0020
0031
,
2000
0000
3010
0000
0100
0010
0000
1000
,
0001
0000
0000
0000
1000
0000
0001
0010
,
0001
1000
0010
0100
,
0010
0000
1000
0000
0100
0000
1000
0001
,
0000
0010
0001
0000
0100
0000
0010
1000
,
0010
1000
0001
0010
,
0001
0000
0100
0000
0010
0000
2000
0100
,
0001
0010
0010
0001
0100
3100
1000
0000
,
0010
0000
0100
0000
0001
0010
0001
0000
,
0100
0001
0100
0001
,
1000
0000
0100
0000
0010
0100
0010
0100
,
0010
0001
0000
1000
0000
0010
0100
0000
,
0001
1000
0100
1000
,
0010
0000
1000
0001
1000
0001
1000
0000
,
0010
0100
0001
0010
,
0100
1000
0100
0000
1000
0001
1000
0000
,
0010
0100
0001
1000
,
0100
0000
1000
0010
1000
0010
1000
0000
,
0001
0000
0010
0100
0010
0100
0010
0000
,
0001
1000
0001
1000
0001
0100
0001
0000
,
1000
0010
0100
0001
,
0010
0000
0100
1000
0100
1000
0100
0000
,
0010
0001
1000
0010
,
0100
0000
0001
0010
0001
0010
0001
0000
,
1000
0001
1000
0000
0001
1000
0001
0000
,
1000
0001
1000
0000
0001
1000
0001
0000
,
0100
0000
0010
0000
1000
0000
0100
1000
,
0100
1000
0100
1000
0100
1000
0200
0000
,
0000
0000
0000
0000
,
0000
0000
0000
0310
,
0001
0000
1000
0000
0100
1000
0100
1000
0100
0000
1000
0000
0000
0001
0000
0000
,
0100
0000
0001
1000
0001
1000
0001
0000
0200
0000
0000
0000
0310
0000
0000
0000
,
1000
0000
0010
1000
0010
0000
1000
0001
1000
0001
2000
0000
0000
0000
3001
0000
,
0010
0001
0010
0002
0000
0000
2003
0000
0000
3010
0000
0000
,
0100
0000
0001
0100
0001
0000
0010
0001
0010
0001
0010
0001
0010
0000
0100
0000
,
1001
0000
0001
0000
0200
0000
0000
0000
0310
1000
0010
1000
0020
0000
0000
0000
,
1030
0001
1000
0001
1000
0000
0001
1000
0000
0001
1000
0000
0001
1000
0000
0001
,
1000
0000
0000
0100
0000
0000
0010
0000
0001
0000
0010
0000
0001
0000
0010
0000
0001
0000
1000
0000
0001
0000
1000
0000
,
0001
1000
0001
1000
0100
1000
0200
0000
0000
0000
0000
0000
,
1300
0001
1000
0001
1000
0001
0010
0001
0010
0002
0000
0000
,
0000
0000
0000
0013
0100
0010
0100
0010
0100
0020
0000
0000
,
0000
0000
0000
0130
1000
0100
1000
0100
1000
0200
0000
0000
,
0000
0000
0000
1300
0001
1000
0001
1000
0001
1000
0010
1000
,
0020
0000
0000
0000
0000
0000
0130
0010
0100
0010
0100
0010
,
0100
0001
0100
0002
0000
0000
0000
0000
0000
1003
0001
1000
,
0002
0000
0000
0000
0000
0000
1003
0010
1000
0020
0000
0000
,
0000
0000
0000
0000
1030
0000
0001
1000
0000
0001
1000
0000
0001
1000
0000
0001
,
1000
0100
2002
0000
0000
0000
3003
0000
;
#NOTES:
     dance-single:
     pyroko:
     Beginner:
     3:
     0.219,0.114,0.092,0.244,0.000:
0000
0000
0000
0000
,
0000
0000
0000
0000
,
1001
0000
0000
0000
,
0000
0000
0000
0000
,
1001
0000
0000
0000
,
0000
0000
0000
0000
,
0020
0000
0000
0000
,
0000
0000
0000
0000
0000
0000
0000
0030
,
1000
0000
0100
0000
,
0010
0000
0001
0000
,
1000
0000
0010
0000
,
0100
0000
0010
0000
,
1000
0000
0100
0000
,
0010
0000
0100
0000
,
1000
0000
0010
0000
,
0200
0000
0000
0000
,
0310
0000
0000
0000
,
1000
0000
0000
0000
,
0100
0000
0010
0000
,
0100
0000
0000
0000
,
1000
0000
0000
0000
,
0001
0000
0000
0000
,
0100
0000
0001
0000
,
0100
0000
0000
0000
,
0010
0000
0000
0000
,
1000
0000
0000
0000
,
0010
0000
1000
0000
,
0010
0000
0000
0000
,
1000
0000
0000
0000
,
0100
0000
0000
0000
,
1000
0000
0001
0000
,
1000
0000
0000
0000
,
0000
1001
0000
0000
,
0000
0000
0000
0000
,
0000
0000
0000
0000
,
0000
0000
0000
0000
,
0110
0000
0000
0000
,
0000
0000
0000
0000
,
0000
0000
0000
0000
,
0000
0000
1001
0000
,
0000
0000
0000
0000
,
0000
0000
0000
0000
,
0000
0000
0000
0000
,
1100
0000
0000
0000
,
1001
0000
0000
0000
,
0011
0000
0000
0000
,
0000
0000
0000
0000
,
1000
0000
0000
0000
,
0001
0000
0001
0000
,
0000
0000
0100
0000
,
0000
0010
0000
0010
,
0000
0000
1000
0000
,
0000
0100
0000
0100
,
0000
0000
0010
0000
,
0000
0001
0000
0001
,
0000
0000
1000
0000
,
0000
0010
0000
0010
,
0000
0000
0100
0000
,
0000
0010
0000
0010
,
0000
0000
1000
0000
,
0100
0000
0000
0100
,
0000
0000
0010
0000
,
0000
0001
0000
0001
,
0000
0000
1000
0000
,
0000
0001
0000
0000
,
1000
0000
0000
0000
,
0010
0000
0000
0100
,
0000
0000
0010
0000
,
0100
0000
0010
0000
,
0200
0000
0000
0000
,
0000
0000
0000
0000
,
0000
0000
0000
0000
,
0000
0000
0000
0000
,
0000
0000
0000
0000
,
0000
0000
0000
0000
,
0000
0000
0000
0000
,
0000
0000
0000
0000
,
0302
0000
0000
0000
,
2003
0000
0000
0000
,
3020
0000
0000
0000
,
0230
0000
0000
0000
,
0302
0000
0000
0000
,
2003
0000
0000
0000
,
3020
0000
0000
0000
,
0130
0000
0001
0000
,
1000
0000
0000
0000
,
0010
0000
0000
0100
,
0000
0000
0010
0000
,
0010
0000
0000
0000
,
1000
0000
0000
0000
,
0100
0000
0000
0000
,
0010
0000
0001
0000
,
0010
0000
0001
0000
,
1000
0000
0000
0000
,
0010
0000
0000
1000
,
0000
0000
0000
0010
,
0000
0000
0000
1000
,
0000
0000
0000
0100
,
0000
0010
0000
0100
,
0000
0010
0000
0100
,
0000
0000
0000
0000
,
1000
0000
0000
0000
,
0001
0000
0000
0000
,
0000
1000
0000
0000
,
0000
0010
0000
0000
,
0000
0100
0000
0000
,
0000
0010
0000
0000
,
0000
1000
0000
0000
,
0000
0100
0000
0000
,
0010
0000
0000
0001
,
0000
1000
0000
0010
,
0000
0100
0000
0010
,
0000
1000
0000
0010
,
0000
1000
0000
0010
,
0000
1000
0000
0020
,
0000
0000
0000
0030
,
0000
0000
0000
0000
,
0000
0000
0000
2002
,
0000
0000
0000
0000
,
0000
0000
3003
0220
,
0000
0000
0000
0000
,
0000
0000
0330
2002
,
0000
0000
0000
0000
,
0000
3003
0200
0000
0000
0000
0320
0000
,
0000
0032
0000
0003
,
0000
2000
0000
0000
,
0000
3020
0000
0000
,
0000
0000
0230
0000
,
0000
0000
0000
0302
,
0000
0000
0000
0000
,
0000
0023
0000
0000
,
0000
0000
0230
0000
,
0000
0000
0000
2300
,
0000
0000
3020
0000
,
0000
0230
0000
0000
,
0000
0300
0000
0000
;
