#TITLE:Endorphin Machine;
#SUBTITLE:;
#ARTIST:Sam Torero;
#TITLETRANSLIT:;
#SUBTITLETRANSLIT:;
#ARTISTTRANSLIT:;
#CRChallenge:;
#BANNER:;
#BACKGROUND:;
#LYRICSPATH:;
#CDTITLE:!cdtitle.png;
#MUSIC:endorphinmachine.ogg;
#OFFSET:-1.440;
#SAMPLESTART:0.005;
#SAMPLELENGTH:12.000;
#SELECTABLE:YES;
#BPMS:0.000=190.020,204.000=95.040,208.000=190.020;
#STOPS:272.000=0.240
;
#BGCHANGES:;
#NOTES:
     dance-single:
     Ninjafar:
     Hard:
     9:
     0.561,0.674,0.108,0.141,0.103:
0000
0000
0000
0000
,
0000
0000
0000
0000
,
0000
0000
0000
0000
,
1000
0000
0010
0000
0100
0100
0000
0001
,
0000
1000
0000
0010
0010
0000
0000
0000
,
0001
0000
0010
0000
0001
0001
0000
2000
,
0000
3000
0000
0002
0000
0003
0000
0000
,
1000
0000
0100
0000
0010
0010
0010
0000
,
0001
0000
0100
0000
0001
0001
0001
0000
,
0010
0000
0000
0000
0100
1000
0100
0000
,
0001
1000
0001
0000
0010
0010
0000
0000
,
0001
0000
0010
0000
1000
1000
1000
0000
,
0010
0100
0010
0100
0010
0100
0010
0000
,
1000
0000
1000
0000
1000
0001
1000
0000
,
0000
0000
0000
0001
0010
0100
1000
0100
,
0010
0000
0001
0000
0100
0010
0000
1000
,
0000
0100
0010
0001
0010
0100
1000
0000
,
0001
0000
0100
0000
0010
1000
0000
0100
,
0000
0010
0001
0010
0100
1000
0001
0000
,
0100
0000
0010
0000
1000
0100
0000
0010
,
0000
0001
0010
0100
0010
0100
1000
0000
,
0001
0000
1000
0000
0001
1000
0000
0010
,
0000
0100
0001
0010
0100
1000
0001
0000
,
1000
0000
0001
0000
1000
1000
0000
0010
,
0000
0100
0010
0100
0001
0100
0010
0000
,
1000
0000
0010
0000
0100
0100
0000
0001
,
0000
1000
0100
0010
0100
1000
0001
0000
,
0010
0000
0100
0000
1000
0001
0000
0000
,
0000
1000
0100
0000
0010
0001
0000
0000
,
0000
0100
0010
0000
1100
0000
0000
0100
,
0000
0010
0001
0000
0100
0100
0000
0000
,
0010
0000
1000
0000
0100
0100
0000
0010
,
0000
0001
0000
0100
0100
0000
0000
0000
,
1001
0000
1000
0000
0001
0001
0000
2000
,
0000
0000
3000
0002
0000
0000
0003
0000
,
1000
0000
0010
0000
0100
0100
0000
0010
,
0000
0100
0000
0001
2002
3003
0000
0000
,
1000
0000
0100
0000
0010
0010
0000
0002
,
0000
0003
0000
2000
0000
3000
0000
0000
,
0100
0010
0001
0100
,
0010
0010
0010
0000
0100
0100
0100
0000
,
0001
0000
0001
0000
1000
0000
0001
0000
1000
0000
0001
1000
0001
0000
0000
0000
,
1000
1000
1000
0001
1000
0001
0001
0000
,
0010
0100
0010
0000
0100
1000
0100
0000
,
1000
0000
0001
1000
0001
1000
0001
0000
0010
0000
0100
0000
0100
0000
0000
0000
,
1000
0001
0100
0010
1000
1000
1000
1001
,
0000
0000
0000
0000
0000
1001
0000
0110
,
0000
0000
0000
0000
0000
1001
0000
1001
,
1000
0100
0010
0001
0010
0100
1000
0100
,
0001
0100
1000
0010
0001
0010
1000
0000
,
2002
0000
3003
0000
,
0220
0000
0000
0000
0000
0000
0000
0330
,
1000
0000
0100
0000
0010
0010
0000
0100
,
0000
1000
0001
0010
0100
1000
0001
0000
,
1000
0000
0100
0000
0010
0001
0000
0001
,
0000
0100
0010
1000
0100
0010
0001
0000
,
0100
0000
0100
0000
0001
0001
0000
1000
,
0000
1000
0010
0100
0001
0010
0100
0000
,
1000
0000
0100
0000
0010
0001
0000
0100
,
0000
0010
1000
0100
0010
0001
0100
0000
,
1000
0000
0000
1000
0001
0000
0000
0001
0100
0000
0000
0100
0010
0000
0000
0010
,
1000
0000
0000
1000
0100
0000
0000
0100
0010
0000
0000
0010
0001
0000
0000
0001
,
1000
0000
0000
1000
0001
0000
0000
0001
0010
0000
0000
0010
0100
0000
0000
0100
,
1000
0000
0000
1000
0001
0000
0000
0001
0010
0000
0000
0010
0100
0000
0000
0100
,
1000
0100
0010
0001
0010
0100
1000
0000
,
0001
0010
0100
1000
0100
0010
0001
0000
,
0001
0000
1000
0000
0001
1000
1000
0000
,
1000
0000
0001
0000
1000
0000
0001
0001
,
0001
0000
0001
0010
0100
1000
2000
0000
,
0000
3000
0000
0000
;
#NOTES:
     dance-single:
     Ninjafar:
     Beginner:
     1:
     0.141,0.220,0.130,0.000,0.000:
0000
0000
0000
0000
,
0000
0000
0000
0000
,
0000
0000
0000
0000
,
0000
0000
0000
0000
,
0000
0000
0000
0000
,
1001
0000
1000
0000
,
0100
0000
1000
0000
,
1000
0000
0001
0000
,
0001
0000
0100
0000
,
0100
0000
0010
0000
,
0010
0000
1000
0000
,
1000
0000
0001
0000
,
1000
0000
0001
0000
,
0010
0000
0100
0000
,
1001
0000
1000
0000
,
0100
0000
0000
0000
,
1001
0000
0000
0000
,
0100
0000
0001
0000
,
1000
0000
0010
0000
,
0100
0000
0000
0000
,
1000
0000
0000
0000
,
0001
0000
0001
0000
,
0001
0000
0000
0000
,
1000
0000
0000
0000
,
1000
0000
0000
0000
,
1000
0000
0000
0000
,
0001
0000
0000
0000
,
0001
0000
0000
0000
,
0001
0000
0000
0000
,
0010
0000
0000
0000
,
0010
0000
0000
0000
,
0110
0000
0000
0000
,
1000
0000
0000
0000
,
0001
0000
0000
0000
,
1001
0000
0000
0000
,
0010
0000
0000
0000
,
0100
0000
0000
0000
,
0010
0000
0000
0000
,
0110
0000
0000
0000
,
1000
0000
0000
0000
,
0100
0000
0000
0000
,
0010
0000
0000
0000
,
0001
0000
1000
0000
,
0001
0000
0000
0000
,
1001
0000
0000
0000
,
0010
0000
0100
0000
,
0110
0000
0000
0000
,
1100
0000
0000
0000
,
1000
0000
0000
0000
,
1000
0000
0000
0000
,
0010
0000
0000
0000
,
0001
0000
0000
0000
,
0001
0000
0000
0000
,
1000
0000
0000
0000
,
0100
0000
0000
0000
,
0100
0000
0000
0000
,
0001
0000
0000
0000
,
1000
0000
0000
0000
,
0010
0000
0000
0000
,
0100
0000
0000
0000
,
1000
0000
0000
0000
,
0001
0000
0000
0000
,
1001
0000
0000
0000
,
0010
0000
0000
0000
,
0100
0000
0000
0000
,
0101
0000
0000
0000
,
0100
0000
0000
0000
,
0001
0000
0000
0000
,
1001
0000
0000
0000
;
#NOTES:
     dance-single:
     Ninjafar:
     Easy:
     3:
     0.278,0.367,0.205,0.000,0.000:
0000
0000
0000
0000
,
0000
0000
0000
0000
,
0000
0000
0000
0000
,
1000
1000
1000
1000
,
0001
0001
0001
0001
,
0100
0100
0100
0100
,
1001
0000
1001
0000
,
1000
0001
1000
0000
,
0010
0100
0010
0000
,
1000
0100
0010
0000
,
0001
0010
0100
1000
,
1001
0010
0100
0010
,
1000
0100
1000
0000
,
0001
0010
0100
0000
,
1001
0000
0000
0000
,
1001
0000
1000
0100
,
0010
0000
0001
0010
,
0100
0000
1000
0001
,
0100
0000
0010
1000
,
0001
0000
1000
1000
,
1000
0000
0001
0001
,
0001
0000
0100
0100
,
0100
0000
0010
0010
,
1001
0000
0000
0000
,
1001
0000
0000
0000
,
0110
0000
0000
0000
,
0110
0000
0000
0000
,
1000
1000
1000
0000
,
0001
0001
0001
0000
,
0100
0100
0100
0000
,
0010
0010
0010
0000
,
1000
0000
0100
0000
,
0010
0000
0001
0000
,
0001
0000
0010
0000
,
0100
1000
1000
0000
,
0001
0000
0010
0000
,
0100
0000
1000
0000
,
0100
0000
0010
0000
,
0001
0001
0001
0000
,
1000
0000
0100
0000
,
0010
0000
0100
0000
,
1000
0000
0001
0000
,
0100
0000
0010
0000
,
1000
0100
1000
0000
,
0100
0000
1001
0000
,
0100
0000
1001
0000
,
0010
0000
0100
0000
,
1001
0000
0100
0000
,
1000
0000
0100
0000
,
0010
0000
0100
0000
,
1001
0000
0100
0000
,
1001
0000
0000
0000
,
1001
0000
1000
0000
,
0100
0000
0010
0000
,
0001
0000
0010
0000
,
0100
0000
1000
0001
,
0100
0000
0010
0000
,
1000
0000
0100
0000
,
0010
0000
0001
0000
,
0100
0000
0010
1000
,
0010
0000
0100
0000
,
0001
0000
1000
0001
,
1000
0000
0100
0000
,
0010
0000
0100
0010
,
0100
0000
1001
0000
,
0010
0000
1001
0000
,
0100
0000
1001
0000
,
1000
0100
0010
0001
,
1001
0000
0000
0000
;
#NOTES:
     dance-single:
     Ninjafar:
     Medium:
     6:
     0.440,0.520,0.216,0.022,0.000:
0000
0000
0000
0000
,
0000
0000
0000
0000
,
0000
0000
0000
0000
,
1000
0000
0100
0000
0010
0001
0010
0000
,
0001
0000
0100
0000
0001
0100
0001
0000
,
1000
0001
1001
0000
,
0010
0100
0010
0000
0110
0000
0000
0000
,
1000
0000
0100
0000
1000
0100
1000
0000
,
0001
0000
0010
0000
0001
0010
0001
0000
,
0100
0000
0010
0000
0100
0010
0100
0000
,
0001
1000
1001
1001
,
0110
0000
0010
0000
1000
0001
0100
0000
,
0010
0000
1000
0000
0001
0100
0001
0000
,
1000
0001
1000
0001
0100
0001
1000
0000
,
1001
0000
0000
0000
,
0110
1000
0100
0010
,
0001
0000
0100
0000
0010
1000
0010
0000
,
0100
0001
0010
0100
,
0010
0000
0001
0000
1000
0001
1000
0000
,
0010
1000
0100
0010
,
0001
0000
0100
0000
0001
0100
0001
0000
,
0010
0100
1000
0010
,
0100
0000
0001
0000
1000
0100
1000
0000
,
1001
0000
0110
0000
,
1000
0000
0100
0000
0010
0001
0010
0000
,
0001
0000
0100
0000
,
0010
0000
1000
0000
0010
0100
0010
0000
,
0110
0000
1100
0000
,
1000
0000
0100
0000
0010
0100
0010
0000
,
0001
0100
0010
1000
,
0100
0000
0010
0000
0001
1000
0001
0000
,
1000
0100
0010
0000
,
0001
0100
0010
0000
,
1000
0100
1000
0001
,
1001
0000
0110
0000
,
1000
0100
0010
0000
,
0001
0100
0010
0000
,
1000
0100
0010
0100
,
0010
0000
0001
0000
,
1000
0000
0100
0010
,
0001
0000
0100
0000
0001
0100
0001
0000
,
1000
0000
0100
0000
0010
0100
0010
0000
,
0001
0000
1000
0000
0001
0100
0001
0000
,
1000
0100
1001
0000
,
1001
0000
0000
0000
1000
0100
1000
0000
,
0001
0010
0001
0000
0000
0000
0000
0000
,
1000
0001
1000
0000
0000
0000
0000
1001
,
0000
0000
0000
0000
0000
0110
0000
0000
,
1000
0100
0010
0001
,
0010
0100
1000
0000
,
1001
0000
0000
0000
,
0220
0000
0000
0330
,
1000
0100
0010
0001
,
0010
0000
0100
0000
1000
0100
1000
0000
,
0100
0010
0001
0100
,
0010
0000
1000
0000
0100
0010
0100
0000
,
0010
0001
0100
0010
,
1000
0000
0100
0000
0010
0001
0100
0000
,
0001
0100
0010
1000
,
0100
0000
1000
0000
0001
1000
0001
0000
,
0100
0010
1000
0100
,
0010
0001
0100
0001
,
1000
0100
0010
0001
,
0010
0100
1000
0001
,
1000
0001
0010
0100
,
1000
0000
0100
0000
0010
0001
0100
0000
,
0010
1000
0100
1000
,
0001
0100
0001
0000
1000
0100
1000
0000
,
1001
0000
1000
0100
0010
0001
1000
0000
;
