#TITLE:Empire of the Sun;
#SUBTITLE:;
#ARTIST:Novasonic;
#TITLETRANSLIT:;
#SUBTITLETRANSLIT:;
#ARTISTTRANSLIT:;
#CRChallenge:;
#BANNER:sun.png;
#BACKGROUND:sun-bg.png;
#LYRICSPATH:;
#CDTITLE:!cdtitle.png;
#MUSIC:sun.ogg;
#OFFSET:0.080;
#SAMPLESTART:56.889;
#SAMPLELENGTH:12.000;
#SELECTABLE:YES;
#BPMS:0.000=118.000;
#STOPS:0.000=0.080
;
#BGCHANGES:;
#NOTES:
     dance-single:
     Renard:
     Medium:
     9:
     0.614,0.648,0.464,0.037,0.599:
0000
0000
0000
0000
,
0000
0000
0000
0000
,
0000
0000
0000
0000
,
0000
0000
0000
0000
,
0001
0010
0100
1000
0100
0010
0001
0100
0010
0000
0110
0000
0000
0000
0000
0000
,
0010
1000
0010
0100
0001
0010
0100
1000
0001
0000
1001
0000
0000
0000
0000
0000
,
1000
0100
0010
0001
0100
0010
1000
0001
1000
0000
1001
0000
0000
0000
0000
0000
,
1000
0100
0010
0001
0100
0010
1000
0001
0010
0000
0011
0000
0110
0000
1001
0000
,
0001
0100
0110
0000
0010
1000
1010
0000
,
1000
0000
1000
0001
0000
0001
1000
0000
0010
0000
0100
0000
0001
0000
0010
0000
,
0110
0010
1100
1000
0001
0110
0000
0000
,
1010
0000
1000
0010
0000
0100
0001
0000
1000
0000
0001
0000
0101
0000
0000
0000
,
0001
1000
0000
1000
0100
0000
0100
0010
0000
0001
0010
0100
1000
0000
0001
0000
,
0100
0010
0000
0010
1000
0000
1000
0010
0000
0100
0001
0100
0010
0000
0000
0000
,
1000
0100
0000
0100
0010
0000
0010
0001
0000
0010
0100
1000
0001
0000
0010
0000
,
0001
1000
0000
1000
0001
0000
0001
0100
0000
0010
1000
0001
1000
0000
0000
0000
,
0001
0100
1010
0000
1000
0100
0011
0000
,
0001
0000
0100
0000
1010
0000
0000
0000
1000
0000
0100
0010
0001
0000
0000
0000
,
1000
0100
0011
0000
0001
0100
1010
0000
,
1000
0000
0010
0000
0101
0000
0000
0000
0001
0100
0010
1000
0100
0010
0001
0000
,
0010
0100
0010
0100
1000
0100
1000
0100
1000
0001
1000
0001
0100
0001
0100
0001
,
0100
0000
0000
0000
0010
0000
1000
0000
0000
0000
0100
0000
0000
0010
0000
0000
,
0001
0010
0001
0010
0100
0010
0100
0010
0100
1000
0100
1000
0001
1000
0001
1000
,
0001
0000
0000
0000
1000
0000
0010
0000
0000
0000
0110
0000
0000
1001
0000
0000
,
0001
0010
0100
1000
0100
0010
0001
0100
0010
1000
0010
0100
0001
0010
0100
1000
,
0001
0000
0000
0000
0001
0000
0100
0000
0000
0000
0010
0000
0000
1000
0000
0000
,
0010
1000
0001
0100
0010
1000
0100
0010
0001
0010
0100
1000
0001
0100
0010
1000
,
0001
0000
0100
0000
1010
0000
0100
0000
0000
0000
1010
0000
0000
1001
0000
0000
,
0001
0100
0110
0000
0010
1000
1010
0000
,
1000
0000
1000
0001
0000
0001
0010
0000
0100
0000
1000
0000
0001
0000
0000
0000
,
0101
0100
0110
0100
1100
0110
0000
0010
,
1000
0100
0000
0010
0000
0001
0000
0010
0000
0000
0100
1000
0001
0000
0000
0000
,
0100
0001
1001
0000
0001
1000
1100
0000
,
0001
1000
0000
1000
0010
0000
0010
0100
0000
0100
0001
0000
0100
0000
0010
0000
,
1000
0010
0100
0001
0100
0000
0000
0000
0001
0100
0010
1000
0010
0000
0000
0000
,
1000
0010
0100
0001
0100
0000
0001
0000
1000
0000
0100
0010
0001
0000
0000
0000
,
1000
0000
0100
0000
1100
0000
0000
1000
0000
0001
0100
0000
0101
0000
0000
0000
,
0001
0000
0010
0000
0011
0000
0000
0010
0000
0100
1000
0000
0101
0000
0000
0000
,
0001
0000
1000
0000
1100
0000
0000
1000
0000
0001
0010
0000
0001
0010
0100
1000
,
0100
0010
0001
0010
0001
0000
0010
0100
1000
0000
0001
0100
0010
0000
1000
0000
,
0010
0000
1000
0000
1010
0000
0000
0100
0000
0001
0010
0000
0011
0000
0000
0000
,
0010
0000
0100
0000
1100
0000
0000
1000
0000
0001
0100
0000
0101
0000
0000
0000
,
0001
0000
0010
0000
0011
0000
0000
0010
0000
0100
1000
0000
0001
0000
0100
0000
,
0001
1000
0100
0010
0001
0010
0100
1000
0001
0000
0010
0100
1000
0001
0100
0000
,
0010
1000
1010
0000
0100
0001
0101
0000
,
0001
0000
0001
0010
0000
0010
0100
0000
1000
0000
0001
0000
0100
0000
0010
0000
,
1000
0010
0100
0010
0001
0010
0000
0000
,
0100
0000
0100
0010
0000
0010
1000
0000
0100
0000
0010
0000
0001
0000
0010
0000
,
0012
0000
0000
0103
0000
0000
0000
0000
,
2001
0000
0000
0000
0000
0000
3100
0000
0000
0000
1001
0000
0000
0110
0000
0000
,
1020
0000
0000
0130
0000
0000
0000
0000
,
0201
0000
0000
0000
0000
0000
0310
0000
0010
1000
0001
0100
0010
0000
0000
0000
;
#NOTES:
     dance-single:
     Renard:
     Easy:
     5:
     0.305,0.312,0.130,0.037,0.000:
0000
0000
0000
0000
,
0000
0000
0000
0000
,
0000
0000
0000
0000
,
0000
0000
0000
0000
,
1000
0000
0001
0000
0000
0000
0001
1000
,
0010
0000
1000
0000
0000
0000
1000
0001
,
0010
0000
0100
0000
0000
0000
0100
1000
,
0001
0000
0001
0100
0010
1000
0001
0000
,
1000
0100
0000
0000
0010
0001
0000
0000
,
1000
0000
0001
1000
0001
1000
0001
0000
,
1000
0010
1000
0010
1000
0010
0000
0000
,
0100
0100
0100
0000
,
0001
0000
1000
0000
0001
0010
0001
0000
,
1000
0000
0001
0000
0100
0001
0100
0000
,
0001
0000
1000
0000
0100
1000
0001
0000
,
1000
0000
0001
0000
0010
0001
1000
0000
,
0001
0000
1001
0000
0000
1000
1010
0000
,
0000
0001
0101
0000
0000
0001
1001
0000
,
1000
0000
1010
0000
0000
0010
0110
0000
,
0000
0001
1001
0000
0000
1000
1100
0000
,
1000
0001
1000
0001
1000
0001
1000
0001
,
0010
0010
0010
0010
,
0001
1000
0001
1000
0001
1000
0001
1000
,
0100
0100
0100
0100
,
1000
0001
1000
0001
1000
0001
1000
0001
,
0010
0010
0010
0010
,
0001
1000
0001
1000
0001
1000
0001
1000
,
0100
0100
0100
0100
,
1000
0100
0000
0000
0010
0001
0000
0000
,
0100
0000
0100
0000
0010
0100
0010
0000
,
1000
0010
0000
0000
0100
0001
0000
0000
,
1000
0001
1000
0000
,
0001
0010
0000
0000
0100
1000
0000
0000
,
0001
0000
1000
0000
0001
1000
0001
0000
,
0100
0010
0000
0000
0010
0100
0000
0000
,
0010
1000
0010
1001
,
0100
0101
1001
0000
,
1000
0100
1001
0000
,
0001
0100
1001
0000
,
1000
0000
0100
0000
0010
0001
0010
0000
,
0001
1000
0010
0000
,
1000
0001
0100
0000
,
0001
1000
0100
0000
,
1000
0000
0001
0000
0100
0010
0100
0010
,
1000
0000
0001
0000
,
0100
0000
0100
0000
0010
0100
0010
0000
,
1000
1000
0010
0010
,
0100
0000
0001
0000
1000
0001
1000
0000
,
0020
0000
0000
0130
0000
0000
0000
0000
,
0002
0000
0000
1003
0000
1000
0100
0000
,
0020
0000
0000
0031
0000
0000
0000
0000
,
2000
0000
0000
3010
0100
0001
1001
0000
;
#NOTES:
     dance-single:
     Renard:
     Beginner:
     4:
     0.233,0.264,0.102,0.102,0.000:
0000
0000
0000
0000
,
0000
0000
0000
0000
,
0000
0000
0000
0000
,
0000
0000
0000
0000
,
1000
0001
0000
0001
,
0010
0100
0000
0100
,
1000
0010
0000
0010
,
0100
0001
1000
1001
,
0001
0101
0000
1010
,
0000
1100
0000
0011
,
0000
1001
0000
0101
,
0000
1010
0000
1001
,
2000
0000
3100
0000
0000
0010
0001
0000
,
0002
0000
0103
0000
0000
0010
1000
0000
,
0200
0000
1300
0000
0000
0001
0010
0000
,
0100
0000
1000
0000
0001
0100
0001
0000
,
0200
0310
0000
0010
,
0000
0000
1000
0000
0000
0100
1000
0000
,
0001
0100
0000
0010
,
0000
1000
0001
0000
0000
0100
0010
0000
,
1000
1000
1000
1000
,
0010
0100
0010
0100
,
0001
0001
0001
0001
,
0100
0010
2000
3001
,
1000
1000
0001
0001
,
0000
0010
0000
0100
,
1000
0010
0100
0001
,
0200
0310
0020
0130
,
0010
0100
0000
0000
0010
0100
0000
0000
,
0010
0000
0100
0000
,
0001
1000
0000
0000
0001
1000
0000
0000
,
0001
0000
1000
0000
,
0010
1000
0000
0000
0010
1000
0000
0000
,
0010
0000
1000
0000
,
0001
0100
0000
0000
0001
0100
0000
0000
,
0001
0000
0100
0000
,
0001
1000
0100
0000
,
1000
0001
0010
0000
,
0001
1000
0010
0000
,
1000
0000
0001
0000
,
0100
0010
1000
0000
,
0010
0100
0001
0000
,
0100
0001
1000
0000
,
0001
0001
1000
1000
,
0010
1000
0000
1000
,
0001
0100
0000
0100
,
0001
0010
0000
0010
,
0100
1000
0001
0100
,
0020
0000
0000
0130
0000
0000
0000
0000
,
0002
0000
0000
1003
0000
0000
0001
0000
,
0200
0000
0000
0310
0000
0000
0000
0000
,
2000
0000
0000
3001
0000
1001
0110
0000
;
