#TITLE:Empire of the Sun EX;
#SUBTITLE:;
#ARTIST:Novasonic;
#TITLETRANSLIT:;
#SUBTITLETRANSLIT:;
#ARTISTTRANSLIT:;
#CRChallenge:;
#BANNER:sun.png;
#BACKGROUND:sun-bg.png;
#LYRICSPATH:;
#CDTITLE:;
#MUSIC:sun.ogg;
#OFFSET:0.000;
#SAMPLESTART:29.980;
#SAMPLELENGTH:12.000;
#SELECTABLE:NO;
#BPMS:0.000=52.500,7.000=105.000;
#STOPS:;
#BGCHANGES:;
#NOTES:
     dance-single:
     Renard:
     Hard:
     10:
     0.822,0.731,0.919,0.085,0.940:
0000
0000
0000
0000
,
0000
0000
0000
0000
0000
0000
1001
0110
,
1001
0000
1000
0001
0101
0101
0000
0110
0110
0000
0010
1000
0100
0010
0000
0001
,
0010
0000
0110
0000
1100
1100
0000
0011
0011
0000
1000
0001
0100
0010
1000
0100
,
0010
0001
1000
0001
1001
1001
0000
1010
1010
0000
0100
0001
0010
0100
0000
1000
,
0100
0000
1100
0000
1100
1100
0000
0011
0011
0000
0001
0010
0011
0000
1100
0000
,
1001
0000
0000
0000
0001
0000
1000
0000
0001
0000
0100
0000
0010
0000
1000
0000
0100
0000
0000
0000
1000
0000
0001
0000
1000
0001
1000
0000
0001
0000
0001
0000
,
0100
0000
0000
0000
0010
0000
0010
0000
1000
0000
1000
0000
0100
0000
0000
0000
1000
0000
0100
0000
1000
0001
1000
0000
0001
0000
0100
0000
0010
0000
1000
0000
,
0002
0000
0000
0000
0100
0000
0000
0000
0013
0000
0001
0000
1000
0000
0100
0000
0010
0000
0001
0000
1000
0001
1000
0000
0001
0000
0100
0000
0010
0000
0010
0000
,
1000
0000
0000
0000
0001
0000
0100
0000
0001
0000
1000
0000
0001
1000
0001
0000
0100
0000
0100
0000
0010
0000
0010
0000
2000
0000
0000
0000
0100
0000
0000
0000
,
0010
0000
0000
0000
3001
0000
0000
0000
1000
0000
1000
0000
0100
0000
0100
0000
0010
0000
0010
0000
0001
1000
0001
0000
0100
0000
0001
0000
1000
0000
0100
0000
,
0010
0001
0010
0000
0001
0000
0010
0000
0100
0000
1000
0000
0001
0000
0001
0000
1000
0000
1000
0000
0010
0000
0010
0000
0100
0000
0100
0000
0001
0000
1000
0000
,
0100
0100
1000
0001
1000
1000
0100
0100
1100
0000
0011
0000
0001
0001
0100
0100
,
0101
0000
1010
0000
0010
1000
0100
0000
1100
0000
1000
1000
0100
0100
0100
0100
,
0010
0010
0010
0000
0010
0011
0000
1000
1100
0000
1000
0010
0100
0110
0000
0100
,
0101
0000
1001
0000
1000
1100
0000
0010
0011
0000
1001
0000
1000
0001
0100
0010
,
1000
0100
0010
0001
0010
0011
0000
0010
0110
0000
1100
0000
1000
1010
0000
0100
,
0101
0000
0101
0000
1000
1100
0000
1000
1001
0000
1001
0000
0110
0000
2002
0000
,
3013
0000
0000
0000
0011
0000
1100
0000
1000
0100
0010
0000
0011
0000
1100
0000
,
1000
0100
0010
0000
0001
0010
0100
1000
0001
0100
0010
1000
0100
0010
0001
0010
,
0100
1000
0001
0000
0101
0000
1010
0000
1100
0000
0011
0000
0101
0000
1010
0000
,
1001
0000
1000
0000
1000
0100
0010
0001
0010
0100
1000
0001
0100
0010
1000
0100
,
0010
0001
0010
0100
1100
0000
0011
0000
0011
0000
0001
0100
0010
0000
1010
0000
,
0101
0000
0100
0010
1000
0100
0010
0001
0010
0100
1000
0010
0100
0001
0010
0100
,
1000
0100
0010
0001
0010
1000
0010
0001
0100
0000
0000
0000
0100
1000
0100
0001
,
0010
0000
0100
0000
1000
1000
0010
0100
0001
0001
0010
0100
1000
0001
0100
0010
,
1000
1001
1MM2
01M3
2MM1
31M0
1001
0000
,
0001
0100
0010
1000
1100
0000
1000
0000
0100
0010
0001
0100
0001
0000
1001
0000
,
1010
1000
1MM2
01M3
2MM1
31M0
1001
0000
,
1000
0100
0010
0001
0100
0010
1000
0100
1000
0100
1000
0001
0100
0010
1000
0100
,
0010
0001
0010
0001
0100
0001
0010
0000
0011
0000
0010
0100
1000
0001
0100
0000
,
0101
0000
0100
0010
1000
0100
0010
0000
0110
0000
0010
0100
1000
0010
0100
0000
,
0110
0000
0100
0010
1000
0100
0010
0000
0110
0000
0010
0001
0100
0010
0100
0000
,
0110
0000
0100
0001
0010
0100
0010
0000
0110
0000
0010
0001
0100
0010
0100
0000
,
0110
0000
0000
0000
0010
1000
0010
0001
0010
1000
0010
0001
0010
0000
1010
0000
,
0000
0000
0000
0000
1000
0100
0001
0100
1000
0100
0001
0100
1000
0000
1100
0000
,
0000
0000
0000
0000
1000
0010
0001
0010
1000
0010
0001
0010
1000
0000
1010
0000
,
0000
0000
1000
0000
0100
0100
0010
0010
0001
0001
1000
1000
0001
0010
0100
1000
,
1001
0000
0000
0000
;
