#TITLE:Emergency;
#SUBTITLE:;
#ARTIST:Drunken Tiger;
#TITLETRANSLIT:;
#SUBTITLETRANSLIT:;
#ARTISTTRANSLIT:;
#CRChallenge:;
#BANNER:emergency.png;
#BACKGROUND:emergency-bg.png;
#LYRICSPATH:;
#CDTITLE:;
#MUSIC:emergency.ogg;
#OFFSET:0.000;
#SAMPLESTART:4.324;
#SAMPLELENGTH:12.000;
#SELECTABLE:YES;
#BPMS:0.000=110.000;
#STOPS:;
#BGCHANGES:;
#NOTES:
     dance-single:
     Renard:
     Medium:
     9:
     0.677,0.670,0.175,0.019,0.578:
0000
0000
0000
0000
,
0000
0000
0000
0000
,
1000
0100
0011
0100
1000
0010
0101
0010
,
1000
0100
0011
0100
1000
0010
0101
0000
,
0001
0000
0100
0010
0100
0010
0100
0010
1000
0000
0100
0010
0100
0010
0100
0010
,
0001
0000
0100
0010
0100
0010
0100
0010
1000
0000
0100
0010
0100
0010
0100
0010
,
0001
0010
0110
0100
1000
0010
1010
0010
,
0100
0001
0101
0001
0010
0100
0110
0100
,
1000
0000
0010
0100
0010
0100
0010
0100
0001
0000
0010
0100
0010
0100
0010
0100
,
1000
0000
0010
0100
0010
0100
0010
0100
0001
0000
0010
0100
0010
0100
0010
0100
,
1000
0100
0011
0100
1000
0010
0101
0010
,
1000
0100
0011
0100
1000
0010
0101
0000
,
0001
0000
0100
0010
0100
0010
0100
0010
0100
0000
0001
1000
0001
1000
0001
1000
,
0001
0000
0100
0010
0100
0010
0100
0010
0100
0000
0001
1000
0001
1000
0001
1000
,
0001
1000
1010
0100
0001
0010
1100
0010
,
0001
0100
0110
0010
1000
0100
0011
0100
,
1000
0000
0001
0100
0001
0100
0001
0100
0010
0000
1000
0100
1000
0100
1000
0100
,
0010
0000
0001
0100
0001
0100
0001
0100
0010
0000
1000
0100
1000
0100
1000
0100
,
1000
0000
0100
0000
1100
0000
0000
0000
0100
0000
1000
0000
0001
0010
0100
0000
,
1000
0000
0001
0100
0010
0000
1000
0100
0010
0000
0001
0010
0100
1000
0001
0100
,
0010
0000
1000
0000
0100
0000
0010
0001
0010
0000
0100
1000
0100
1000
0001
0000
,
0100
0000
0010
1000
0010
0000
0100
0001
0100
0000
0001
0000
1000
0100
0010
0000
,
0001
0000
0001
0000
0010
0100
1000
0000
0100
0000
0100
0000
0010
0001
0010
0000
,
0100
0000
0100
0000
1000
0100
0010
0000
0001
0000
0001
0000
0010
0100
1000
0000
,
0001
0000
0001
0000
0100
0010
1000
0000
0100
0000
0100
0000
0010
0001
0010
0000
,
0100
0000
0100
0000
1000
0001
0100
0000
0010
0000
1000
0000
1001
0000
0000
0000
,
1000
1000
0001
0001
0100
0100
0010
0010
,
1000
1000
0010
0010
0100
0001
0010
0100
,
1000
0000
0100
0010
0001
0010
0100
1000
0001
0000
0100
0010
1000
0100
0010
0100
,
1000
0010
0100
0001
0010
0100
1000
0001
0100
0010
1000
0100
0010
0001
0010
0000
,
0100
0100
1000
1000
0001
0001
0010
0010
,
0001
0001
1000
1000
0010
0100
0001
1000
,
0100
0000
0010
0001
0010
0100
1000
0001
0100
0000
0010
1000
0100
0010
0100
1000
,
0010
0000
0100
0001
0010
0100
1000
0001
0100
0010
1000
0100
0010
0001
0010
0100
,
1000
0001
0100
0100
0010
1000
0100
0100
,
0010
0001
0100
0100
0010
1000
0100
0100
,
1000
0001
1000
0000
0001
1000
0001
0000
0100
0001
0100
0000
0001
0100
0001
0000
,
1000
0100
1000
0000
0100
1000
0100
0000
1000
0001
1000
0000
0001
1000
0001
0000
,
0100
0000
0010
0000
1000
0000
0100
0010
0001
0000
0010
0000
0100
1000
0001
0000
,
0010
0000
0001
0000
1000
0000
0100
0010
0001
0000
0010
0100
1000
0000
0001
0000
,
0100
0000
0100
0010
1000
0000
1000
0000
0100
0000
0010
0000
0001
0010
0100
0000
,
1000
0000
0001
0100
0010
0000
1000
0100
0010
0000
0001
0000
1000
0010
1000
0000
,
0001
0000
0001
0000
0100
0010
1000
0000
0100
0000
0100
0000
0010
0001
0010
0000
,
0100
0000
0100
0000
1000
0010
0100
0000
0001
0000
0001
0000
0100
0010
1000
0000
,
0100
0000
1000
0001
0010
0000
0100
0000
1000
0000
0001
0010
0100
0000
1000
0000
,
0100
0000
1000
0010
0100
0000
0001
0000
0100
0010
1000
0000
0001
2000
0200
0000
,
3310
0000
0000
0000
;
#NOTES:
     dance-single:
     Renard:
     Hard:
     11:
     0.820,0.737,0.379,0.019,1.000:
0000
0000
0000
0000
,
0000
0000
0000
0000
,
1000
0100
0000
0000
0011
0000
0000
1100
0000
1000
0010
0000
0101
0000
0000
0000
,
0001
0100
0010
1000
0001
1000
0100
0010
0100
0000
1000
0000
0001
0000
0100
0000
,
0001
0000
0100
0010
0100
0010
0100
0010
1000
0000
0100
0010
0100
0010
0100
0010
,
0001
0000
0100
0010
0100
0010
0100
0010
1000
0000
0100
0010
0100
0010
0100
0010
,
0001
1000
0001
0100
0001
0010
0001
1000
0100
0000
1000
0100
0000
0000
0000
0000
,
1000
0100
1000
0010
1000
0001
1000
0100
1000
0000
0001
0100
0000
0100
0010
0000
,
1000
0000
0010
0100
0010
0100
0010
0100
0001
0000
0010
0100
0010
0100
0010
0100
,
1000
0000
0010
0100
0010
0100
0010
0100
0001
0000
0010
0100
0010
0100
0010
0100
,
1000
0001
0100
0010
1000
0000
0100
0000
1000
0100
0000
0011
0000
0001
0010
0000
,
0100
1000
0001
0010
0001
1000
0100
1000
0010
0100
0001
1000
0000
0001
0100
0000
,
0001
0000
0100
0010
0100
0010
0100
0010
0100
0000
0001
1000
0001
1000
0001
1000
,
0001
0000
0100
0010
0100
0010
0100
0010
0100
0000
0001
1000
0001
1000
0001
1000
,
0001
0100
0001
0000
1000
0100
0010
0001
0010
0100
1000
0001
0000
0000
1000
0000
,
0110
0000
1000
0000
0101
0000
0010
1000
0001
0000
0100
0001
0010
0000
0100
0000
,
1000
0000
0001
0100
0001
0100
0001
0100
0010
0000
1000
0100
1000
0100
1000
0100
,
0010
0000
0001
0100
0001
0100
0001
0100
0010
0000
1000
0100
1000
0100
1000
0100
,
1000
0000
0000
0000
0100
1000
1000
0100
0100
0000
0010
0000
0001
0001
1000
0000
,
0000
0010
0010
0100
0100
0000
0001
0001
1000
0000
0100
0000
0010
0010
0001
0001
,
1000
0000
0100
0000
0010
0001
0001
0010
0010
0000
0100
0000
1000
1000
0001
0000
,
0000
0100
0100
0010
0010
0000
1000
1000
0001
0000
0010
0000
0100
0100
1000
1000
,
0001
0100
0010
1000
0100
0010
0001
0010
0100
1000
0010
0100
0001
0010
0100
1000
,
0010
0100
0010
1000
0100
0010
0001
0100
0010
0100
0001
0010
0100
1000
0010
0100
,
0001
0000
0001
0010
0100
1000
0001
0100
0010
0000
0010
1000
0100
0010
0001
0010
,
0100
0000
0100
1000
0010
0100
0001
0010
0100
1000
0001
0000
1001
0000
0000
0000
,
1100
1100
0110
0110
0011
0011
0101
0101
,
0110
1100
0011
0101
1010
0110
0011
1001
,
1000
0000
1000
1000
0100
0100
0010
0010
0001
0000
0001
0001
0010
0010
0100
0100
,
1000
1000
0100
0100
1000
1000
0010
0010
0100
0100
0001
0001
0010
0010
0100
0100
,
0110
0110
0011
0011
1100
1100
1010
1010
,
0101
0101
1001
1001
1100
0011
0101
1010
,
1000
0000
1000
1000
0100
0100
0010
0010
0001
0000
0001
0001
0100
0100
0010
0010
,
1000
1000
0001
0001
0010
0010
0100
0100
1000
1000
0010
0010
0100
0100
0001
0001
,
1000
0100
1000
0000
0001
0100
0001
0000
1000
0100
1000
0000
0001
0100
0001
0000
,
1000
0010
1000
0000
0001
0010
0001
0000
1000
0100
1000
0000
0001
0100
0001
0000
,
1000
0010
1000
0000
0100
1000
0100
0000
1000
0001
1000
0000
0001
0100
0001
0000
,
0010
0001
0010
0000
0100
1000
0100
0000
1000
0001
1000
0000
0001
0100
0010
1000
,
0001
0000
0000
0000
0010
0001
0001
0010
0010
0000
0100
0000
1000
1000
0001
0000
,
0000
0100
0100
0010
0010
0000
1000
1000
0001
0000
0010
0000
0100
0100
1000
1000
,
0001
0000
0010
0000
0100
1000
1000
0100
0100
0000
0010
0000
0001
0001
1000
0000
,
0000
0010
0010
0100
0100
0000
0001
0001
1000
0000
0100
0000
0010
0010
0001
0001
,
1000
0010
0100
0001
0010
0100
1000
0100
0010
0001
0100
0010
1000
0100
0010
0001
,
0100
0010
0100
0001
0010
0100
1000
0010
0100
0010
1000
0100
0010
0001
0100
0010
,
1000
0000
1000
0100
0010
0001
1000
0010
0100
0000
0100
0001
0010
0100
1000
0100
,
0010
0000
0010
0001
0100
0010
1000
0100
0010
0001
1000
0000
1000
0002
0200
0000
,
0313
0000
0000
0000
;
#NOTES:
     dance-single:
     Renard:
     Easy:
     5:
     0.380,0.402,0.204,0.107,0.000:
0000
0000
0000
0000
,
0000
0000
0000
0000
,
0001
1000
0001
1000
0001
1000
0001
0000
,
0100
0010
0100
0010
0100
0010
0100
0000
,
0010
0000
1000
0010
0100
0000
0001
0100
,
0010
0000
1000
0010
0100
0000
0001
0100
,
0010
0000
0010
0000
1000
0100
1000
0100
,
0010
0000
0010
0000
0001
0100
0001
0100
,
0001
1000
0001
1000
0010
1000
0010
1000
,
0001
1000
0001
1000
0100
0000
0100
0000
,
1000
0000
1000
0000
0001
0100
0001
0000
,
0100
0000
0100
0000
0010
1000
0010
0000
,
1000
0000
0100
1000
0001
0000
0010
0001
,
1000
0000
0010
1000
0001
0000
0100
0000
,
0001
0000
0100
0000
0010
0100
0010
0000
,
1010
1001
1100
1001
,
1000
0000
0001
0000
0100
0001
0100
0000
,
0001
0000
1000
0000
0100
1000
0001
0000
,
0110
0000
1001
0000
0100
0100
0100
0000
,
0010
0000
0100
0000
0010
0010
0010
0000
,
1001
0000
0110
0000
0010
0010
0010
0000
,
0100
0000
0010
0000
1000
0001
1000
0000
,
2001
3100
1002
0103
,
2001
3100
1002
0103
,
2001
3010
1002
0013
,
2001
3010
1002
0013
,
0001
0001
1000
1000
0001
0001
1000
1000
,
0001
0001
1000
1000
0001
0001
1000
1000
,
0001
0000
0100
0000
0010
0100
0010
0000
,
1000
0100
0010
0001
,
1000
1000
0100
0100
0010
0010
0001
0001
,
1000
1000
0010
0010
0100
0100
0001
0001
,
1000
1000
0001
0001
,
1000
0001
1000
0001
1000
0001
1000
0000
,
0001
0000
0101
0000
0000
0001
1000
0000
,
0100
0000
1100
0000
0000
1000
0001
0000
,
1000
0000
1010
0000
0000
1000
0001
0000
,
0010
0000
0011
0000
0000
0001
1000
0000
,
0001
0000
0001
0000
0100
0010
0100
0000
,
0010
0000
0010
0000
1000
0001
1000
0001
,
1000
0000
1000
0000
0100
0010
0100
0000
,
0010
0000
0010
0000
0001
1000
0001
1000
,
0010
0000
0100
0010
0100
0000
0010
0100
,
0010
0000
0100
0010
0100
0000
0010
0100
,
0002
0000
1003
0100
0020
0000
0031
1000
,
0020
0000
0130
0001
0100
0000
1001
0000
,
0010
0000
0000
0000
;
#NOTES:
     dance-single:
     Renard:
     Beginner:
     2:
     0.233,0.290,0.330,0.068,0.000:
0000
0000
0000
0000
,
0000
0000
0000
0000
,
0001
0001
0100
1001
,
1000
1000
0100
1001
,
0110
0000
1001
0000
,
0110
0000
1001
0000
,
1000
1000
0001
0110
,
0001
0001
1000
0110
,
1001
0000
0110
0000
,
1001
0000
0110
0000
,
1000
1000
0001
0000
,
0001
0001
1000
0000
,
0010
0000
0100
0000
,
0010
0000
0100
0000
,
1000
0001
1000
0001
,
0010
0100
0010
0100
,
1001
0000
0110
0000
,
1001
0000
0110
0000
,
2002
3013
0000
1000
,
0000
0001
0000
0100
,
2002
3013
0000
1000
,
0000
0001
0000
0100
,
0210
0000
0001
0000
,
1000
0000
0010
0300
,
0120
0000
1000
0000
,
0001
0000
0100
0030
,
0100
0100
0100
0100
,
0010
0010
0010
0010
,
1001
0100
1001
0100
,
1001
0100
1001
0000
,
0010
0010
0010
0010
,
0100
0100
0100
0100
,
1001
0010
1001
0010
,
1001
0100
1001
0100
,
0001
0000
0001
0000
,
1000
0000
1000
0000
,
0010
0010
0010
0010
,
0001
0100
1000
0010
,
0000
1001
0000
0100
,
0000
0010
0010
0010
,
0000
1001
0000
0010
,
0000
0100
0100
0100
,
1002
0000
0100
0000
,
0010
0000
1000
0000
,
1003
1001
0000
0010
,
0000
0100
0000
1001
,
0110
0000
0000
0000
;
