#TITLE:Eclectica;
#SUBTITLE:;
#ARTIST:Sigma;
#TITLETRANSLIT:;
#SUBTITLETRANSLIT:;
#ARTISTTRANSLIT:;
#CRChallenge:;
#BANNER:eclectica.png;
#BACKGROUND:eclectica-bg.png;
#LYRICSPATH:;
#CDTITLE:;
#MUSIC:eclectica.ogg;
#OFFSET:0.000;
#SAMPLESTART:18.581;
#SAMPLELENGTH:14.000;
#SELECTABLE:YES;
#DISPLAYBPM:155.000;
#BPMS:0.000=155.000,80.000=165.000,84.000=175.000,88.000=185.000,92.000=195.000,96.000=205.000,100.000=215.000,104.000=225.000,108.000=235.000,112.000=245.000,116.000=255.000,120.000=265.000,124.000=275.000,128.000=285.000,132.000=295.000,136.000=300.000,144.000=232.500,150.000=155.000;
#STOPS:;
#BGCHANGES:;
#NOTES:
     dance-single:
     Renard:
     Challenge:
     9:
     0.744,0.685,0.347,0.134,0.179:
0000
0000
0000
0000
,
0000
0000
0000
0000
,
0000
0000
0000
0000
,
0000
0000
0000
0000
,
1000
0000
1001
0000
0001
0100
0101
0001
,
1000
0000
1001
0000
1000
0100
1010
0100
,
0001
0100
0101
0000
0001
0100
1010
0100
,
0001
0010
0101
0010
1000
0100
1010
0100
,
1000
0000
1001
0000
0001
0100
0101
0001
,
1000
0000
1001
0000
1000
0100
1010
0100
,
0001
0100
0101
0000
0001
0100
1010
0100
,
0001
0010
0101
0010
1000
0100
1010
0100
,
0010
0000
0000
0010
1000
0000
0000
1000
0100
0000
0010
0000
0100
0000
1000
0000
,
0001
0000
0000
0001
0100
0000
0000
0100
0010
0000
1000
0000
0001
0000
0100
0000
,
0010
1000
0000
1000
0001
0000
0001
0100
0000
0100
0010
0000
1000
0000
0100
0000
,
2000
0200
0010
3311
,
0100
0000
0000
0100
0001
0000
0000
0001
0010
0000
0100
0000
0010
0000
0001
0000
,
1000
0000
0000
1000
0010
0000
0000
0010
0100
0000
0001
0000
1000
0000
0010
0000
,
0100
0001
0000
0001
1000
0000
1000
0010
0000
0010
0100
0000
0001
0000
0010
0000
,
0002
0200
0010
1313
,
0001
0100
0010
1000
0100
0010
0001
1000
,
0010
0100
0001
1000
0100
0010
0001
0100
,
0010
1000
0100
0010
0001
0100
0010
1000
,
0100
1000
0001
0010
0001
1000
0100
0010
,
0100
1000
0001
0010
0100
0010
0001
1000
,
0100
0010
0001
0100
0010
1000
0100
0010
,
0001
0100
0010
1000
0100
1000
0001
0010
,
0001
1000
0100
0010
0100
0001
0100
1000
,
0100
0010
0100
1000
0100
0001
0100
0010
,
0001
0010
1000
0010
0001
0010
0100
1000
,
0010
0100
0001
0100
1000
0100
0001
0010
,
0001
0010
0100
1000
0100
0001
0100
1000
,
0100
0010
0001
0010
1000
0010
0001
0010
,
0100
1000
0010
0100
0001
1000
0100
1000
,
0001
0010
0001
0100
0010
1000
0100
0010
,
0100
1000
0001
0010
0001
0100
0010
0000
,
0220
0000
0000
2002
,
0000
0000
3333
0000
1000
0100
0010
0100
,
1000
0001
0010
0001
1000
0100
0010
0100
,
1000
0001
0010
0001
1000
0100
1000
0001
,
0010
0100
0010
0001
1000
0100
1000
0001
,
0010
0100
0010
0001
1000
0010
0100
0010
,
1000
0001
0010
0001
1000
0010
0100
0010
,
1000
0001
0010
0001
0010
0001
0100
0010
,
0100
1000
0100
1000
0001
0010
1000
0100
,
1000
0000
0010
0000
0100
0000
0001
0000
0100
0000
0000
0100
0001
0000
0000
0001
,
0010
0000
0100
0000
0010
0000
0001
0000
1000
0000
0000
1000
0010
0000
0000
0010
,
0100
0000
0001
0000
1000
0000
0010
0000
0100
0001
0000
0001
1000
0000
1000
0010
,
0000
0010
0100
0000
0001
0000
0010
0000
0002
0000
0000
0000
0020
0000
0000
0000
,
0100
0000
0000
0000
1133
0000
0000
0000
0010
0000
0000
0010
1000
0000
0000
1000
,
0100
0000
0010
0000
0100
0000
1000
0000
0001
0000
0000
0001
0100
0000
0000
0100
,
0010
0000
1000
0000
0001
0000
0100
0000
0010
1000
0000
1000
0001
0000
0001
0100
,
0000
0100
0010
0000
1000
0000
0100
0000
2000
0000
0000
0000
0020
0000
0000
0000
,
0100
0000
3131
0000
1000
0100
1100
0000
,
0001
0010
0011
0000
1000
0010
0100
0001
,
1000
0000
1001
0000
0001
1000
1001
0000
,
1000
0010
1010
0000
0010
0100
0001
0100
,
0001
0000
0101
0000
0001
1000
0100
1000
,
0001
0010
0001
1000
0010
0100
0001
1000
,
0100
0010
0100
1000
0001
0010
0001
0100
,
0010
1000
0100
1000
0010
0000
1011
0000
,
1101
1111
0000
0000
;
