#TITLE:Eat This;
#SUBTITLE:;
#ARTIST:Emoticon;
#TITLETRANSLIT:;
#SUBTITLETRANSLIT:;
#ARTISTTRANSLIT:;
#CRChallenge:;
#BANNER:eat.png;
#BACKGROUND:eat-bg.png;
#LYRICSPATH:;
#CDTITLE:;
#MUSIC:eat.ogg;
#OFFSET:0.000;
#SAMPLESTART:33.735;
#SAMPLELENGTH:12.000;
#SELECTABLE:YES;
#BPMS:0.000=180.138;
#STOPS:;
#BGCHANGES:;
#NOTES:
     dance-single:
     Renard:
     Medium:
     9:
     0.631,0.771,0.539,0.057,0.436:
0000
0000
0000
0000
,
0000
0000
0000
0000
,
0000
0000
0000
0000
,
0000
0000
0000
0000
,
1100
0000
0000
0000
0000
0000
0000
1100
,
1001
0000
0000
0000
0000
0000
0000
0000
0000
0000
0000
0000
0000
0000
0001
1000
,
0100
0000
0000
0000
0000
0000
0000
0000
0000
0000
1001
0000
0000
1100
0000
0000
,
1001
0000
0000
0000
0000
0101
1001
0000
,
0001
0000
0000
0100
0000
0000
1000
0000
0000
0100
0000
0000
0001
0000
0000
0000
,
0010
0000
0000
0100
0000
0000
0001
0000
0000
0100
0000
0000
1000
0000
0000
0000
,
0010
0000
0000
0100
0000
0000
1000
0000
0000
0100
0000
0000
0001
0000
0000
0000
,
0010
0000
0000
0100
0000
0000
1000
0000
0000
0000
0010
0000
0100
0000
0000
0000
,
0001
0000
0000
0100
0000
0000
1000
0000
0000
0100
0000
0000
0010
0000
0000
0000
,
1000
0000
0000
0100
0000
0000
0001
0000
0000
0100
0000
0000
0010
0000
0000
0000
,
0001
0000
0000
0010
0000
0000
1000
0000
0000
0010
0000
0000
0100
0000
0000
0000
,
1000
0100
0000
0000
0010
0000
0001
0000
1000
0000
0100
0000
1100
0000
0000
0000
,
1000
1000
0100
0100
0010
0000
0001
0000
,
0001
0000
0001
0000
0010
0000
0010
0000
0100
0000
0000
0100
0000
0000
0000
0000
,
1000
1000
0010
0010
0100
0000
0001
0000
,
0100
0000
0010
0000
1000
0000
0100
0000
0010
0001
0010
0001
0000
0000
0000
0000
,
0010
0010
0100
0100
1000
0000
1000
0000
,
0001
0000
0001
0000
0010
0000
0010
0000
0001
0000
0000
1000
0000
0000
0000
0000
,
0001
0001
0010
0010
0100
0000
0100
0000
,
1000
0000
0100
0000
0010
0000
0001
0000
0010
0100
1000
0100
0000
0000
0000
0000
,
1000
0100
0010
0001
0010
0000
0011
0000
,
0001
0010
0100
1000
0100
0000
1100
0000
,
1000
0010
0100
0001
0100
0000
0101
0000
,
0001
0000
0100
0000
0010
0000
1000
0000
0001
1000
0001
1000
0000
0000
0000
0000
,
0001
0010
0100
1000
0100
0000
1100
0000
,
1000
0100
0010
0001
0010
0000
0011
0000
,
0001
0100
0010
1000
0010
0000
1010
0000
,
2002
0000
0000
3003
,
0000
0000
0100
0000
0000
0010
0000
0000
1000
0000
0000
0000
0100
0000
0010
0000
,
0000
0000
0001
0000
0000
0010
0000
0000
0100
0000
1000
0000
0010
0000
0100
0000
,
0001
0000
0010
0000
0000
0001
0000
0000
1000
0000
0000
0000
0100
0000
0010
0000
,
0000
0000
0001
0000
0000
0010
0000
0000
0100
0000
1000
0000
0010
0000
0100
0000
,
0001
0000
0010
0000
0000
0001
0000
0000
1000
0000
0000
0000
0000
0000
0010
0000
,
0000
0000
0100
0000
0000
0001
0000
0000
0100
0000
0010
0000
1000
0000
0100
0000
,
0010
0000
0001
0000
0000
0010
0000
0000
0001
0000
0000
0000
0000
0000
1000
0000
,
0002
0000
0013
0100
2000
0000
3100
0010
,
0110
0000
0000
0110
0000
0000
0011
0000
0000
0011
0000
0000
1100
0000
0000
1100
,
0000
0000
0110
0000
0000
0110
0000
0000
0001
0000
0010
0000
0100
0000
1000
0000
,
0100
0000
0000
1100
0000
0000
0010
0000
0000
0110
0000
0000
0010
0000
0000
0011
,
0000
0000
1000
0000
0000
1100
0000
0000
0100
0000
1000
0000
0001
0000
0010
0000
,
0011
0000
0000
0011
0000
0000
0110
0000
0000
0110
0000
0000
1100
0000
0000
1100
,
0000
0000
0110
0000
0000
0110
0000
0000
0010
0000
0001
0000
0010
0000
0100
0000
,
1000
0000
0000
1100
0000
0000
0100
0000
0000
0110
0000
0000
0010
0000
0000
0011
,
0000
0000
0000
0000
0000
0000
0000
0000
1000
0001
1000
0000
0001
1000
0001
0000
,
1000
0000
0000
0100
0000
0000
0010
0000
0000
0001
0000
0000
0100
0000
0000
0010
,
0000
0000
1000
0000
0000
0100
0000
0000
0010
0000
0001
0000
0010
0000
0100
0000
,
1000
0000
0000
0010
0000
0000
0100
0000
0000
0001
0000
0000
0010
0000
0000
0100
,
0000
0000
1000
0000
0000
0010
0000
0000
0100
0000
0010
0000
1000
0000
0100
0000
,
0010
0000
0000
0001
0000
0000
0010
0000
0000
0100
0000
0000
1000
0000
0000
0010
,
0000
0000
0100
0000
0000
0001
0000
0000
0010
0000
0100
0000
0010
0000
0001
0000
,
0100
0000
0000
0010
0000
0000
1000
0000
0000
0100
0000
0000
0010
0000
0000
0100
,
0000
0000
1000
0000
0000
0010
0000
0000
0200
0000
0000
0000
0000
0000
0000
0300
,
0001
0000
0000
0100
0000
0000
1000
0000
0000
0100
0000
0000
0110
0000
0000
0000
,
0010
0000
0000
1000
0000
0000
0100
0000
0000
0001
0000
0000
0110
0000
0000
0000
,
0010
0000
0000
0001
0000
0000
0010
0000
0000
1000
0000
0000
0110
0000
0000
0000
,
0100
1000
0010
0100
0001
0010
0100
1000
,
0010
0000
0000
0001
0000
0000
0010
0000
0000
1000
0000
0000
0110
0000
0000
0000
,
0010
0000
0000
1000
0000
0000
0100
0000
0000
0001
0000
0000
0110
0000
0000
0000
,
0100
0000
0000
1000
0000
0000
0010
0000
0000
0001
0000
0000
0110
0000
0000
0000
,
0010
1000
0100
0000
0010
0001
1001
0000
,
0110
0000
0000
0000
;
#NOTES:
     dance-single:
     Renard:
     Hard:
     12:
     0.925,0.991,1.000,0.069,0.694:
0000
0000
0000
0000
,
0000
0000
0000
0000
,
0000
0000
0000
0000
,
0000
0000
0000
0000
,
1011
0000
0000
0000
0000
0000
0000
1100
,
1110
0000
0000
0000
0000
0000
0000
0000
0000
0000
0000
0000
0000
0000
0001
0100
,
0101
0000
0000
0000
0000
0000
0000
0000
0000
0000
0101
0000
0000
1001
0000
0000
,
1011
0000
0000
0000
0000
1010
1001
0000
,
0101
0000
0000
0010
0000
0000
1100
0000
0000
0010
0000
0000
1001
0000
0000
0000
,
1100
0000
0000
0010
0000
0000
0101
0000
0000
0010
0000
0000
1001
0000
0000
0000
,
0101
0000
0000
0010
0000
0000
1001
0000
0000
0010
0000
0000
1100
0000
0000
0000
,
1100
0000
0000
0010
0000
0000
1001
0000
0000
0000
0010
0000
0101
0000
0000
0000
,
1010
0000
0000
0100
0000
0000
0011
0000
0000
0100
0000
0000
1001
0000
0000
0000
,
0011
0000
0000
0100
0000
0000
1010
0000
0000
0100
0000
0000
1001
0000
0000
0000
,
1010
0000
0000
0100
0000
0000
1001
0000
0000
0100
0000
0000
0011
0000
0000
0000
,
0001
0100
0000
0100
0010
1000
0100
0010
0001
0010
0100
0000
1100
0000
0000
0000
,
2100
0100
0001
0001
3010
0000
1001
0000
,
0102
0100
1000
1000
0013
0000
1001
0000
,
2100
0100
0001
0001
3010
0000
1001
0000
,
0001
0000
0100
0000
1000
0000
0100
0000
0001
0100
0010
1000
0000
0000
0000
0000
,
0012
0010
1000
1000
0103
0000
1001
0000
,
2010
0010
0001
0001
3100
0000
1001
0000
,
0012
0010
1000
1000
0103
0000
1001
0000
,
1000
0000
0010
0000
0001
0000
0010
0000
1000
0010
0100
0001
0000
0000
0000
0000
,
1001
1000
1001
0001
1001
0000
0110
0000
,
1001
0001
1001
1000
1001
0000
0110
0000
,
0110
0010
0110
0100
0110
0000
1001
0000
,
0110
0010
0110
0100
0110
0000
1001
0000
,
1010
0010
1010
1000
1010
0000
0101
0000
,
0011
0010
0011
0001
0011
0000
1100
0000
,
1001
0001
0101
0100
0110
0010
1010
0000
,
1000
0010
0100
0001
0100
0010
1000
0001
1000
0100
0010
0001
1000
0001
1000
0000
,
0001
0000
0100
0000
0010
1000
0000
0000
0001
0000
0100
0000
0000
0000
1001
0000
,
0000
0000
0101
0000
0000
0110
0000
0000
1010
0000
0100
0000
0001
0000
0010
0000
,
1000
0000
0010
0000
0100
0001
0000
0000
1000
0000
0010
0000
0000
0000
1001
0000
,
0000
0000
1010
0000
0000
0110
0000
0000
0101
0000
0010
0000
1000
0000
0100
0000
,
0001
0000
0100
0000
0010
1000
0000
0000
0001
0000
0100
0000
0000
0000
1001
0000
,
0000
0000
0101
0000
0000
0110
0000
0000
1010
0000
0100
0000
0001
0000
0010
0000
,
1000
0000
0010
0000
0100
0001
0000
0000
1000
0000
0010
0000
0000
0000
1001
0000
,
M01M
MM0M
MMMM
M10M
M00M
MMMM
MMMM
M10M
,
0110
0000
0000
0110
0000
0000
1100
0000
0000
1100
0000
0000
0011
0000
0000
0011
,
0000
0000
0110
0000
0000
0110
0000
0000
1000
0000
0100
0000
0010
0000
0001
0000
,
0010
0000
0000
0011
0000
0000
0100
0000
0000
0110
0000
0000
0100
0000
0000
1100
,
0000
0000
0001
0000
0000
0011
0000
0000
0010
0000
0001
0000
1000
0000
0100
0000
,
1100
0000
0000
1100
0000
0000
0110
0000
0000
0110
0000
0000
0011
0000
0000
0011
,
0000
0000
0110
0000
0000
0110
0000
0000
0100
0000
1000
0000
0100
0000
0010
0000
,
0001
0000
0000
0011
0000
0000
0010
0000
0000
0110
0000
0000
0100
0000
0000
1100
,
0000
0000
0000
0000
0000
0000
0000
0000
0001
1000
0001
0000
1000
0001
1000
0000
,
0001
0100
0001
0100
0001
0000
1000
0010
1000
0010
1000
0000
0001
1000
0001
1000
,
0001
0000
1000
0100
1000
0100
1000
0000
0001
0010
0001
0000
1000
0010
1000
0000
,
0001
0100
0001
0100
0001
0000
1000
0010
1000
0010
1000
0000
0001
1000
0001
1000
,
0001
0000
1000
0100
1000
0100
1000
0000
0001
0010
0001
0000
1000
0010
1000
0000
,
1000
0010
1000
0010
1000
0000
0001
0100
0001
0100
0001
0000
1000
0001
1000
0001
,
1000
0000
0001
0010
0001
0010
0001
0000
1000
0100
1000
0000
0001
0100
0001
0000
,
1000
0010
1000
0010
1000
0000
0001
0100
0001
0100
0001
0000
1000
0001
1000
0001
,
1000
0000
0001
0000
0000
0110
0000
0000
1001
0000
1000
0001
0100
0010
1000
0001
,
1000
0000
0100
1000
0000
0001
0010
0000
0001
1000
0000
0100
1000
0000
0001
0000
,
0010
0000
0001
1000
0000
0100
1000
0000
0001
0010
0000
0001
1000
0000
0100
0000
,
1000
0000
0001
0010
0000
0001
1000
0000
0100
0010
0000
0100
1000
0000
0001
0000
,
0010
0001
1000
0100
0010
0001
0010
0100
,
1000
0000
0001
0100
0000
0010
1000
0000
0001
0100
0000
0001
1000
0000
0010
0000
,
0100
0000
0001
1000
0000
0010
0100
0000
0001
0100
0000
0010
0100
0000
0001
0000
,
1000
0000
0010
0100
0000
0010
1000
0000
0010
0100
0000
0001
0100
0000
0010
0000
,
1000
0000
0010
0000
0100
0001
0000
0000
1000
0100
0010
0000
0011
0000
1100
0000
,
1001
0000
0000
0000
;
#NOTES:
     dance-single:
     Renard:
     Easy:
     6:
     0.418,0.477,0.149,0.034,0.000:
0000
0000
0000
0000
,
0000
0000
0000
0000
,
0000
0000
0000
0000
,
0000
0000
0000
0000
,
1001
0000
0000
0000
0000
0000
0000
0001
,
0100
0000
0000
0000
0000
0000
0000
0010
,
1000
0000
0000
0000
0000
0100
0000
0000
,
1000
0000
0000
0000
0000
0001
1000
0000
,
0001
0000
0000
0100
0000
0010
1000
0000
,
0100
0000
0000
1000
0000
0001
0010
0000
,
0001
0000
0000
1000
0000
0100
1000
0000
,
0001
0000
0000
0100
0000
0001
1000
0000
,
0100
0000
0000
1000
0000
0001
0010
0000
,
0001
0000
0000
1000
0000
0010
1000
0000
,
0001
0000
0000
0100
0000
0001
1000
0000
,
0100
0100
0100
0100
,
1000
1100
0100
1100
,
1000
1100
0100
1100
,
0010
0011
0001
0011
,
0001
0010
0001
0010
0001
0000
0000
0000
,
1000
1100
0001
1001
,
0100
1100
1000
1001
,
0001
0101
0001
0011
,
0002
0000
0000
0000
,
1003
0100
1000
0100
1000
0000
1000
0000
,
0100
1000
0100
1000
0100
0000
0100
0000
,
0010
0001
0010
0001
0010
0000
0010
0000
,
0001
0001
1000
1000
,
0001
0100
0001
0100
0001
0000
0001
0000
,
1000
0010
1000
0010
1000
0000
1000
0000
,
0001
1000
0001
0000
1000
0000
1000
0000
,
0002
0000
0000
0000
,
1003
0000
0100
0000
1000
0100
1000
0000
,
0001
0010
0001
0010
,
0001
0000
0100
0000
0001
0100
0001
0000
,
1000
0000
0010
0000
1000
0010
1000
0000
,
0001
0000
0100
0000
0001
0100
0001
0000
,
1000
0000
0001
0000
1000
0001
1000
0000
,
0100
0000
1000
0000
0100
1000
0100
0000
,
1000
0001
0100
0000
,
0001
0000
0000
0001
0000
0000
1000
0000
,
0000
1000
0000
0000
0100
0000
0100
0000
,
1000
0000
0000
1000
0000
0000
0001
0000
,
0000
0001
0000
0000
0010
0000
0010
0000
,
0001
0000
0000
0001
0000
0000
1000
0000
,
0000
1000
0000
0000
0010
0000
0010
0000
,
1000
0000
0000
1000
0000
0000
0001
0000
,
0000
0000
0100
0100
,
0001
1000
0100
1000
,
0001
0000
0100
0000
0001
1000
0001
1000
,
0100
1000
0001
0100
,
0001
0000
1000
0000
0100
1000
0100
0000
,
1000
0001
0010
0001
,
1000
0000
0010
0000
1000
0001
1000
0001
,
0010
0001
1000
0010
,
1000
0000
0001
0000
1000
0001
1000
0000
,
0001
0001
0100
0100
,
0001
0001
0100
0100
,
0010
0010
1000
1000
,
0010
1000
0010
1000
,
0100
0100
1000
1000
,
0100
0100
1000
1000
,
0001
0010
0001
0010
,
0002
0000
0000
0000
,
1003
0000
0000
0000
;
#NOTES:
     dance-single:
     Renard:
     Beginner:
     3:
     0.346,0.477,0.229,0.310,0.000:
0000
0000
0000
0000
,
0000
0000
0000
0000
,
0000
0000
0000
0000
,
0000
0000
0000
0000
,
1001
0000
0000
0000
,
1001
0000
0000
0000
,
2002
0000
0000
0000
,
0010
0000
0000
3003
,
1000
1000
0000
0000
,
0001
0001
0000
0000
,
1000
1000
0000
0000
,
0001
1000
0001
0000
,
0100
0100
0000
0000
,
0010
0010
0000
0000
,
0100
0100
0000
0000
,
0020
0000
0000
0000
,
1030
0000
1000
0000
,
0001
0000
0001
0000
,
1000
0001
1000
0000
,
0001
0000
0001
0000
,
0100
0000
0100
0000
,
0010
0000
0010
0000
,
0100
0010
0100
0000
,
0020
0000
0000
0000
,
1030
1000
1000
0000
,
0001
0001
0001
0000
,
0100
0100
0100
0000
,
0010
1000
0001
0100
,
0001
0001
0001
0000
,
1000
1000
1000
0000
,
0001
0001
0001
0000
,
1000
0100
0010
0001
,
2000
3001
2000
3001
,
2000
3001
2000
3001
,
0002
1003
0002
1003
,
0002
1003
0002
1003
,
0020
0130
0020
0130
,
0020
0130
0020
0130
,
0200
0310
0200
0310
,
0020
0000
0000
0000
,
2030
0000
0000
3002
,
0000
0000
0103
0100
,
0020
0000
0000
2030
,
0000
0000
3100
0100
,
0020
0000
0000
0032
,
0000
0000
1003
1000
,
0020
0000
0000
0230
,
0000
0000
0001
0301
,
0100
0101
0001
0101
,
0100
0101
0001
0101
,
0100
0101
0001
0101
,
0100
0101
0101
0000
,
0010
1010
1000
1010
,
0010
1010
1000
1010
,
0010
1010
1000
1010
,
1010
0000
0101
0000
,
0001
0001
1000
0000
,
1000
1000
0001
0000
,
0100
0100
0010
0000
,
0010
1000
0010
1000
,
0001
0001
0100
0000
,
0001
0001
1000
0000
,
0001
0001
0010
0000
,
0001
1000
0100
0010
,
1001
0000
0000
0000
;
