#TITLE:Dresden;
#SUBTITLE:;
#ARTIST:Hive & Upbeats;
#TITLETRANSLIT:;
#SUBTITLETRANSLIT:;
#ARTISTTRANSLIT:;
#CRChallenge:;
#BANNER:dresden-banner.avi;
#BACKGROUND:dresden-bg.jpg;
#LYRICSPATH:;
#CDTITLE:!cdtitle.png;
#MUSIC:dresden.ogg;
#OFFSET:0.000;
#SAMPLESTART:10.972;
#SAMPLELENGTH:12.000;
#SELECTABLE:YES;
#BPMS:0.000=173.720;
#STOPS:112.000=0.345
,127.000=0.345
,142.000=0.345
,153.500=0.691
,219.000=0.345
;
#BGCHANGES:;
#NOTES:
     dance-single:
     Renard:
     Challenge:
     9:
     0.539,0.646,0.280,0.744,0.169:
0000
0000
0000
0000
,
0000
0000
0000
0000
,
0000
0000
0000
0000
,
0000
0000
0000
0000
,
0000
0000
0000
0000
,
0000
0000
0000
0000
,
0000
0000
0000
0000
0000
1001
0000
0000
,
0000
0110
0000
0000
0000
1001
0000
0000
,
2200
0310
0001
0010
,
0002
0013
0100
0001
,
0020
0031
0010
0001
,
0200
0310
0100
3001
,
0022
1030
1000
0100
,
2000
3010
0100
1000
,
0200
0310
0100
1000
,
0020
1030
0010
1003
,
2200
0000
3310
0000
1000
0100
0010
0000
,
0202
0000
0313
0000
0001
0100
0010
0000
,
2020
0000
3031
0000
1000
0010
0100
0000
,
0022
0000
1033
0000
0001
0010
0100
1000
,
2200
0000
3310
0000
1000
0100
0010
0000
,
0202
0000
0313
0000
0001
0100
0010
0000
,
2020
0000
3031
0000
1000
0010
0100
0000
,
0022
0000
1033
0000
0001
0010
0100
1000
,
0001
0000
0000
0000
0000
0000
0000
0000
1000
0010
0000
0100
0001
0000
0100
0000
,
0000
0000
0000
0000
0000
0000
0000
0000
0010
1000
0000
0001
0010
0000
0100
0000
,
0000
0000
0000
0000
0000
0000
0000
0000
1000
0100
0000
1000
0001
0000
0010
0000
,
0000
0000
0000
0000
0000
0000
0000
0000
0001
1000
0000
0010
0100
0000
0001
0000
,
0002
0000
0003
0000
0100
0010
0000
1000
0010
0000
0100
0000
0000
0000
0000
0000
,
0000
0000
0000
0000
0001
0010
0000
0100
1000
0000
0001
0000
0000
0000
0000
0000
,
0000
0000
0000
0000
0010
0001
0000
1000
0010
0000
0100
0000
0000
0000
0000
0000
,
0000
0000
0000
0000
0010
1000
0000
0001
0100
0000
0010
0000
MM0M
0000
0000
0000
,
0010
1000
0000
0001
0100
0000
0001
0000
0000
0000
0000
0000
0000
0000
0000
0000
,
1000
0100
0000
1000
0001
0000
1000
0000
0000
0000
0000
0000
0000
0000
0000
0000
,
0001
0010
0000
0001
1000
0000
0001
0000
0000
0000
0000
0000
0000
0000
0000
0000
,
0100
0010
0000
1000
0010
0000
0100
0000
0002
0000
0003
0000
0001
0010
0000
0100
,
1000
0000
0001
0000
0000
0000
0000
0000
0000
0000
0000
0000
1000
0010
0000
0100
,
0001
0100
0010
0000
0010
0000
0010
0000
,
0010
0000
0100
0010
0200
0000
0300
0000
0001
0000
0000
0000
0000
0000
0000
0000
,
2220
0000
3330
0000
,
2202
0000
3303
0000
,
0222
0000
0333
0000
,
2022
0000
3033
0000
,
2220
0000
3330
0000
,
2202
0000
3303
0000
,
0222
0000
0333
0000
,
2022
0000
3033
0000
,
222M
000M
000M
000M
333M
M000
0000
0000
,
22M2
00M0
00M0
00M0
33M3
0M00
0000
0000
,
M222
M000
M000
M000
M333
000M
0000
0000
,
2M22
0M00
0M00
0M00
3M33
00M0
0000
0000
,
222M
000M
000M
000M
333M
M000
0000
0000
,
22M2
00M0
00M0
00M0
33M3
0M00
0000
0000
,
M222
M000
M000
M000
M333
000M
0000
0000
,
2M22
0M00
0M00
0M00
3M33
00M0
0000
0000
,
0001
0100
0010
1000
0000
1000
0010
0000
,
0100
0001
1000
0001
1000
0000
0100
0000
,
1000
0001
0010
0001
0000
1000
0010
0000
,
0100
0001
0000
0100
0001
0000
0100
0000
0001
0000
0000
0000
0010
0000
0000
0000
,
0100
1000
0001
0100
0000
0010
1000
0000
,
0000
0001
0010
0100
1000
0000
0001
0000
,
0000
0000
0100
0000
0010
0000
1000
0000
0000
0000
0000
0001
0010
0000
0000
0000
,
0100
0000
0000
0100
0000
0000
0100
0000
1000
0000
0001
0000
1000
0000
0000
0000
,
0000
0010
0100
0010
1000
0001
1000
0000
,
0000
0010
0100
0010
1000
0001
1000
0000
,
0000
0010
0100
0010
1000
0010
1000
0000
,
0001
0100
0001
0000
1000
0100
1000
0000
,
0001
0010
0001
0010
0000
0001
1000
0000
,
0001
0100
0001
0100
0001
1000
0010
0000
,
1000
0000
0100
0000
1000
0000
0001
0000
1000
0000
0000
0100
1000
0000
0000
0000
,
0001
0000
0000
1000
0001
0000
0100
0000
0000
0000
0000
0000
0000
0000
0000
0000
;
#NOTES:
     dance-single:
     Renard:
     Easy:
     7:
     0.288,0.408,0.000,0.251,0.000:
0000
0000
0000
0000
,
0000
0000
0000
0000
,
0000
0000
0000
0000
,
0000
0000
0000
0000
,
0000
0000
0000
0000
,
0000
0000
0000
0000
,
0000
0000
0000
0000
0000
1000
0000
0000
,
0000
0001
0000
0000
0000
1000
0001
0000
,
0002
0100
0000
0010
,
0000
1000
0000
0103
,
2000
0001
0000
0100
,
0000
0010
0000
3001
,
0200
0010
0000
1000
,
0000
0001
0000
1300
,
0020
1000
0000
0001
,
0000
0100
0000
0031
,
2000
0001
0000
0002
,
0000
0010
0000
3003
,
0002
0100
0000
2000
,
0000
0010
0000
3003
,
2000
0100
0000
0010
,
0000
0002
0000
3013
,
0000
0002
0000
0200
,
0000
0010
0000
0313
,
0000
0000
0001
0000
1000
0100
0010
0001
,
0000
0000
0000
0000
0001
0010
0100
1000
,
0000
0000
0000
0000
1000
0100
0010
0001
,
0000
0000
0000
0000
0001
0010
0100
1000
,
0001
0000
1000
0100
0010
0001
0000
0000
,
0000
0000
0001
0010
0100
1000
0000
0000
,
0000
0000
1000
0100
0010
0001
0000
0000
,
0000
0000
0001
0010
0100
1000
0001
0000
,
1000
0010
0100
0001
0000
0000
0000
0000
,
0001
0100
0010
1000
0000
0000
0000
0000
,
1000
0010
0100
0001
0000
0000
0000
0000
,
0001
0100
0010
1000
0001
0000
1000
0010
,
0100
0001
0000
0000
0000
0000
0001
0100
,
0010
1000
0000
0000
0000
0000
1000
0000
,
2000
0002
0000
0000
,
0100
0000
0000
0000
,
0010
0000
0000
0000
,
0100
0000
0000
0000
,
0010
0000
0000
0000
,
0100
0000
0000
0000
,
0010
0000
0000
0000
,
0100
0000
0000
0000
,
3013
0000
0000
0002
,
0200
0000
0000
0000
,
0020
0000
0333
2000
,
0200
0000
0000
0000
,
0020
0000
3330
0002
,
0200
0000
0000
0000
,
0020
0000
0333
2000
,
0200
0000
0000
0000
,
0020
0000
3330
0000
,
0000
1000
0001
0000
0100
0000
0010
0000
,
0000
1000
0010
0000
0100
0000
0001
0000
,
0000
0000
0001
0010
0000
0000
0100
0000
,
0000
1000
0001
0100
,
0000
0010
1000
0010
0000
0000
0100
0000
,
0000
0001
1000
0100
,
0000
1000
0001
1000
0000
0000
0001
0000
,
0000
0100
0010
1000
,
0000
0010
1000
0000
0001
0000
0100
0000
,
0000
0001
1000
0000
0100
0000
1000
0000
,
0000
0001
0010
0001
0000
0000
1000
0000
,
0000
0100
1000
0000
0001
0000
0100
0000
,
0000
0010
1000
0010
0000
0000
1000
0000
,
0000
0001
0100
0000
0001
0000
1000
0000
,
0100
0010
0001
1000
,
0010
0000
1000
0001
0000
0000
0000
0000
;
#NOTES:
     dance-single:
     Renard:
     Beginner:
     2:
     0.276,0.340,0.039,0.319,0.000:
0000
0000
0000
0000
,
0000
0000
0000
0000
,
0000
0000
0000
0000
,
0000
0000
0000
0000
,
0000
0000
0000
0000
,
0000
0000
0000
0000
,
0000
0000
0000
0000
,
0000
0000
0000
0000
,
1000
0002
0000
0100
,
0000
0010
0003
0011
,
2000
0100
0000
0010
,
0000
0001
3000
1100
,
1000
0002
0000
0100
,
0000
0010
0003
0011
,
0001
2000
0000
0100
,
0000
0010
3000
1010
,
1000
0002
0000
0203
,
0000
0320
0000
1030
,
0100
0020
0000
0032
,
0000
2003
0000
3001
,
0100
0020
0000
2030
,
0000
3200
0000
0310
,
0001
2000
0000
3002
,
0000
0203
0000
0320
,
1030
0000
0010
0100
,
0001
0000
0100
0010
,
1000
0000
0010
0100
,
0001
0000
0100
0010
,
1000
0100
0010
0001
,
0000
0010
0100
1000
,
0000
0100
0010
0001
,
0000
0010
0100
1000
,
0001
0100
0010
0000
,
1000
0010
0100
0000
,
0001
0100
0010
0000
,
1000
0100
0010
0001
,
0100
0010
0000
1000
,
0100
0010
0001
1000
,
0001
1000
0000
0001
,
0200
0000
0000
0310
,
2000
0000
0000
3100
,
0020
0000
0000
0031
,
0200
0000
0000
0310
,
2000
0000
0000
3100
,
0020
0000
0000
0031
,
0200
0000
0000
0310
,
2000
0000
0000
3001
,
0200
0000
0000
0000
,
0320
0000
0000
0000
,
2030
0000
0000
0000
,
3002
0000
0000
0000
,
0203
0000
0000
0000
,
0320
0000
0000
0000
,
2030
0000
0000
0000
,
3002
0000
0000
0103
,
0001
0100
0000
0100
,
0010
1000
0100
0010
,
0000
0001
1000
0100
,
0000
0010
0001
1000
,
0000
0010
1000
0001
,
0000
0100
0001
1000
,
0000
0001
0010
0100
,
1000
0001
1000
0001
,
0000
0001
1000
0010
,
0000
0010
0100
0001
,
0000
0001
0010
0100
,
0000
0100
1000
0001
,
0000
0001
0010
0001
,
0000
0001
1000
0010
,
0000
0010
0100
0001
,
0100
0000
0010
1000
0000
0000
0000
0000
;
