#TITLE:Dreamweaver;
#SUBTITLE:;
#ARTIST:Sonitus Vir;
#TITLETRANSLIT:;
#SUBTITLETRANSLIT:;
#ARTISTTRANSLIT:;
#CRChallenge:;
#BANNER:dream.png;
#BACKGROUND:dream-bg.png;
#LYRICSPATH:;
#CDTITLE:;
#MUSIC:dream.ogg;
#OFFSET:0.000;
#SAMPLESTART:38.020;
#SAMPLELENGTH:12.000;
#SELECTABLE:YES;
#BPMS:0.000=101.000;
#STOPS:;
#BGCHANGES:;
#NOTES:
     dance-single:
     Renard:
     Medium:
     8:
     0.475,0.495,0.354,0.011,0.438:
0000
0000
0000
0000
,
0000
0000
0000
0000
,
0000
0000
0000
0000
,
0000
0000
0000
0000
,
1000
0000
0000
1000
0100
0000
0000
0100
0010
0000
0000
0010
0001
0000
0001
0000
,
0001
0000
0000
0001
0010
0000
0000
0010
0100
0000
0000
0100
1000
0000
1000
0000
,
1000
0000
0000
1000
0010
0000
0000
0010
0100
0000
0000
0100
0001
0000
0001
0000
,
0001
0000
0000
0000
0000
0000
0000
0000
0000
0001
0000
0000
0100
0000
0000
0000
0000
0000
0000
0000
0000
0100
0000
0000
0010
0000
0000
0000
0000
0000
0010
0000
1000
0000
0010
0000
1000
0000
0000
0000
0000
0000
0000
0000
0000
0000
0000
0000
,
0010
0000
0010
0000
1000
0100
0010
0000
0001
0010
0100
1000
0000
1000
0001
0000
,
0100
0000
0100
0000
0010
1000
0001
0000
0010
0100
1000
0001
0000
0001
1000
0000
,
0010
0000
0100
0000
0001
1000
0100
0000
1000
0000
1000
0010
0000
0010
0100
0000
,
0001
0000
0010
0000
0100
1000
0001
0000
0101
0000
0000
0000
1010
0000
0000
0000
,
1000
0000
1000
0000
0010
0100
0001
0000
0010
0100
1000
0001
0000
1000
0100
0000
,
1000
0000
0001
0000
0010
0100
1000
0000
0001
0010
0100
1000
0000
1000
0010
0000
,
1000
0000
0010
0000
0100
0001
0100
0000
0010
1000
0001
1000
0010
0000
1000
0000
,
0100
1000
0001
0000
0010
0000
0100
0000
1100
0000
0000
0000
0000
0000
0000
0000
,
2100
0000
0000
0000
3010
0000
1000
0000
0100
0000
1000
0100
0010
0000
0000
0000
,
0001
0000
0010
0000
0001
0100
0000
0000
1010
0000
0000
0000
1001
0000
1000
0000
,
0110
0000
0000
0010
0000
0000
0001
0010
0100
0000
0000
0000
1100
0000
0000
0000
,
1000
0000
0010
0100
0010
0000
0100
0000
0001
0000
0000
1001
0000
0000
1000
0000
,
0100
0000
0000
0100
0010
0000
0001
0000
0010
0000
0000
0000
0110
0000
0000
0000
,
0100
0000
1000
0000
0000
0010
0000
0000
0100
0000
0000
0000
0001
0000
1000
0001
,
1000
0000
0000
0001
0000
0000
0010
0100
1000
0000
0000
0000
1001
0000
0000
0000
,
1000
0000
0100
0010
0001
0000
1000
0000
0101
0000
0000
1010
0000
0000
0001
0000
,
0110
0000
0000
1001
0000
0000
1000
0100
0010
0000
0000
0000
0011
0000
0001
0010
,
0100
0000
0000
0110
0000
0000
1001
0000
1010
0000
0000
0000
1000
0000
0010
0100
,
0001
0000
0001
0010
0001
0000
0001
0100
0001
0000
0101
0000
0101
0000
0000
0000
,
0001
0000
0001
0010
0001
0000
0001
0100
0001
0000
0101
0000
0101
0000
0000
0000
,
1001
0000
0000
1010
0000
0000
0101
0000
1001
0000
1000
0100
0010
0000
0001
0010
,
0100
0000
0000
1100
0000
0000
0011
0000
1100
0000
1000
0000
0010
0000
0100
0001
,
1000
0000
1000
0100
1000
0000
1000
0010
1000
0000
0100
0000
1100
0000
0000
0000
,
1000
0000
1000
0010
1000
0000
0100
0000
1010
0000
1000
0001
0100
0000
0000
0000
,
1000
0000
0000
1000
0001
0000
0000
0001
0100
0000
0000
0100
0010
0000
0010
0000
,
1000
0000
0000
1000
0010
0000
0000
0010
0100
0000
0000
0100
0001
0000
0001
0000
,
0010
0000
0000
0010
0001
0000
0000
0001
1000
0000
0000
1000
0100
0000
0100
0000
,
1000
0000
0000
1000
0000
0000
0001
0000
0000
0001
0000
0000
0010
0000
0000
0001
1000
0001
1000
0000
0000
0000
0000
0000
;
#NOTES:
     dance-single:
     Renard:
     Challenge:
     10:
     0.540,0.515,0.354,0.022,0.454:
0000
0000
0000
0000
,
0000
0000
0000
0000
,
0000
0000
0000
0000
,
0000
0000
0000
0000
,
0010
0000
0010
1000
0100
0000
0100
1000
0010
0000
0010
0000
1010
0000
1010
0000
,
0001
0000
0001
0010
0100
0000
0100
0010
0001
0000
0001
0000
0101
0000
0101
0000
,
0100
0000
0100
1000
0010
0000
0010
1000
0100
0000
0100
1000
0010
0000
1010
0000
,
0101
0001
1010
0001
0100
0010
1011
0000
,
1000
0010
0100
0001
0010
0000
0001
0100
0010
1000
0100
0000
1000
0010
0100
0001
,
0010
0000
0001
0010
0100
1000
0010
0000
1001
0000
0000
0000
1011
0000
0000
0000
,
1000
0010
0100
0001
0010
0000
0100
0010
0001
0100
0010
0000
1000
0100
0010
0100
,
1000
0000
0010
0100
0001
0010
0001
0000
1001
0000
0000
0000
1011
0000
0000
0000
,
1000
0010
0100
0010
1000
0000
0100
0010
0001
0010
0100
0000
0010
0001
0100
0010
,
0100
0000
0010
1000
0100
0010
0100
0000
1001
0000
0000
0000
1011
0000
0000
0000
,
1000
0010
0100
1000
0100
0000
0010
0100
0001
0010
0100
0000
0010
0001
1000
0000
,
0001
1000
0010
0000
1000
0001
0100
0000
1011
0000
0000
0000
0000
0000
0000
0000
,
0001
0000
0001
0100
0010
0000
0100
0000
0001
0000
0000
0000
0111
0000
0000
0000
,
1000
0000
1000
0100
0010
0000
0100
0000
1000
0000
0000
0000
1110
0000
0000
0000
,
1000
0000
1000
0001
0100
0000
0001
1000
0100
0000
0000
0000
1101
0000
0000
0000
,
1000
0000
1000
0001
0010
0000
0010
0001
1000
0000
0000
0000
1011
0000
0000
0000
,
0001
0000
0001
0100
0010
0000
0010
0100
0001
0000
0000
0000
0111
0000
0000
0000
,
1000
0000
1000
0100
0010
0000
0010
0100
1000
0000
0000
0000
1110
0000
0000
0000
,
1000
0000
1000
0001
0100
0000
0100
0001
1000
0000
0000
0000
1101
0000
0000
0000
,
1000
0000
1000
0001
0010
0000
0010
0001
1000
0000
0000
0000
1011
0000
0000
0000
,
1000
0100
0010
0001
0010
0000
0000
0000
1111
0000
0000
0000
0000
0000
0000
0000
,
0001
0100
0010
1000
0010
0000
0000
0000
1111
0000
0000
0000
0000
0000
0000
0000
,
1000
0100
0010
0100
1000
0000
0000
0000
1110
0000
0000
0000
0000
0000
0000
0000
,
0001
0100
0010
0100
0001
0000
0000
0000
0111
0000
0000
0000
0000
0000
0000
0000
,
0001
1000
0010
1000
0001
1000
0010
1000
0001
0000
0000
0000
1011
0000
0000
0000
,
0001
1000
0100
1000
0001
1000
0100
1000
0001
0000
0000
0000
1101
0000
0000
0000
,
1000
0100
0010
0001
0010
0000
0000
0000
1111
0000
0000
0000
0000
0000
0000
0000
,
0001
0100
0010
1000
0010
0000
0000
0000
1111
0000
0000
0000
0110
0000
0000
0000
,
0010
0000
0010
1000
0100
0000
0100
1000
0010
0000
0010
1000
0100
0000
0000
0000
,
0010
0000
0010
0100
0001
0000
0001
0010
0001
0000
0001
0100
0010
0000
0000
0000
,
0010
0000
0010
1000
0100
0000
0100
1000
0001
0000
0001
0100
0001
0000
1000
0000
,
0100
0000
0100
0000
0010
0000
0010
0000
0001
0000
2000
0002
3013
0000
0000
0000
;
#NOTES:
     dance-single:
     Renard:
     Easy:
     5:
     0.297,0.317,0.066,0.177,0.000:
0000
0000
0000
0000
,
0000
0000
0000
0000
,
0000
0000
0000
0000
,
0000
0000
0000
0000
,
1000
0000
1000
0000
1000
0000
1000
0100
,
0001
0000
0001
0000
0001
0000
0001
0100
,
1000
0000
0001
0000
0001
0000
0001
0100
,
1000
0100
0001
1000
0100
1000
0100
0000
,
1000
0000
1001
0000
0001
0100
0010
1000
,
0001
1001
0002
2003
,
3001
0000
1001
0000
1000
0100
0010
0001
,
1000
0001
1001
0101
,
1001
0000
1000
0100
1000
0001
0100
0001
,
1000
0000
0001
1000
0002
0000
0203
0000
,
0310
0000
0010
1000
0100
1000
0001
0010
,
0001
0000
0001
1000
0200
0000
0000
0000
,
1300
0000
1000
0010
0100
0000
0002
0000
,
0000
1003
0100
0010
0001
0000
0001
0000
,
2000
0000
0001
0001
0001
0000
3001
0000
,
1000
0002
1000
1000
1000
0000
1003
0000
,
1000
0000
0010
0010
0100
0000
0001
0000
,
1000
0000
0001
0100
0001
0000
2000
0000
,
0001
0001
3001
0002
,
0000
0100
0100
0100
0100
0000
1003
0000
,
1000
0000
0100
1000
0100
0000
1000
0000
,
0001
0000
0100
0001
0100
0000
0001
0000
,
2000
3001
0002
1003
,
0001
1000
0001
0100
0001
1000
0100
0000
,
1000
0000
1000
0001
0010
0000
0000
0001
,
1000
0000
0001
1000
0010
0000
0000
1000
,
0002
0000
0100
0003
2000
0000
0100
3000
,
0002
0100
2003
3100
,
1000
0000
0100
0000
0001
0000
0100
1000
,
0001
0000
0100
0000
1000
0000
0100
0001
,
1000
0000
0100
0000
0001
0000
0100
1000
,
0001
0001
1000
1000
0001
1000
0010
0000
;
#NOTES:
     dance-single:
     Renard:
     Beginner:
     2:
     0.187,0.238,0.000,0.266,0.000:
0000
0000
0000
0000
,
0000
0000
0000
0000
,
0000
0000
0000
0000
,
0000
0000
0000
0000
,
1000
0001
1000
0001
,
1000
0001
1000
0001
,
1000
1000
0001
0001
,
2000
0002
0000
3013
,
1000
2000
0001
3002
,
1000
2003
0001
3002
,
1000
2003
0001
3002
,
1000
2003
0001
3002
,
0100
0203
0010
0320
,
0100
0230
0010
0320
,
0100
0230
0010
0320
,
0100
0100
0130
0000
,
0010
1000
0010
0000
,
0100
0001
0100
0000
,
0001
0000
0001
0000
,
1000
0000
1000
0000
,
0100
0100
0100
0000
,
0010
0010
0010
0000
,
0001
0000
1000
0000
,
0001
0000
1000
0000
,
0002
0000
0103
0000
,
0002
0000
1003
0000
,
0002
0000
0000
0010
,
0020
0000
0000
0033
,
2000
0000
3100
0000
,
2000
0000
3001
0000
,
2000
0000
0000
0010
,
0020
0000
3030
1000
,
0010
0010
0010
0000
,
0100
0100
0100
0000
,
0001
0001
0001
0000
,
1000
1000
1000
0001
;
