#TITLE:Dreams (MGD3 Remix);
#SUBTITLE:;
#ARTIST:D-Mode-D feat. Kitsune?;
#TITLETRANSLIT:;
#SUBTITLETRANSLIT:;
#ARTISTTRANSLIT:;
#CRChallenge:;
#BANNER:dreams-banner.avi;
#BACKGROUND:dreams-bg.jpg;
#LYRICSPATH:;
#CDTITLE:;
#MUSIC:dreams.ogg;
#OFFSET:0.020;
#SAMPLESTART:43.786;
#SAMPLELENGTH:12.000;
#SELECTABLE:YES;
#BPMS:0.000=175.000;
#STOPS:0.000=0.020
;
#BGCHANGES:;
#NOTES:
     dance-single:
     Renard:
     Medium:
     9:
     0.578,0.674,0.285,0.409,0.142:
0000
0000
0000
0000
,
0000
0000
0000
0000
,
0000
0000
0000
0000
,
0000
0000
0000
0000
,
0000
0000
0000
0000
,
0000
0000
0000
0000
,
0000
0000
0000
0000
,
0000
0000
0000
0000
,
1000
0000
0001
0100
0000
0000
0001
0000
,
1000
0000
0100
1000
0000
0000
0001
0000
,
0010
0000
0001
1000
0000
0000
0010
0000
,
1000
0000
0001
0100
0000
0000
0001
0000
,
1000
0000
0100
1000
0000
0000
0001
0000
,
0010
0000
0001
1000
0000
0000
0010
0000
,
1000
0000
0001
0100
0000
0000
0001
0000
,
1000
0000
0000
0000
0100
0000
0000
0100
0000
0000
1000
0000
0100
0000
0000
0000
,
1200
0000
0000
0000
0000
0000
0000
0000
0320
0000
0000
0032
0000
0000
0203
0000
,
0320
0000
0000
0000
0000
0000
0000
0000
2030
0000
0000
3200
0000
0000
0320
0000
,
0032
0000
0000
0000
0023
0000
0230
2300
,
3020
0000
0000
0230
0000
0000
0302
0000
0023
0000
0000
0000
0230
0000
0000
0000
,
2300
0000
0000
0000
0000
0000
0000
0000
3002
0000
0000
0023
0000
0000
0230
0000
,
2300
0000
0000
0000
0000
0000
0000
0000
3020
0000
0000
0230
0000
0000
0302
0000
,
0023
0000
0000
0000
0000
0000
0000
0000
0032
0000
0000
2003
0000
0000
3200
0000
,
0320
0000
0000
0032
0000
0000
0023
0000
0230
0000
0000
0000
2300
0000
0000
0000
,
3001
0000
0000
0000
1000
0000
0000
0100
0000
0000
1000
0000
0001
0000
0000
0000
,
0100
0000
0000
0000
0001
0000
0000
1000
0000
0000
0001
0000
0010
0000
0000
0000
,
0001
0000
0000
0000
1000
0000
0000
0010
0000
0000
1000
0000
0001
0000
0000
0000
,
0100
0000
0000
0000
0001
0000
0000
1000
0000
0000
0100
0000
1000
0000
0000
0000
,
0001
0000
0010
0000
0001
0000
1000
0001
,
0000
0100
0000
0001
0000
1000
0001
0000
,
1000
0000
0100
0000
1000
0000
0010
0100
,
0001
0000
0000
0000
0100
0000
0000
0010
0000
0000
0010
0000
1001
0000
0000
0000
,
0001
0000
0000
0000
0110
0000
0000
0010
0000
0000
1000
0000
0100
0000
0000
0000
,
1000
0000
0000
0000
0011
0000
0000
0100
0000
0000
1000
0000
0010
0000
0000
0000
,
0100
0000
0000
0000
1001
0000
0000
0001
0000
0000
0010
0000
0100
0000
0000
0000
,
1000
0000
0000
0000
1010
0000
0000
1000
0000
0000
0010
0000
0100
0000
0000
0000
,
0001
0010
0001
0010
0001
0010
0001
1000
,
0000
1000
0000
1000
0000
1000
0010
0000
,
0100
0000
0000
0000
1001
0000
0000
0010
0000
0000
0100
0000
1000
0000
0000
0000
,
0001
0000
0000
0000
0101
0000
0010
0000
0000
0000
1000
0000
0100
0000
1000
0100
,
1000
0000
0000
0000
0110
0000
0000
0100
0000
0000
0001
0000
0010
0000
0000
0000
,
0001
0000
0000
0000
1100
0000
0000
0010
0000
0000
0001
0000
0100
0000
0000
0000
,
0010
0000
0000
0000
1001
0000
0000
1000
0000
0000
0100
0000
0010
0000
0000
0000
,
0001
0000
0000
0000
0101
0000
0000
0001
0000
0000
0100
0000
0010
0000
0000
0000
,
1000
0100
1000
0100
1000
0100
1000
0001
,
0000
0000
0001
0000
0000
0000
0001
0000
0000
0000
0001
0000
0100
0000
0010
1000
,
0010
0000
1001
0000
1000
0100
0010
0001
,
1000
0000
0000
1000
0000
0000
0001
0000
0000
0001
0000
0000
1001
0000
0000
0000
,
0002
0103
2000
3100
,
0002
0000
0013
0000
1000
0010
0001
0200
,
0010
0000
0310
0000
1000
0100
0010
0001
,
0020
0000
0130
0000
1000
0010
0100
0000
,
0001
0000
0000
0000
0110
0000
0000
0000
0010
0000
1000
0010
0000
0000
1000
0000
,
0010
0000
0000
0000
1000
0000
0000
0000
0001
0000
0010
0001
0000
0000
0010
0000
,
0001
0000
1000
0000
0010
0100
0001
0020
,
0100
0000
0130
0000
0100
1000
0010
0000
,
2000
3010
0002
0013
,
2000
0000
3100
0000
0001
0100
1000
0020
,
0100
0000
0130
0000
0001
0010
0100
1000
,
0200
0000
0310
0000
0001
0100
0010
0000
,
1000
0000
0000
0000
0110
0000
0000
0000
0100
0000
0001
0100
0000
0000
0001
0000
,
0100
0000
0000
0000
0001
0000
0000
0000
1000
0000
0100
1000
0000
0000
0100
0000
,
1000
0000
0001
0000
0100
0010
1000
0200
,
0010
0000
0000
1000
0000
0000
0010
0000
0000
0001
0000
0000
0310
0000
0000
0000
,
0110
0000
0100
1000
0000
1000
0000
0010
,
0000
0001
0010
0100
1000
0000
0100
0000
,
0101
0000
0010
1010
0000
1000
1100
0000
,
0100
0110
0000
0010
0011
0000
1001
0000
,
0101
0000
0100
1000
0000
1000
0000
0001
,
0000
0010
1000
0100
0001
0000
0000
0010
,
1100
0000
1000
1010
0000
0010
0110
0000
,
0100
0101
0000
0001
0011
0000
0110
0000
,
1001
0000
0001
0010
0000
0010
0100
1000
,
0010
0100
0001
0010
0000
0010
0001
1000
,
0010
0100
0001
1000
0000
1000
0001
0010
,
0100
1000
0010
0100
0000
0100
0010
1000
,
0100
0010
0001
1000
0000
1000
0001
0010
,
0100
1000
0010
0100
0000
0100
0010
1000
,
0100
0010
0001
0010
0000
0010
0001
0010
,
0100
0100
0100
0100
0100
0000
1001
0000
;
#NOTES:
     dance-single:
     Renard:
     Easy:
     6:
     0.356,0.355,0.027,0.125,0.000:
0000
0000
0000
0000
,
0000
0000
0000
0000
,
0000
0000
0000
0000
,
0000
0000
0000
0000
,
2000
0000
0000
3200
0000
0000
0320
0000
,
0000
0000
0000
0001
0000
0000
0000
0000
,
0000
0000
0000
0001
0000
0000
0000
0000
,
0000
0000
0000
0001
0000
0000
0000
0000
,
0032
0000
0000
0023
0000
0000
0230
0000
,
0000
0000
0000
1000
0000
0000
0000
0000
,
0000
0000
0000
0010
0000
0000
0000
0000
,
0000
0000
0000
1000
0000
0000
0000
0000
,
2300
0000
0000
3020
0000
0000
0230
0000
,
0000
0000
0000
0001
0000
0000
0000
0000
,
0000
0000
0000
0010
0000
0000
0000
0000
,
0000
0000
0000
0301
0000
0000
0000
0000
,
0001
0000
0010
0100
,
2000
0000
3010
0100
,
0002
0000
0013
0001
,
1000
1000
0001
0001
,
0020
0000
0031
1000
,
0020
0000
1030
0001
,
0200
0000
0301
1000
,
0100
0100
1000
0001
,
0010
0001
0000
0001
,
1000
0100
0000
0100
,
1000
0010
0000
0010
,
0100
0001
1000
0100
,
1100
0000
1000
0100
,
0010
0000
0001
1000
,
0010
0000
0100
0001
,
0100
0000
0010
0000
1000
0001
1000
0000
,
0100
0000
1000
0000
0000
0001
0010
0000
,
0001
0000
0100
0000
0000
0010
1000
0100
,
0010
0000
0001
0000
0000
0010
0100
0000
,
1000
0000
0001
0000
0000
0100
0001
1000
,
0100
0000
1000
0000
0000
0001
0010
0000
,
0001
0000
1000
0000
0000
0010
1000
0001
,
0100
0000
0001
0000
0000
1000
0100
0000
,
1000
0000
0001
0000
0000
0100
0001
1000
,
0001
0000
1000
0000
0000
0100
1000
0001
,
0010
0000
0001
0000
0000
1000
0001
0000
,
1000
0000
0100
0000
0000
1000
0001
0010
,
0001
0000
1000
0000
0000
0010
1000
0000
,
0001
0000
0100
0000
0000
0001
1000
0100
,
1000
0000
0001
0000
0000
0100
0001
0000
,
1000
0000
0001
0000
0000
0010
0001
1000
,
0010
0010
0010
0010
,
1000
0100
0000
0100
,
0010
0000
0001
0000
0000
0000
0001
1000
,
0010
1000
0000
1000
,
0001
0000
0100
0000
0000
0000
0100
0001
,
0010
0001
0000
0001
,
1000
0000
0100
0000
0000
0000
0100
1000
,
0010
0100
0000
0100
,
0001
0000
0010
0000
0001
0000
1000
0001
,
1000
0001
0000
0001
,
0100
0000
0010
0000
0000
0000
0010
1000
,
0100
0010
0000
0010
,
0001
0000
0100
0000
0000
0000
0100
0010
,
1000
0010
0000
0010
,
1000
0000
0100
0000
0000
0000
0100
0010
,
0001
0000
1000
0000
0000
0000
1000
0001
,
0010
0001
1000
0001
,
1000
0000
0100
0000
0000
1000
0100
0000
,
1000
0001
0100
0010
,
1000
0000
0000
1000
0000
0000
1000
0000
,
0000
0001
0000
0000
0001
0000
0001
0000
,
0100
0000
0001
0100
0000
0001
0000
1000
,
0000
0001
1000
0001
1000
0000
0000
0000
,
0001
0000
0000
1001
0000
0000
1000
0000
,
0000
1001
0000
0000
0001
0000
0001
0000
,
1000
0000
0100
0000
0000
1000
0100
0000
,
0010
0000
0001
0000
0000
0010
0001
0000
,
1000
0000
0010
0000
0000
1000
0010
0000
,
0100
0000
0001
0000
0000
0100
0001
0000
,
0010
0000
0001
0000
0000
0010
0001
0000
,
1000
0000
0100
0000
0000
1000
0100
0000
,
1000
0000
0010
0000
0000
1000
0010
0000
,
0100
0000
0001
0000
1000
0100
1000
0000
;
#NOTES:
     dance-single:
     Renard:
     Beginner:
     2:
     0.259,0.319,0.000,0.142,0.000:
0000
0000
0000
0000
,
0000
0000
0000
0000
,
0000
0000
0000
0000
,
0000
0000
0000
0000
,
0000
0000
0000
0000
,
0000
0000
0000
0000
,
0000
0000
0000
0000
,
0000
0000
0000
0000
,
1000
0001
0000
0001
,
0100
0010
0000
0010
,
1000
0100
0000
0100
,
0010
0001
1000
0001
,
1000
0010
0000
0010
,
0100
0001
0000
0001
,
1000
0100
0000
0100
,
0010
0001
1000
0001
,
0200
0000
0000
0000
,
0320
0000
0000
0000
,
2030
0000
0000
0000
,
3002
0000
0000
0000
,
0023
0000
0000
0000
,
0032
0000
0000
0000
,
2003
0000
0000
0000
,
3200
0000
0000
0000
,
2300
0000
0000
0000
,
3020
0000
0000
0000
,
0230
0000
0000
0000
,
0302
0000
0000
0000
,
0023
0000
0000
0000
,
0032
0000
0000
0000
,
2003
0000
0000
0000
,
3020
0000
0000
0130
,
0010
1000
0000
1000
,
0001
0100
0000
0100
,
0001
0010
0000
0010
,
0100
1000
0000
1000
,
0001
0100
0000
0100
,
0010
1000
0000
1000
,
0001
0010
0000
0010
,
0100
1000
0100
1000
,
0001
0010
0000
0010
,
0001
0100
0000
0100
,
0010
1000
0000
1000
,
0100
1000
0001
0010
,
0001
1000
0000
1000
,
0001
0100
0000
0100
,
0010
1000
0000
1000
,
0010
0100
0001
1000
,
0100
0000
0010
0000
,
0001
0000
1000
0010
,
0100
0000
0100
0010
,
1000
0000
1000
0001
,
0010
0000
0010
0000
,
0001
0000
0001
0000
,
1000
0000
0100
1000
,
0001
0001
0001
0000
,
0100
0000
0010
0000
,
1000
0000
0010
0100
,
0001
0000
0001
1000
,
0100
0000
0100
0010
,
0001
0000
0001
0001
,
0001
0000
1000
1000
,
1000
0010
0100
0001
,
1000
0100
1000
0000
,
0001
0010
0001
1000
,
0001
0100
0001
1000
,
0010
0000
0010
0000
,
0010
0000
1000
0100
,
0010
0000
0010
0000
,
0001
0100
0010
0000
,
1000
0000
0010
0000
,
0100
0001
1000
0100
,
0010
0000
0010
0001
,
1000
0000
1000
0010
,
0100
0000
0100
0001
,
0010
0000
0001
1000
,
0100
0000
0100
1000
,
0001
0000
0001
0010
,
0001
0000
0001
1000
,
0010
0100
0001
1000
;
#NOTES:
     dance-single:
     Renard:
     Hard:
     9:
     0.620,0.852,0.507,0.071,0.133:
0000
0000
0000
0000
,
0000
0000
0000
0000
,
0000
0000
0000
0000
,
0000
0000
0000
0000
,
0000
0000
0000
0000
,
0000
0000
0000
0000
,
0000
0000
0000
0000
,
0000
0000
0000
0000
,
0001
0000
1000
0000
0000
0100
1000
0000
,
0001
0000
0010
0000
0000
0001
1000
0010
,
1000
0000
0001
0000
0000
0100
0001
0000
,
1000
0000
0100
0000
0000
0010
0001
1000
,
0010
0000
1000
0000
0000
0001
0100
0000
,
0001
0000
1000
0000
0000
0100
1000
0001
,
0010
0000
0001
0000
0000
1000
0010
0000
,
0100
0000
0000
0000
1001
0000
0000
1001
0000
0000
0010
0000
1001
0000
0000
0000
,
0002
0000
0000
0000
,
2000
0000
0003
0000
,
0200
0000
3000
0000
,
0020
0000
0300
0000
,
0002
0000
0030
0000
,
0200
0000
0003
0000
,
0020
0000
0300
0000
,
2000
0000
0000
3030
,
0010
1000
0001
1000
0100
1000
0001
1000
,
0001
0100
0001
0010
0001
1000
0001
1000
,
0010
1000
0100
1000
0001
1000
0010
1000
,
0001
1000
0001
0100
0001
0010
0001
1000
,
0010
1000
0100
1000
0001
1000
0001
1000
,
0001
1000
0001
0100
0001
0010
0001
0010
,
0001
1000
0010
1000
0100
1000
0001
1000
,
0010
1001
1001
1011
,
1010
0000
0000
0000
0100
0000
0000
1010
0000
0000
1001
0000
0100
0000
0000
0000
,
1010
0000
0000
0000
0100
0000
0000
0011
0000
0000
1001
0000
0100
0000
0000
0000
,
1010
0000
0000
0000
0100
0000
0000
0011
0000
0000
1001
0000
0100
0000
0000
0000
,
1010
0000
0000
0000
0100
0000
0000
0011
0000
0000
1001
0000
0100
0000
0000
0000
,
0101
0000
0000
0000
0010
0000
0000
0101
0000
0000
1001
0000
0010
0000
0000
0000
,
0101
0000
0000
0000
0010
0000
0000
1100
0000
0000
1001
0000
0010
0000
0000
0000
,
0101
0000
0000
0000
0010
0000
0000
1100
0000
0000
1001
0000
0010
0000
0000
0000
,
0101
0000
0000
0000
0010
0000
0000
1100
0000
0000
1001
0000
0010
0000
0000
0000
,
0011
0000
0000
0000
1000
0000
0000
0011
0000
0000
0110
0000
1000
0000
0000
0000
,
0011
0000
0000
0000
1000
0000
0000
0101
0000
0000
0110
0000
1000
0000
0000
0000
,
0011
0000
0000
0000
1000
0000
0000
0101
0000
0000
0110
0000
1000
0000
0000
0000
,
0011
0000
0000
0000
1000
0000
0000
0101
0000
0000
0110
0000
1000
0000
0000
0000
,
1100
0000
0000
0000
0001
0000
0000
1100
0000
0000
0110
0000
0001
0000
0000
0000
,
1100
0000
0000
0000
0001
0000
0000
1010
0000
0000
0110
0000
0001
0000
0000
0000
,
1100
0000
0000
0000
0001
0000
0000
1010
0000
0000
0110
0000
0001
0000
0000
0000
,
1100
0000
0000
0110
0000
0000
0011
0000
0000
0110
0000
0000
1011
0000
0000
0000
,
0001
0100
1000
0100
0001
0100
1000
0100
,
0001
0010
1000
0010
0001
0010
1000
0010
,
0001
0010
0100
0000
1000
0010
0100
0000
,
0001
0010
0100
0000
1000
0010
0100
0000
,
0010
0100
1000
0100
0001
0100
1000
0100
,
0001
0010
1000
0010
0001
0010
1000
0010
,
0001
0100
1000
0100
0001
0100
1000
0100
,
0001
0010
0100
0000
1000
0010
0100
0000
,
0010
1000
0100
0000
0010
0100
1000
0000
,
0010
0100
1000
0000
0100
0010
1000
0000
,
0100
0010
0001
0010
1000
0010
0001
0010
,
1000
0010
0001
0100
1000
0100
0001
0100
,
1000
0100
0001
0000
0100
0001
0010
0000
,
0100
0001
0100
0000
1000
0010
0100
0000
,
1000
0100
0010
1000
0100
0010
0001
0010
,
0100
1000
0001
0100
0010
1000
0001
0000
,
1000
0000
1000
0001
0000
0100
0000
0010
,
0000
1000
0100
0010
0001
0000
0010
0000
,
0100
1000
0001
0010
0000
0000
0100
1000
0001
0010
0000
0000
0100
0000
1000
0000
,
0001
0100
0010
1000
0001
0100
0010
1000
,
0100
0010
0001
0010
0000
0100
0000
1000
,
0000
0001
0001
0001
0001
0000
0000
0000
,
0100
0010
1000
0001
0100
0000
0010
1000
0001
0100
0000
0000
0010
0000
1000
0000
,
0100
0000
0010
0000
0001
0000
0010
0000
0100
1000
0001
0010
0100
1000
0100
0010
,
0001
0010
0100
1000
0010
0100
1000
0100
,
0010
0100
0001
0010
0100
1000
0010
0100
,
1000
0100
0010
0100
0001
0010
0100
1000
,
0010
0100
1000
0100
0010
0100
0001
0010
,
0100
1000
0100
0001
0100
1000
0010
0100
,
1000
0100
0010
0100
0001
0010
0100
1000
,
0100
0001
0100
1000
0010
0100
0001
1000
,
0100
0010
0001
0010
0100
0000
1011
0000
;
