#TITLE:Dr. Wily;
#SUBTITLE:;
#ARTIST:SamplingMasters MEGA;
#TITLETRANSLIT:;
#SUBTITLETRANSLIT:;
#ARTISTTRANSLIT:;
#CRChallenge:;
#BANNER:wily.png;
#BACKGROUND:wily-bg.png;
#LYRICSPATH:;
#CDTITLE:;
#MUSIC:wily.ogg;
#OFFSET:0.000;
#SAMPLESTART:9.259;
#SAMPLELENGTH:12.000;
#SELECTABLE:YES;
#DISPLAYBPM:180.000;
#BPMS:0.000=360.570,40.000=180.285,231.000=360.570,249.000=180.285;
#STOPS:40.000=2.330
,249.000=0.333
;
#BGCHANGES:;
#NOTES:
     dance-single:
     Renard:
     Medium:
     9:
     0.665,0.772,0.643,0.109,0.119:
0000
0000
0000
0000
,
0000
0000
0000
0000
,
0000
0000
0000
0000
,
0000
0000
0000
0000
,
0000
0000
0000
0000
,
0000
0000
0000
0000
,
0000
0000
0000
0000
,
0000
0000
0000
0000
,
0000
0000
0000
0000
,
0000
0000
0000
0000
,
1001
0000
0000
0000
0000
0000
0001
0100
0001
0000
1000
0100
1000
0000
0001
0000
,
0000
0000
1000
0100
1000
0000
0001
0100
0001
0000
1000
0000
0000
0000
0010
0000
,
0010
0000
0010
0000
0000
0000
1000
0100
1000
0000
0001
0100
0001
0000
1000
0000
,
0000
0010
0000
0010
0000
0100
0000
0100
,
0000
0000
0000
0000
0000
0000
0001
0100
0001
0000
1000
0100
1000
0000
0001
0000
,
0000
0100
0000
0010
0000
1000
0000
0100
,
0000
1100
0000
1000
0010
0100
0101
0000
,
0000
1010
0000
1000
0100
0010
0001
0000
,
0011
0000
0011
0000
0000
0000
0001
1000
0001
0000
1000
0100
1000
0000
0100
0000
,
0000
0000
1000
0001
1000
0000
0001
0100
0001
0000
1000
0000
0000
0000
0010
0000
,
0010
0000
0010
0000
0000
0000
1000
0001
1000
0000
0001
0100
0001
0000
1000
0000
,
0000
0100
0000
0100
0000
0010
0000
0010
,
0000
0000
0000
0000
0000
0000
0001
0100
0001
0000
1000
0001
1000
0000
0100
0000
,
0000
1100
0000
0011
0000
1010
0000
0101
,
0000
1001
0000
1000
0100
0010
0011
0000
,
0010
0100
1100
0000
1010
0000
0101
0000
,
1010
0000
1000
0100
1000
0100
0010
0000
,
0001
0010
0000
0110
0000
0011
0000
0110
,
0000
0010
0001
0100
0001
0100
0010
0100
,
0010
1000
0100
0010
0001
0010
0000
0010
,
0100
1000
0100
0000
1100
0000
1000
0010
,
0100
0001
0000
0101
0000
0011
0000
1001
,
0000
1000
0001
0100
0010
1000
0100
0010
,
0001
0011
0000
0110
0100
1000
1100
0000
,
1001
1002
0100
0010
,
1003
0001
0100
0010
1000
0100
0010
0001
,
0010
0100
2000
0000
0001
0000
3010
0100
,
1000
0010
0100
0001
0010
0100
1000
0010
,
0100
0002
0010
0000
1000
0000
0103
0010
,
1000
0100
2000
0000
0010
0000
3001
0100
,
0010
1000
0000
1001
0100
0010
1001
0000
,
0000
0110
0000
1001
0010
0100
1001
0000
,
1001
0010
1002
0000
0100
0000
0010
0003
,
1000
0001
0000
0100
0010
0000
1000
0100
,
0010
0001
2000
0000
0010
0000
0001
0000
,
3100
1000
0000
1000
0010
0000
0100
0001
,
0010
0000
0002
0000
1000
0000
0103
0010
,
1000
0200
0000
0000
2300
0000
3020
0000
,
0230
0000
0301
0010
0100
0100
1100
0000
,
0000
1000
0000
0010
0010
0010
0110
0000
,
0101
1001
0000
0000
0001
0100
0001
0100
,
0010
0100
1000
0100
0010
0100
0001
0100
,
0010
0100
0001
0010
0001
0010
0100
0010
,
1000
0010
0100
0010
0001
0010
0100
0010
,
0001
0010
0001
1000
0001
1000
0010
1000
,
0100
1000
0001
1000
0100
1000
0001
1000
,
0010
1000
0001
1000
0001
1000
0001
0100
,
0001
0101
0000
1001
0000
1010
1001
0000
,
0000
0000
0000
0000
,
0000
0000
0000
0000
,
0000
0000
0000
0000
,
0000
0000
0000
0000
,
0000
0000
1001
0001
0100
0010
1000
0000
,
0010
0100
0000
0101
0000
0010
0000
1010
,
0000
1001
0000
1100
1100
0000
0110
0000
,
0011
0011
0000
0011
0011
0000
0110
0000
,
1100
1100
0000
1000
0010
0100
0001
0000
,
0100
0010
0000
1010
0000
1001
0000
1100
,
0000
1000
0100
0010
0001
0010
0100
1000
,
0010
0100
0001
0000
0000
0000
1000
1000
,
1000
0000
1000
0000
0000
0000
0001
0100
0001
0000
1000
0100
1000
0000
0001
0000
,
0000
0000
0100
0001
0100
0000
0001
1000
0001
0000
1000
0000
0000
0000
0010
0000
,
0010
0000
0010
0000
0000
0000
1000
0100
1000
0000
0001
0100
0001
0000
1000
0000
,
0000
0010
0000
0010
0000
0100
0000
0100
,
0000
0000
0000
0000
0000
0000
0001
0100
0001
0000
1000
0100
1000
0000
0001
0000
,
0000
0100
0000
0010
0000
0010
0000
1000
,
0000
1100
0000
1000
0100
0010
0001
0000
,
0000
0011
0000
0010
0100
1000
1100
0000
,
1010
0101
0000
0000
0000
0000
0000
0000
;
#NOTES:
     dance-single:
     Renard:
     Easy:
     6:
     0.367,0.502,0.237,0.000,0.000:
0000
0000
0000
0000
,
0000
0000
0000
0000
,
0000
0000
0000
0000
,
0000
0000
0000
0000
,
0000
0000
0000
0000
,
0000
0000
0000
0000
,
0000
0000
0000
0000
,
0000
0000
0000
0000
,
0000
0000
0000
0000
,
0000
0000
0000
0000
,
0000
0000
0001
0000
1000
0000
0100
1000
,
0000
0000
0001
0000
0100
0001
0000
0000
,
1000
0000
0001
0000
0010
0000
0100
1000
,
0000
0101
0000
0101
0000
0011
0000
0011
,
0000
0000
0000
0000
0001
0000
1000
0100
,
0000
1000
0000
0010
0000
0100
0000
0001
,
0000
1000
0000
0000
0001
0000
0101
0000
,
0000
0001
0000
0000
1000
0000
1100
0000
,
1000
0000
0000
0000
0001
0000
0100
0001
,
0000
0000
1000
0000
0100
1000
0000
0000
,
0011
0000
0000
0000
0001
0000
1000
0100
,
0000
1100
0000
1100
0000
1010
0000
1010
,
0000
0000
0000
0000
1000
0000
0001
0100
,
0000
0001
0000
0010
0000
0100
0000
1000
,
0000
0001
0000
0000
1000
0000
0100
0000
,
0000
1000
0000
0000
0001
0000
0100
0000
,
0010
1000
0000
0010
,
1000
0010
0000
0100
0000
0001
0000
1000
,
0000
0000
0100
0000
0000
0000
1000
0100
,
0000
0000
1000
0000
0001
0100
0000
0000
,
0001
0010
0000
0100
,
1000
0001
0000
0100
0000
0010
0000
1000
,
0000
0100
0000
0010
,
0000
1001
0000
0110
0000
0001
1000
0000
,
0000
0001
1000
0100
,
1000
0001
0000
0001
0000
0001
0000
0001
,
0000
1000
0001
0100
,
0001
1000
0000
1000
0000
1000
0000
1000
,
0000
0100
1000
0001
,
0100
0001
0000
0000
1000
0000
0100
0000
,
0000
1100
0000
0000
0100
0000
1000
0000
,
0000
0011
0000
0000
0010
0000
0001
0000
,
1000
0001
0000
0000
0000
0000
0100
0000
,
0000
0001
0000
0000
1000
0000
0100
0000
,
0010
0001
0000
1000
,
0000
0010
0000
0100
0000
0000
0001
0000
,
1000
0100
0000
0100
,
0010
0001
0001
1000
,
1000
0010
0100
0010
,
0000
1000
0010
1000
,
0001
0100
0000
0100
,
0001
1000
0000
0100
0000
0010
0000
0001
,
0000
0000
1000
0000
0000
0000
0001
0100
,
0000
0000
0001
0000
1000
0001
0000
0000
,
1000
0100
0000
0100
,
0010
0001
0000
1000
0000
0010
0000
0100
,
0000
0001
0000
0001
,
0000
1100
0000
0011
0000
0001
1000
0000
,
0000
0000
0000
0000
,
0000
0000
0000
0000
,
0000
0000
0000
0000
,
0000
0000
0000
0000
,
0000
1001
0001
1000
,
0100
1000
0000
0001
0000
0100
0000
0010
,
0000
1000
0000
0000
1010
0000
1010
0000
,
0000
0100
0000
0000
0101
0000
0101
0000
,
0000
0001
0000
0010
0000
0100
1000
0000
,
0001
1000
0000
0010
0000
0100
0000
0001
,
0000
0000
1000
0001
1000
0001
0000
0000
,
0100
0001
0000
1000
,
0000
0000
0000
0001
0100
0001
0100
0001
,
0000
0100
0001
0100
0001
0100
0000
0010
,
0000
0010
0000
1000
0100
1000
0100
1000
,
0000
1000
0000
1000
0000
0100
0000
0100
,
0000
0000
0000
0010
0001
0010
0001
0010
,
0000
0001
0000
0001
0000
1000
0000
1000
,
0000
1001
0000
0000
0001
0000
1000
0000
,
0000
0110
0000
0000
0010
0000
0100
0000
,
0010
1000
0000
0000
0000
0000
0000
0000
;
#NOTES:
     dance-single:
     Renard:
     Beginner:
     4:
     0.273,0.348,0.020,0.000,0.000:
0000
0000
0000
0000
,
0000
0000
0000
0000
,
0000
0000
0000
0000
,
0000
0000
0000
0000
,
0000
0000
0000
0000
,
0000
0000
0000
0000
,
0000
0000
0000
0000
,
0000
0000
0000
0000
,
0000
0000
0000
0000
,
0000
0000
0000
0000
,
0000
0000
0000
0000
0001
0000
1000
0100
,
0000
0000
1000
0000
0001
0100
0000
0000
,
0000
0000
0000
0000
0001
0000
1000
0100
,
0000
1000
0000
1000
0000
1000
0000
1000
,
0000
0000
0000
0000
0001
0000
0100
0001
,
0000
1000
0000
0001
0000
0100
0000
0001
,
0000
1000
0000
0000
0001
0000
0001
0000
,
0000
1000
0000
0000
0001
0000
0001
0000
,
0100
0000
0100
0000
0010
0000
0010
1000
,
0000
0000
0010
0000
0010
1000
0000
0000
,
0010
0000
0000
0000
0100
0000
0100
0001
,
0000
1000
0000
0100
0000
0010
0000
0001
,
0000
0000
0000
0000
1000
0000
1000
0001
,
0000
0100
0000
0100
0000
0010
0000
0010
,
0000
1000
0000
0000
0001
0000
0100
0000
,
0000
0001
0000
0000
1000
0000
0100
0000
,
0010
0001
0000
0001
,
0000
1000
0000
0001
0000
1000
0000
0001
,
0000
0100
0000
0100
,
0000
0001
0001
0001
,
0000
0100
0000
0100
,
0000
0001
0000
1000
0000
0001
0000
1000
,
0000
0100
0000
0100
,
0000
1000
0000
0001
0000
1000
0001
0000
,
0000
0000
0000
0000
,
1000
0001
0000
0100
0000
0010
0000
1000
,
0000
0000
0000
0000
,
0001
0100
0000
0010
0000
1000
0000
0001
,
0000
0000
0000
0000
0000
0000
1000
0010
,
1000
0010
0000
0000
0000
0000
0000
0000
,
0000
1000
0000
1000
0000
0000
1000
0000
,
0000
0001
0000
0001
0000
0000
0001
0000
,
0100
0010
0000
0010
,
0000
0010
0000
0010
0000
0000
0000
0000
,
0000
0100
0000
0100
,
0000
0100
0000
0100
0000
0000
0000
0000
,
0000
0001
0000
0001
,
0000
0001
0000
0001
0000
0000
1000
0000
,
1000
0010
0000
0010
,
0000
0100
0000
0100
,
0000
0001
0000
0001
,
0000
1000
0000
0100
0000
0010
0000
0001
,
0000
1000
0000
1000
,
0000
0001
0100
0001
,
1000
0100
0000
0100
,
0000
1000
0000
0001
0000
0010
0000
0001
,
0000
1000
0000
1000
,
0000
0010
0000
0100
0000
0001
1000
0000
,
0000
0000
0000
0000
,
0000
0000
0000
0000
,
0000
0000
0000
0000
,
0000
0000
0000
0000
,
0000
1001
0001
0001
,
0000
1000
0000
1000
0000
1000
0000
1000
,
0000
1000
0000
0000
0001
0000
0001
0000
,
0000
1000
0000
0000
0001
0000
0001
0000
,
0000
0100
0000
0000
0100
0000
0100
0000
,
0000
0010
0000
0010
0000
1000
0000
1000
,
0000
0001
0000
0100
,
0000
0010
0000
1000
,
0000
0000
0001
0001
,
0000
1000
1000
0000
,
0010
0000
0100
0100
,
0000
0001
0000
1000
0000
0100
0000
0010
,
0000
0000
0001
0001
,
0000
1000
0000
0010
0000
0100
0000
0001
,
0000
1000
0000
0000
0001
0000
0101
0000
,
0000
0001
0000
0000
1000
0000
0100
0000
,
1000
0001
0000
0000
0000
0000
0000
0000
;
