#TITLE:Down;
#SUBTITLE:;
#ARTIST:Drumcorps;
#TITLETRANSLIT:;
#SUBTITLETRANSLIT:;
#ARTISTTRANSLIT:;
#CRChallenge:;
#BANNER:down.png;
#BACKGROUND:down-bg.png;
#LYRICSPATH:;
#CDTITLE:;
#MUSIC:down.ogg;
#OFFSET:0.000;
#SAMPLESTART:15.821;
#SAMPLELENGTH:12.000;
#SELECTABLE:YES;
#BPMS:0.000=210.520,192.000=105.260,200.000=210.520;
#STOPS:268.000=0.570
,270.000=0.570
;
#BGCHANGES:;
#NOTES:
     dance-single:
     Renard:
     Challenge:
     11:
     0.881,1.000,0.508,0.108,0.319:
0000
0000
0000
0000
,
0000
0000
0000
0000
,
0000
0000
0000
0000
,
0000
0000
0000
0000
,
0000
0000
0000
0000
,
0000
0000
0000
0000
,
0000
0000
0000
0000
,
0000
0000
0000
0000
,
0001
0010
0100
1000
0100
0010
0001
0001
,
0010
0100
1000
0001
0100
0010
1000
1000
,
0010
0100
0001
0010
0100
1000
0010
0010
,
1000
0010
0100
0001
0010
0100
1000
1000
,
0010
0100
0001
0010
0100
1000
0100
0100
,
1000
0100
0010
0001
0100
0010
1000
1000
,
0010
0100
0001
0010
0100
1000
0001
0200
,
0000
0000
0000
0300
,
0010
1000
1000
0001
0100
0100
0010
1000
,
0001
0000
0010
0000
0001
0000
1000
0000
0100
0000
1000
0000
0001
1000
0001
1000
,
0010
1000
1000
0001
0100
0100
0010
1000
,
1010
0000
0100
1001
0000
0001
0100
0001
,
0100
0001
0001
1000
0010
0010
0100
0001
,
1000
0000
0100
0000
1000
0000
0001
0000
0010
0000
0001
0000
1000
0001
1000
0001
,
1000
0000
0100
0000
0010
0000
0001
0000
0010
0000
0100
0000
1000
0100
0010
0002
,
2000
0000
0000
3003
,
0100
0001
0001
1000
0010
0010
0100
0001
,
1000
0000
0100
0000
1000
0000
0001
0000
0010
0000
0001
0000
1000
0001
1000
0001
,
0100
0001
0001
1000
0010
0010
0100
0001
,
0101
0000
0010
1001
0000
1000
0010
1000
,
0010
1000
1000
0001
0100
0100
0010
1000
,
0001
0000
0010
0000
0001
0000
1000
0000
0100
0000
1000
0000
0001
1000
0001
1000
,
0001
0000
0010
0000
0100
0000
1000
0000
0100
0000
0010
0000
0001
0010
0100
2000
,
0002
0000
0000
3003
,
0011
0010
0100
1100
0100
0010
0001
1000
,
1001
0001
0100
0101
0100
0010
1000
0001
,
1001
1000
0100
1100
0100
0010
0001
1000
,
1001
0001
0100
0110
0010
1000
1010
0000
,
1100
0100
0010
0011
0010
0100
1000
0001
,
1001
1000
0010
1010
0010
0100
0001
1000
,
1001
0010
0100
1000
0001
0100
0010
1000
,
0200
0000
0000
0300
,
0010
0000
0001
0000
1000
0000
0001
0000
1000
0000
0010
0000
1000
0001
1000
0001
,
1000
0000
0010
0000
1000
0000
0001
0000
0010
0000
0001
0000
1000
0001
1000
0001
,
1000
0000
0100
0000
1000
0000
0001
0000
0100
0000
0001
0000
1000
0001
1000
0001
,
0010
0010
0010
0100
0100
0100
0010
0000
,
0001
0000
0010
0000
0001
0000
1000
0000
0010
0000
1000
0000
0001
0010
0001
0010
,
0001
0010
0100
1100
0100
1000
0010
0100
,
0101
0010
1000
0100
0001
0100
1000
0000
,
1001
0000
0000
0000
0000
0000
1000
0100
0010
0000
0000
0000
0000
0000
0000
0000
,
2022
0000
3033
0000
,
0000
0000
0000
0000
,
0101
0000
0000
0111
0000
0000
0101
0000
0000
0111
0000
0000
0101
0000
0000
0000
,
1100
0000
0000
1110
0000
0000
1100
0000
0000
1110
0000
0000
1100
0000
0000
0000
,
1000
0100
1000
0010
1000
0000
1000
0000
,
0001
0100
0001
0010
0001
0000
0001
0000
,
1000
0100
1000
0010
1000
0000
1000
0000
,
0001
0100
0001
0010
0001
0000
0001
0000
,
1000
0010
1000
0100
1000
0000
1000
0000
,
0001
0010
0001
0100
0001
0000
0001
0000
,
0101
0000
0000
0111
0000
0000
0101
0000
0000
0111
0000
0000
0101
0000
0000
0000
,
1100
0000
0000
1110
0000
0000
1100
0000
0000
1110
0000
0000
1100
0000
0000
0000
,
0100
0001
0100
1000
0100
0000
0100
0000
,
0010
0001
0010
1000
0010
0000
0010
0000
,
0100
0001
0100
1000
0100
0000
0100
0000
,
0010
0001
0010
1000
0010
0000
0010
0000
,
0100
1000
0100
0001
0100
0000
0100
0000
,
0010
1000
0010
0001
0010
0000
0010
0000
,
0001
0010
0100
1000
0100
0010
0001
0100
0010
1000
0100
0010
,
0001
0000
1011
0000
,
1002
0000
0000
0000
,
1000
1000
1000
1000
1000
1000
1003
0000
,
0001
0010
0001
0010
0001
0010
0001
0010
0001
0010
0001
0010
0001
0010
0001
0010
,
0001
0100
0010
1000
0100
0010
0001
0010
,
0100
1000
0100
1000
0100
1000
0100
1000
0100
1000
0100
1000
0100
1000
0100
1000
,
0100
1000
0001
0010
0001
1000
0010
0100
,
0001
0000
0100
0000
0001
1000
0001
0000
1000
0000
0100
0000
1000
0001
1000
0000
,
0001
0000
0010
0000
0001
1000
0001
0000
1000
0000
0010
0000
1000
0001
1000
0000
,
0001
0000
0010
0000
0100
1000
0100
0000
1000
0000
0010
0000
0100
0001
0100
0000
,
0001
0010
0100
1000
0100
1101
1101
1101
;
