#TITLE:Don't Want This Night to End;
#SUBTITLE:;
#ARTIST:United in Dance;
#TITLETRANSLIT:;
#SUBTITLETRANSLIT:;
#ARTISTTRANSLIT:;
#CRChallenge:;
#BANNER:end-banner.avi;
#BACKGROUND:end-bg.png;
#LYRICSPATH:;
#CDTITLE:!cdtitle.png;
#MUSIC:end.ogg;
#OFFSET:0.000;
#SAMPLESTART:31.047;
#SAMPLELENGTH:12.000;
#SELECTABLE:YES;
#BPMS:0.000=177.340,56.000=88.670,60.000=177.340;
#STOPS:;
#BGCHANGES:;
#NOTES:
     dance-single:
     Renard:
     Hard:
     9:
     0.697,0.740,0.434,0.045,0.330:
0000
0000
0000
0000
,
0000
0000
0000
0000
,
0000
0000
0000
0000
,
0000
0000
0000
0000
,
0000
0000
0000
0000
,
0000
0000
0000
0000
,
0000
0000
0000
0000
,
0000
0000
0000
0000
0000
0000
0000
0000
0000
0000
0000
0000
0001
0010
0100
1000
,
0001
0000
0001
0010
0100
0000
0100
1000
,
0010
0000
0010
0100
0001
0000
0001
0010
,
0100
0000
0100
1000
0010
0000
0010
0100
,
0010
0000
0010
0100
0010
1000
0100
0010
,
0001
0000
0001
1000
0100
0000
0100
1000
,
0001
0000
0001
0100
0001
0000
0001
1000
,
0200
0000
0000
0000
,
1300
0000
0000
0011
0000
0100
1000
0000
0001
0000
0100
0000
0010
0000
1000
0000
,
0001
0000
0000
0101
0000
1000
0010
0000
0100
0000
0001
0000
0010
0000
0100
0000
,
1000
0000
0000
0011
0000
0100
1000
0000
0001
0000
0100
0000
0010
0000
1000
0000
,
0001
0000
0100
0000
0010
1000
0010
0000
1000
0000
0100
0000
0100
0000
0100
0000
,
1000
0000
0000
0011
0000
0100
1000
0000
0001
0000
0100
0000
0010
0000
1000
0000
,
0001
0000
0000
0101
0000
1000
0010
0000
0100
0000
0001
0000
0010
0000
0100
0000
,
1000
0000
0000
0011
0000
0100
1000
0000
0001
0000
0100
0000
0010
0000
1000
0000
,
0001
0100
0010
1000
0010
0000
0010
0000
,
0101
0000
0000
0101
0000
0010
1000
0000
0100
0000
0010
0000
0001
0000
1000
0000
,
1100
0000
0000
1100
0000
0010
0001
0000
0010
0000
0100
0000
1000
0000
0001
0000
,
1001
0000
0000
1001
0000
0010
1000
0000
0010
0000
0100
0000
0001
0000
1000
0000
,
0001
0000
0100
0000
0010
1000
0010
0000
0100
0000
0001
0000
0100
0000
0001
0000
,
1010
0000
0000
1010
0000
0100
0001
0000
0010
0000
0100
0000
1000
0000
0001
0000
,
0011
0000
0000
0011
0000
0100
1000
0000
0100
0000
0010
0000
0001
0000
1000
0000
,
1001
0000
0000
1001
0000
0100
0001
0000
0100
0000
0010
0000
1000
0000
0001
0000
,
1000
0000
0010
0000
0100
0001
0100
0000
0010
0000
1000
0000
1000
0000
1000
0000
,
0001
0000
0000
1000
0000
0010
0100
0000
0000
0000
0001
0000
0000
0000
1000
0000
,
0100
0000
0000
0010
0000
0001
0010
0000
0000
0000
0100
0000
0000
0000
1000
0000
,
0001
0000
0000
0010
0000
0001
1000
0000
0000
0000
0010
0000
0000
0000
0100
0000
,
0001
0100
0010
1000
0001
0010
0100
1000
,
0001
0000
0000
1000
0000
0010
1000
0000
0000
0000
0001
0000
1000
0000
0100
0000
,
0010
0000
0000
0001
0000
0010
0100
0000
1000
0000
0001
0000
0010
0000
0000
0000
,
0001
0000
0000
1000
0000
0010
1000
0000
0001
0000
0100
0000
0010
0000
1000
0000
,
0100
0100
0010
0010
0001
0000
0001
0000
,
1100
1010
1100
1010
,
0101
0011
0101
0011
,
1100
1010
1100
1010
,
1100
0011
0101
1010
,
0101
0011
0101
0011
,
1100
1010
1100
1010
,
1100
0011
0101
1010
,
2002
0000
0000
0000
0000
0000
3003
0000
0001
0100
0001
0000
1000
0010
1000
0000
,
0001
0100
0010
0100
1000
0100
0010
0100
,
0001
0010
0100
0010
1000
0010
0100
0000
,
0000
1000
0100
0010
0100
0001
0100
0010
,
0100
1000
0010
0100
0010
0001
0010
0000
,
0000
0100
0010
0100
0001
0100
1000
0100
,
0010
1000
0100
0010
0001
0010
0100
0001
,
0100
1000
0010
0100
0001
0100
0000
0010
,
1000
0100
0010
0001
1000
0000
1001
0000
,
0001
0000
0000
1000
0000
1000
0001
0000
0010
0000
0100
0000
1000
0000
0001
0000
,
0100
0000
0000
0010
0000
0010
1000
0000
0100
0000
0010
0000
0001
0000
0010
0000
,
0100
0000
0000
1000
0000
1000
0001
0000
0010
0000
0100
0000
1000
0000
0001
0000
,
0100
0001
0100
0000
0001
0000
1000
0000
0010
1000
0010
0000
1000
0000
0100
0000
,
0010
0000
0000
0001
0000
0001
0010
0000
0100
0000
1000
0000
0001
0000
0100
0000
,
0010
0000
0000
1000
0000
1000
0010
0000
0100
0000
0001
0000
0010
0000
0100
0000
,
1000
0000
0000
0001
0000
0001
0010
0000
0100
0000
1000
0000
0001
0000
0100
0000
,
0010
1000
0010
0000
1000
0000
0001
0000
0100
0001
0100
0000
0001
0000
0010
0000
,
0100
0000
0000
1000
0000
1000
0001
0000
0010
0000
0100
0000
1000
0000
0001
0000
,
0100
0000
0000
0010
0000
0010
1000
0000
0100
0000
0010
0000
0001
0000
0010
0000
,
0100
0000
0000
1000
0000
1000
0001
0000
0010
0000
0100
0000
1000
0000
0001
0000
,
0100
0001
0100
0000
0010
0000
1000
0000
0001
1000
0001
0000
1000
0000
0100
0000
,
0010
0000
0000
0001
0000
0001
0010
0000
0100
0000
1000
0000
0001
0000
0100
0000
,
0010
0000
0000
1000
0000
1000
0010
0000
0100
0000
0001
0000
0010
0000
0100
0000
,
1000
0000
0000
0001
0000
0001
0010
0000
0100
0000
1000
0000
0001
0000
0100
0000
,
0010
1000
0100
0010
0001
1000
0020
0000
,
0130
0000
0100
0001
0010
0000
0010
0100
,
1000
0000
1000
0010
0100
0000
0100
0001
,
0010
0000
0010
0100
1000
0000
1000
0010
,
0100
0000
0100
0001
0010
0100
1000
0000
,
0001
0000
0001
0010
0100
0000
0100
1000
,
0010
0000
0010
0100
0001
0000
0001
0010
,
0200
0000
0000
0000
,
0300
0000
0000
0000
;
#NOTES:
     dance-single:
     Renard:
     Medium:
     8:
     0.523,0.564,0.009,0.027,0.081:
0000
0000
0000
0000
,
0000
0000
0000
0000
,
0000
0000
0000
0000
,
0000
0000
0000
0000
,
0000
0000
0000
0000
,
0000
0000
0000
0000
,
0000
0000
0000
0000
,
0000
0000
0000
0000
,
0001
0000
0001
1000
0100
0000
0100
1000
,
0001
0000
0001
1000
0100
1000
0001
0000
,
0001
0000
0001
1000
0001
0000
0001
0100
,
0001
0000
0001
1000
0001
0100
0001
0000
,
1000
0000
1000
0001
0100
0000
0001
1000
,
0100
0000
1000
0001
0100
0001
1000
0000
,
0020
0000
0000
0000
,
0130
0000
0000
0001
0000
0000
0001
0000
0100
0000
0010
0000
1000
0000
0000
0000
,
0010
0000
0000
1000
0000
0000
1000
0000
0010
0000
1000
0000
0100
0000
0000
0000
,
1000
0000
0000
0001
0000
0000
0010
0000
0001
0000
0100
0000
0010
0000
0000
0000
,
1000
0100
1000
0010
1000
0001
1000
0000
,
0001
0000
0000
0010
0000
0000
0100
0000
1000
0000
0100
0000
0010
0000
0000
0000
,
0001
0000
0000
0100
0000
0000
0010
0000
1000
0000
0010
0000
0100
0000
0000
0000
,
0001
0000
0000
1000
0000
0000
0001
0000
0100
0000
0001
0000
0010
0000
0000
0000
,
0001
1000
0001
1000
0002
0000
1003
0000
,
0001
0000
0000
1000
0000
0000
0100
0000
0010
0000
0000
0000
0001
0000
0000
0000
,
0010
0000
0000
0100
0000
0000
1000
0000
0010
0000
0000
0000
0100
0000
0000
0000
,
0001
0000
0000
0010
0000
0000
0001
0000
1000
0000
0000
0000
0100
0000
0000
0000
,
1000
0001
1000
0010
0100
0001
0010
0100
,
1000
0000
0000
0001
0000
0000
0010
0000
0001
0000
0010
0000
0100
0000
0000
0000
,
1000
0000
0000
0100
0000
0000
1000
0000
0010
0000
0100
0000
0001
0000
0000
0000
,
0010
0000
0000
0001
0000
0000
1000
0000
0100
0000
0010
0000
0001
0000
0000
0000
,
1000
0100
0010
0001
1000
0010
0100
0000
,
0001
0000
0000
0001
0000
0000
0001
0000
0100
0000
0010
0000
1000
0000
0000
0000
,
0100
0000
0000
0100
0000
0000
0100
0000
1000
0000
0010
0000
0100
0000
0000
0000
,
0010
0000
0000
0010
0000
0000
0010
0000
1000
0000
0100
0000
0010
0000
0000
0000
,
0001
0000
1000
0000
0001
0100
0010
0000
,
1000
0000
0000
1000
0000
0000
1000
0000
0100
0000
0010
0000
0001
0000
1000
0000
,
0001
0000
0000
0001
0000
0000
0001
0000
0010
0000
0100
0000
1000
0000
0001
0000
,
0100
0000
0000
0100
0000
0000
0100
0000
0010
0000
1000
0000
0001
0000
0100
0000
,
0010
0000
1000
0000
0001
0100
0001
0000
,
1000
0000
1000
0100
1000
0000
1000
0010
,
1000
0000
1000
0001
1000
0010
1000
0000
,
1000
0000
1000
0100
1000
0000
1000
0010
,
1000
0001
1000
0000
0001
0000
0000
0000
,
0001
0000
0001
0010
0001
0000
0001
0100
,
0001
0000
0001
1000
0001
0100
0001
0000
,
0001
0000
0001
0010
0001
0000
0001
0100
,
0001
1000
0001
0000
0001
0001
1000
1000
,
0001
0100
0001
0100
0010
1000
0010
1000
,
0100
0010
0001
0010
0100
1000
0001
0000
,
0000
1000
0100
1000
0001
0010
0001
1000
,
0010
0100
0001
1000
0001
0010
0001
0000
,
0000
1000
0100
1000
0001
0010
0001
1000
,
0010
1000
0001
0100
0001
1000
0100
0010
,
0001
0010
0100
1000
0001
1000
0000
0000
,
0001
0100
0001
0100
0010
0100
0010
0000
,
1000
0000
1000
0000
0010
0100
0001
0010
,
0100
0000
0100
0000
1000
0100
0010
0001
,
1000
0000
1000
0000
0001
0010
0100
1000
,
0001
0100
0001
0100
0010
1000
0010
0000
,
1000
0000
1000
0000
0001
0010
0001
0000
,
1000
0000
1000
0000
0100
1000
0100
0000
,
1000
0001
1000
0000
0001
0100
0001
0000
,
0100
0010
1000
0100
0010
0001
1000
0000
,
0001
1000
0100
1000
0001
1000
0010
0000
,
1000
0001
0100
0001
0010
0001
1000
0000
,
0001
0100
0010
0000
1000
0100
0010
0000
,
0100
1000
0001
0010
0100
1000
0001
0000
,
1000
0000
0100
0000
0010
0001
0010
0100
,
1000
0000
0001
0000
0010
0001
1000
0010
,
0100
0000
0001
0000
1000
0100
0010
0000
,
0001
0010
0100
1000
0001
0010
0100
0000
,
1001
0000
0001
0000
,
0100
0000
0100
0000
,
0010
0000
0010
0000
,
0010
0000
0000
0000
1000
0010
1000
0000
,
0010
0000
0010
0000
,
0100
0000
0100
0000
,
0002
0000
0000
0000
,
0003
0000
0000
0000
;
#NOTES:
     dance-double:
     freestyle:
     Beginner:
     1:
     0.234,0.458,0.244,0.081,0.000:
00000000
00000000
00000000
00000000
,
00000000
00000000
00000000
00000000
,
00000000
00000000
00000000
00000000
,
00000000
00000000
00000000
00000000
,
00000000
00000000
00000000
00000000
,
00000000
00000000
00000000
00000000
,
00000000
00000000
00000000
00000000
,
00000000
00000000
00000000
00000000
,
00100000
00000000
00000010
00000000
,
00100000
00000000
00000010
00000000
,
01000000
00000000
00000100
00000000
,
01000000
00000000
00000100
00000000
,
00100000
00000000
00000100
00000000
,
01000000
00000000
00000010
00000000
,
00011000
00000000
00000000
00000000
,
10100000
00000000
00001000
00000000
,
00000011
00000000
00010000
00000000
,
10100000
00000000
00001000
00000000
,
00000011
00000000
00010000
00000000
,
10100000
00000000
01010000
00000000
,
00000011
00000000
00001100
00000000
,
10100000
00000000
01010000
00000000
,
00002002
00000000
00000000
00003003
,
00000001
00000000
00001000
00000000
,
00010000
00000000
10000000
00000000
,
10000000
00000000
00010000
00000000
,
00001000
00000000
00000001
00000000
,
00000010
00000000
00000100
00000000
,
00100000
00000000
01000000
00000000
,
01000000
00000000
00100000
00000000
,
00000100
00000000
00000010
00000000
,
01000000
00000000
00000010
00000000
,
00100000
00000000
00000100
00000000
,
01000000
00000000
00000010
00000000
,
10000000
00000000
00000001
00000000
,
00010000
00000000
00000100
00000000
,
00100000
00000000
00001000
00000000
,
01000000
00000000
00000010
00000000
,
00022000
00000000
00000000
00033000
,
10000000
00000000
01000000
00000000
,
00010000
00000000
00001000
00000000
,
00000010
00000000
00000001
00000000
,
00000100
00000000
00001000
00000000
,
00010000
00000000
00100000
00000000
,
10000000
00000000
01000000
00000000
,
00010000
00000000
00001000
00000000
,
00002002
00000000
00000000
00003003
,
00000101
00000010
00001100
00000010
,
00011000
00000010
00101000
00000000
,
10100000
01000000
00110000
01000000
,
00011000
01000000
00010100
00000000
,
00001100
00010000
00001010
00000000
,
00110000
00001000
01010000
00000000
,
00001000
00000000
00010000
00000000
,
00100100
00000000
00000000
00000000
,
10000000
00010000
00000000
00010000
,
00001000
00000001
00000000
00000001
,
00001000
00010000
00000000
00010000
,
10000000
00000000
00010000
00000000
,
01000000
00100000
00000000
00000000
,
00000100
00000010
00000000
00000000
,
00100000
01000000
00000000
00000000
,
00000010
00000100
00000000
00000000
,
10000000
00000000
00010000
00000000
,
00100000
00000000
01000000
00000000
,
00001000
00000000
00000001
00000000
,
00000100
00000000
00000010
00000000
,
00010000
00000000
00001000
00000000
,
00100000
00000000
00000100
00000000
,
01000000
00000000
00002000
00000000
,
00020000
00000000
00000000
00003000
,
00031000
00000000
00100000
00000000
,
01000000
00000000
10000000
00000000
,
00100000
00000000
00100000
00000000
,
00100000
00000000
00010000
00001000
,
00000100
00000000
00000100
00000000
,
00000010
00000000
00000010
00000000
,
00002000
00000000
00000000
00000000
,
00003000
00000000
00000000
00000000
;
#NOTES:
     dance-single:
     pyroko:
     Easy:
     5:
     0.426,0.458,0.000,0.289,0.000:
0000
0000
0000
0000
,
0000
0000
0000
0000
,
0000
0000
0000
0000
,
0000
0000
0000
0000
,
0020
0000
0230
0000
,
2300
0000
3020
0000
,
0230
0000
0302
0000
,
0023
0000
0030
0000
0001
0010
0001
0000
,
1000
1000
0001
0001
,
0010
0010
0100
0100
,
1000
1000
0010
0010
,
0100
0000
0100
0000
0001
0100
0001
0100
,
0001
0001
0010
0010
,
0100
0100
1000
1000
,
0020
0000
0000
0000
0000
0000
0000
0030
,
1000
0000
0100
0000
0010
0100
0010
0000
,
0100
0000
1000
0000
0001
0100
0001
0000
,
0010
0000
0001
0000
0100
0010
0100
0000
,
0010
0000
1000
0000
0010
1000
0010
0000
,
1000
0000
0100
0000
0010
0100
0010
0000
,
0001
0000
0010
0000
0001
0100
0001
0000
,
0010
0000
0100
0000
1000
0100
1000
0000
,
0100
0000
0010
0000
0001
1000
0001
0000
,
0100
0000
0010
0000
1000
0010
1000
0010
,
0100
0010
0100
0001
,
0010
0000
0001
0000
0010
0001
0010
0001
,
0010
0001
1000
0010
,
0100
0000
0010
0000
0100
0010
0100
0010
,
0100
0001
1000
0001
,
0010
0000
0100
0000
1000
0100
1000
0100
,
1000
0100
0010
0001
,
1000
1000
0001
0001
,
0100
0100
0010
0010
,
1000
0001
1000
1000
,
0100
0100
0010
0010
,
0001
0001
1000
1000
,
0010
0010
0100
0100
,
0002
0023
0230
2300
,
3010
0000
0010
0000
0100
0001
0100
0000
,
0001
0001
0010
0010
,
0100
0100
1000
1000
,
0010
1000
0010
1000
,
0010
0100
0001
0100
,
0001
0010
0001
0010
,
0100
1000
0100
1000
,
0010
0100
0001
0010
,
0001
0000
0010
0000
0100
1000
0100
0000
,
1000
0010
0100
0010
,
1000
0000
0100
0000
0010
0100
0010
0000
,
0001
1000
0001
0100
,
0010
0000
1000
0000
0010
1000
0010
0000
,
1000
0010
0100
0001
,
0010
0001
0010
0001
,
1000
0100
1000
0100
1000
0100
0000
0000
,
0020
0000
0032
0000
1003
0010
0100
0000
,
0010
1000
0100
0010
,
0100
1000
0100
0010
,
0100
0010
0001
1000
,
0001
0100
0001
0000
0010
0000
0001
0000
,
0010
0100
1000
0010
,
0100
0010
1000
0010
,
0100
0001
0010
0100
,
0010
0000
0100
0000
1000
0100
1000
0000
,
0010
0100
0010
1000
,
0001
0010
0100
1000
,
0010
0100
0001
0010
,
0100
0000
1000
0000
0100
1000
0100
0000
,
0020
0000
0032
0000
,
2003
0000
3020
0000
,
0130
0010
1000
0100
,
0010
0000
0001
0000
1000
0001
1000
0000
,
0020
0000
0230
0000
,
0302
0000
2003
0000
,
3200
0000
0320
0000
,
0032
0000
0203
0320
,
2030
0000
3002
0000
,
0203
0000
0320
0000
,
2000
0000
0000
0000
,
3030
0000
0000
0000
;
#NOTES:
     dance-single:
     pyroko:
     Beginner:
     3:
     0.305,0.388,0.036,0.407,0.000:
0000
0000
0000
0000
,
0000
0000
0000
0000
,
0000
0000
0000
0000
,
0000
0000
0000
0000
,
0000
0000
0000
0000
,
0000
0000
0000
0000
,
0000
0000
0000
0000
,
0000
0000
0000
0000
,
2000
0000
3200
0000
,
0320
0000
0032
0000
,
0203
0000
0320
0000
,
2030
0000
3200
2300
,
3200
0000
0320
0000
,
0032
0000
0203
0000
,
0320
0000
0000
0000
0000
0000
0000
0030
,
1000
0000
0100
0000
,
0010
0000
0001
1000
,
0001
0000
0100
0000
,
0010
0000
1000
0100
,
0010
0000
0001
0000
,
1000
0000
0010
0000
,
0100
0000
0010
0000
,
2002
0000
0000
3003
,
1000
0010
0100
0000
,
0001
0010
0001
0000
,
1000
0100
1000
0000
,
0200
0000
0320
0000
,
0031
1000
0001
0000
,
0100
0001
0100
0000
,
0010
1000
0010
0000
,
1000
0000
0100
0000
,
0010
0001
0010
0001
,
1000
0001
0100
0001
,
0010
0001
0010
0000
,
0100
0000
1000
0000
,
0020
0000
0000
0000
,
0230
0000
0000
0000
,
0302
0000
0000
0000
,
2003
0000
0000
0000
,
3100
0100
0100
0100
,
0010
0010
0010
0010
,
0001
0001
0001
0001
,
1000
1000
1000
1000
,
0010
0010
0100
0100
,
0001
0001
1000
1000
,
0100
0100
0010
0010
,
2002
0000
0000
3003
,
0010
0010
0100
0010
,
1000
0100
0010
0002
,
0000
0003
1000
0000
0010
0000
0100
0000
,
0010
1000
0010
2000
,
0000
3000
0001
0000
0001
0000
0010
0000
,
0010
0100
0100
1000
,
0002
0000
0000
0003
,
0202
0000
0000
0000
0000
0000
0000
0303
,
1000
0010
0100
0000
,
0010
0100
0010
0000
,
1000
0001
1000
0000
,
0100
0010
0001
1000
,
0001
0000
0010
0000
,
0100
0000
1000
0000
,
0100
0000
0010
0000
,
0001
1000
0001
1000
,
0001
0001
0100
0100
,
0010
0010
1000
0100
,
0010
0001
1000
0001
,
0010
0000
0100
0000
,
1000
1000
0100
0100
,
0010
0010
0001
0001
,
1000
0010
0100
0010
,
2002
0000
0000
3003
,
0200
0000
0320
0000
,
0032
0000
2003
0000
,
3020
0000
0230
0000
,
0320
0000
2030
3002
,
2003
0000
3020
0000
,
0230
0000
0320
0000
,
2030
0000
0000
0000
,
3000
0000
0000
0000
;
