#TITLE:Do You Like Bass (Tha Playah Remix);
#SUBTITLE:;
#ARTIST:Evil Activities;
#TITLETRANSLIT:;
#SUBTITLETRANSLIT:;
#ARTISTTRANSLIT:;
#CRChallenge:;
#BANNER:bass.png;
#BACKGROUND:bass-bg.png;
#LYRICSPATH:;
#CDTITLE:;
#MUSIC:bass.ogg;
#OFFSET:0.000;
#SAMPLESTART:10.554;
#SAMPLELENGTH:12.000;
#SELECTABLE:YES;
#DISPLAYBPM:177.000;
#BPMS:0.000=176.900,64.000=88.450,73.000=176.900,169.000=88.450,175.000=353.800,207.000=176.900,223.000=88.450,224.000=176.900;
#STOPS:;
#BGCHANGES:;
#NOTES:
     dance-single:
     Renard:
     Hard:
     10:
     0.578,0.857,0.444,0.397,0.756:
0000
0000
0000
0000
,
0000
0000
0000
0000
,
0000
0000
0000
0000
,
0000
0000
0000
0000
,
0000
0000
0000
0000
,
0000
0000
0000
0000
,
0000
0000
0000
0000
,
0000
0000
0000
0000
,
1000
1100
0001
0101
,
1000
0000
0000
0000
1010
0000
0000
0000
0001
0000
0000
0000
0011
0000
0000
0100
,
1000
1100
0001
0101
,
2000
0000
3010
0001
0020
0000
0230
0000
,
0301
0101
1000
1100
,
0001
0000
0000
0000
0011
0000
0000
0000
1000
0000
0000
0000
1010
0000
0000
0010
,
0200
0000
0302
0000
0203
0000
1300
0100
,
0010
0000
0000
0010
0000
0000
1000
0000
0000
0100
0010
0001
,
1002
0000
MM00
M0M0
M0M0
MM00
M0M0
M0M0
MM00
0000
0000
0M00
M0M0
M0M0
MMM0
M0M0
,
M0M0
0000
0000
MMM0
M000
M000
0M00
00M0
00M0
MMM0
0000
0000
MMM0
M000
M000
0M00
,
00M0
00M0
MMM3
0000
1000
0000
0000
0200
0010
0000
0000
0000
0301
0000
0000
0100
,
2000
0000
0000
0000
3010
0000
0000
0200
0001
0000
0000
0000
0310
0000
0000
0100
,
0002
0000
0000
0000
0013
0000
0000
2000
0010
0000
0000
0000
3010
0000
0000
0001
,
0200
0000
0000
0000
0310
0000
0000
2000
0010
0000
0000
0000
3010
0000
0000
0100
,
0002
0000
0000
0000
0013
0000
0000
0001
0010
0000
0000
0000
1100
0000
0000
1000
,
0010
0000
0000
0000
0100
0000
0000
0001
0010
0000
0000
0000
1100
0000
1100
0000
,
0011
0000
0000
0011
0000
0000
1000
0000
0000
0000
0000
0000
1000
0000
0000
0000
0001
0000
0100
0000
0000
0000
0000
0000
,
0101
0000
0010
2000
0000
0000
0200
0000
0000
0010
0000
0000
,
3301
1000
0101
0001
,
1100
0000
0000
0010
0000
0000
0001
1000
0010
0100
0000
0000
,
0110
0000
0000
0001
0000
0000
0010
0100
1000
0001
0000
1000
,
0001
0000
0000
0000
0000
0000
0000
0000
1000
0000
0000
0000
0002
0000
0000
0000
0000
0000
0000
0000
0000
0000
0000
0000
0203
0000
0000
0000
0000
0000
0000
0000
0000
0000
0000
0000
1300
0000
0000
0000
0000
0000
0000
0000
0000
0100
0000
0000
,
0010
0000
0000
1010
0000
0000
1010
0000
1000
0010
0000
0000
,
0010
1000
0100
0010
0000
0010
0001
0000
0001
0010
0000
0010
,
0001
0000
0000
2000
0000
0000
3100
0010
0001
0001
0000
0000
,
0010
0200
2000
0001
,
3310
0000
0000
0000
1100
0000
0000
1000
0001
0000
0000
0000
0100
0000
0000
0010
,
1000
0000
0000
0001
0010
0000
0000
0001
1000
0000
0000
0000
1001
0000
0000
0100
,
0010
0000
0000
1000
0001
0000
0000
0100
0010
0000
0000
0000
1100
0000
0000
0100
,
0010
0000
0000
0001
0010
0000
0000
0100
1000
0000
0000
0000
0011
0000
0000
0010
,
0001
0000
0000
1000
0010
0000
0000
0100
0010
0000
0000
0000
1010
0000
0000
0100
,
0001
0000
0000
0010
0100
0000
0000
1000
0001
0000
0000
0000
0101
0000
0101
0000
,
1010
0000
1010
0000
1100
0000
0000
1000
0010
0000
0000
0000
0101
0000
0000
0001
,
0010
0000
0000
0100
2000
0000
0000
0000
0002
0000
0000
0000
0100
0000
0000
0000
,
3013
0000
0000
0000
11M1
0000
0000
0000
MMM0
M000
M000
MMM0
M000
M000
MMM0
0000
,
0000
0000
0MMM
0M0M
0M0M
0MMM
0M0M
0M0M
0M0M
0000
0000
0000
2M02
0000
0000
0000
,
0000
00M0
0000
0M00
,
0000
00M0
0000
0M00
,
00M0
0M00
00M0
0M00
,
00M0
0000
0M00
00M0
0M00
00M0
0M00
00M0
,
0M00
00M0
0M00
00M0
0M00
00M0
0M00
00M0
0M00
00M0
0M00
00M0
,
0M00
0000
0000
0000
0000
0000
0000
0000
0000
0000
0000
0000
00M0
0000
0000
0000
0000
0000
0000
0000
0000
0000
0000
0000
0M00
0000
0000
0000
0000
0000
0000
0000
0000
0000
0000
0000
00M0
0000
0000
0000
0000
0000
0000
0000
0000
0000
0000
0000
0M00
0000
0000
0000
0000
0000
0000
0000
0000
0000
0000
0000
00M0
0000
0000
0000
0000
0000
0000
0000
0000
0000
0000
0000
0M00
0000
0000
0000
0000
0000
0000
0000
0000
0000
0000
0000
00M0
0000
0000
0000
0000
0000
0000
0000
0000
0000
0000
0000
0M00
0000
0000
0000
0000
0000
0000
0000
00M0
0000
0000
0000
0000
0000
0000
0000
0M00
0000
0000
0000
0000
0000
0000
0000
00M0
0000
0000
0000
0000
0000
0000
0000
0M00
0000
0000
0000
0000
0000
0000
0000
00M0
0000
0000
0000
0000
0000
0000
0000
0M00
0000
0000
0000
0000
0000
00M0
0000
0000
0000
0000
0000
0M00
0000
0000
0000
0000
0000
00M0
0000
0000
0000
0000
0000
0M00
0000
0000
0000
0000
0000
00M0
0000
0000
0000
0000
0000
0M00
0000
0000
0000
0000
0000
00M0
0000
0000
0000
0000
0000
,
0M00
0000
0000
0000
00M0
0000
0000
0000
0M00
0000
0000
0000
00M0
0000
0000
0000
0M00
0000
0000
0000
00M0
0000
0000
0000
0M00
0000
0000
0000
00M0
0000
0M00
0000
0000
00M0
0000
0000
0M00
0000
0000
00M0
0000
0000
0M00
0000
0000
00M0
0000
0000
0M00
0000
0000
00M0
0000
0000
0M00
0000
0000
00M0
0000
0000
0M00
0000
0000
00M0
0000
0000
0M00
0000
0000
00M0
0000
0000
0M00
0000
0000
0000
00M0
0000
0000
0000
0M00
0000
0000
0000
00M0
0000
0000
0000
0M00
0000
0000
0000
0000
0000
0000
0000
00M0
0000
0000
0000
0000
0000
0M00
0000
0000
0000
0000
0000
00M0
0000
0000
0000
0000
0000
0M00
0000
0000
0000
0000
0000
00M0
0000
0000
0000
0000
0000
0000
0000
0M00
0000
0000
0000
0000
0000
0000
0000
00M0
0000
0000
0000
0000
0000
0000
0000
0M00
0000
0000
0000
0000
0000
0000
0000
00M0
0000
0000
0000
0000
0000
0000
0000
0000
0000
0000
0000
0000
0000
0000
0000
0M00
0000
0000
0000
0000
0000
0000
0000
0000
0000
0000
0000
00M0
0000
0000
0000
0000
0000
0000
0000
0000
0000
0000
0000
,
0M00
0000
00M0
0000
0M00
0000
00M0
0000
0000
0M00
0000
0000
00M0
0000
0000
0000
0000
0000
3M03
0000
0000
0000
0000
0000
,
1000
0000
0000
0000
0000
0000
0000
0000
0100
0000
0000
0000
0010
0000
0000
0000
0000
0000
0000
0000
0001
0000
0000
0000
0010
0000
0000
0000
0000
0000
0000
0000
0000
0000
0000
0000
1100
0000
0000
0000
0000
0000
0000
0000
0000
1000
0000
0000
,
0100
0000
0000
0000
0011
0000
0000
0001
0010
0000
0000
0000
0101
0000
0000
0001
,
0100
0000
0000
0000
0000
0000
0000
0000
0000
0000
0000
0000
1010
0000
0000
0000
0000
0000
0000
0000
0000
0010
0000
0000
1000
0000
0000
0000
0000
0000
0000
0000
0000
0000
0000
0000
0010
0000
0000
0000
1000
0000
0000
0000
0010
0000
0000
0000
,
0100
0000
0001
0000
0100
0000
0002
0000
0000
2000
0000
0000
3013
0000
0000
0000
0000
0000
2102
0000
0000
0000
0000
0000
,
3M03
0000
0000
0000
MMMM
0000
0000
0000
1000
0000
0001
0100
0001
0000
1000
0100
,
1000
0000
0001
0100
0001
0000
1000
0010
1000
0000
0001
0010
0001
0000
1000
0100
,
1000
0000
0001
0100
0001
0000
1000
0100
0010
0000
0001
0010
0100
0000
1000
0100
,
0010
0000
0001
0010
0100
0000
1000
0010
0100
0000
0001
0100
0010
0000
1000
0010
,
0100
0000
0001
0100
0010
0000
1000
0010
0100
0000
0001
0100
0010
0000
1000
0100
,
0010
0000
0001
0010
0100
0000
1000
0010
0100
0000
0001
0010
0100
0000
0010
0001
,
1000
0000
0010
0100
0001
0000
1000
0010
0200
0000
0000
0000
0000
0000
0002
0000
,
0000
0000
2000
0003
0002
0000
3000
0020
,
0000
0000
1333
0000
1010
0000
0100
0001
,
0010
0100
1000
0000
0101
0000
0001
0000
,
0010
0000
0100
0000
1000
0000
0000
0010
0100
0000
0000
0000
0101
0000
0000
0000
,
0010
0100
1000
0100
0010
0000
0100
0001
,
0010
0100
0020
0000
0031
0000
0011
0000
,
1000
1010
0001
0101
,
1000
0000
0000
0000
1100
0000
0000
0100
2000
0000
0000
0000
3200
0000
0000
0000
,
0302
0000
0013
1000
0200
0000
2300
0000
,
0100
0100
0200
0000
3310
0000
0000
0000
;
#NOTES:
     dance-single:
     Renard:
     Medium:
     9:
     0.513,0.583,0.350,0.312,0.539:
0000
0000
0000
0000
,
0000
0000
0000
0000
,
0000
0000
0000
0000
,
0000
0000
0000
0000
,
0000
0000
0000
0000
,
0000
0000
0000
0000
,
0000
0000
0000
0000
,
0000
0000
0000
0000
,
0001
0011
1000
1010
,
0001
0000
0000
0000
0101
0000
0000
0000
1000
0000
0000
0000
1100
0000
0000
0010
,
0001
0011
1000
1010
,
0002
0000
0103
1000
0200
0000
0320
0000
,
1030
1010
0001
0011
,
1000
0000
0000
0000
1100
0000
0000
0000
0001
0000
0000
0000
0101
0000
0000
0100
,
0020
0000
2030
0000
3020
0000
0031
0010
,
0100
0000
0000
0100
0000
0000
0001
0000
0000
0001
0010
0100
,
2000
0000
0000
0000
,
0000
0000
0000
0000
,
0000
0000
3000
0000
0001
0000
0000
0010
0100
0000
0000
0000
1000
0000
0000
0010
,
0001
0000
0000
0000
0100
0000
0000
0010
1000
0000
0000
0000
0100
0000
0000
0010
,
1000
0000
0000
0000
0100
0000
0000
0001
0100
0000
0000
0000
0100
0000
0000
1000
,
0010
0000
0000
0000
0100
0000
0000
0001
0100
0000
0000
0000
0100
0000
0000
0010
,
1000
0000
0000
0000
0100
0000
0000
1000
0100
0000
0000
0000
0011
0000
0000
0001
,
0100
0000
0000
0000
0010
0000
0000
1000
0100
0000
0000
0000
0001
0000
0010
0000
,
0100
0000
0000
1000
0000
0000
0001
0000
0000
0000
0000
0000
0001
0000
0000
0000
1000
0000
0010
0000
0000
0000
0000
0000
,
1010
0000
0100
0002
0000
0000
0200
0000
0000
0010
0000
0000
,
0313
0001
1010
1000
,
0011
0000
0000
0100
0000
0000
1000
0001
0100
0010
0000
0000
,
0110
0000
0000
1000
0000
0000
0100
0010
0001
1000
0000
0001
,
1000
0000
0000
0000
0000
0000
0000
0000
0001
0000
0000
0000
2000
0000
0000
0000
0000
0000
0000
0000
0000
0000
0000
0000
3020
0000
0000
0000
0000
0000
0000
0000
0000
0000
0000
0000
0031
0000
0000
0000
0000
0000
0000
0000
0000
0010
0000
0000
,
0100
0000
0000
0101
0000
0000
0101
0000
0001
0100
0000
0000
,
0100
0001
0010
0100
0000
0100
1000
0000
1000
0100
0000
0100
,
1000
0000
0000
0002
0000
0000
0013
0000
0100
1000
0000
0000
,
0100
0010
0002
0200
,
0313
0000
0000
0000
0011
0000
0000
0001
1000
0000
0000
0000
0010
0000
0000
0100
,
0001
0000
0000
1000
0100
0000
0000
1000
0001
0000
0000
0000
1001
0000
0000
0010
,
0100
0000
0000
0001
1000
0000
0000
0010
0100
0000
0000
0000
0011
0000
0000
0010
,
0100
0000
0000
1000
0100
0000
0000
0010
0001
0000
0000
0000
1100
0000
0000
0100
,
1000
0000
0000
0001
0100
0000
0000
0010
0100
0000
0000
0000
0101
0000
0000
0010
,
1000
0000
0000
0100
0010
0000
0000
0001
1000
0000
0000
0000
1000
0000
0010
0000
,
0100
0000
0001
0000
0010
0000
0000
0001
0100
0000
0000
0000
1010
0000
0000
1000
,
0100
0000
0000
0010
0002
0000
0000
0000
2000
0000
0000
0000
0010
0000
0000
0000
,
3013
0220
0000
0000
,
0000
0000
0330
20M2
,
0000
0M00
0000
00M0
,
0000
0M00
0000
00M0
,
0M00
00M0
0M00
00M0
,
0M00
0000
00M0
0M00
00M0
0M00
00M0
0M00
,
00M0
0M00
00M0
0M00
00M0
0M00
00M0
0M00
00M0
0M00
00M0
0M00
,
00M0
0000
0000
0000
0000
0000
0000
0000
0000
0000
0000
0000
0M00
0000
0000
0000
0000
0000
0000
0000
0000
0000
0000
0000
00M0
0000
0000
0000
0000
0000
0000
0000
0000
0000
0000
0000
0M00
0000
0000
0000
0000
0000
0000
0000
0000
0000
0000
0000
00M0
0000
0000
0000
0000
0000
0000
0000
0000
0000
0000
0000
0M00
0000
0000
0000
0000
0000
0000
0000
0000
0000
0000
0000
00M0
0000
0000
0000
0000
0000
0000
0000
0000
0000
0000
0000
0M00
0000
0000
0000
0000
0000
0000
0000
0000
0000
0000
0000
00M0
0000
0000
0000
0000
0000
0000
0000
0M00
0000
0000
0000
0000
0000
0000
0000
00M0
0000
0000
0000
0000
0000
0000
0000
0M00
0000
0000
0000
0000
0000
0000
0000
00M0
0000
0000
0000
0000
0000
0000
0000
0M00
0000
0000
0000
0000
0000
0000
0000
00M0
0000
0000
0000
0000
0000
0M00
0000
0000
0000
0000
0000
00M0
0000
0000
0000
0000
0000
0M00
0000
0000
0000
0000
0000
00M0
0000
0000
0000
0000
0000
0M00
0000
0000
0000
0000
0000
00M0
0000
0000
0000
0000
0000
0M00
0000
0000
0000
0000
0000
,
00M0
0000
0000
0000
0M00
0000
0000
0000
00M0
0000
0000
0000
0M00
0000
0000
0000
00M0
0000
0000
0000
0M00
0000
0000
0000
00M0
0000
0000
0000
0M00
0000
00M0
0000
0000
0M00
0000
0000
00M0
0000
0000
0M00
0000
0000
00M0
0000
0000
0M00
0000
0000
00M0
0000
0000
0M00
0000
0000
00M0
0000
0000
0M00
0000
0000
00M0
0000
0000
0M00
0000
0000
00M0
0000
0000
0M00
0000
0000
00M0
0000
0000
0000
0M00
0000
0000
0000
00M0
0000
0000
0000
0M00
0000
0000
0000
00M0
0000
0000
0000
0000
0000
0000
0000
0M00
0000
0000
0000
0000
0000
00M0
0000
0000
0000
0000
0000
0M00
0000
0000
0000
0000
0000
00M0
0000
0000
0000
0000
0000
0M00
0000
0000
0000
0000
0000
0000
0000
00M0
0000
0000
0000
0000
0000
0000
0000
0M00
0000
0000
0000
0000
0000
0000
0000
00M0
0000
0000
0000
0000
0000
0000
0000
0M00
0000
0000
0000
0000
0000
0000
0000
0000
0000
0000
0000
0000
0000
0000
0000
00M0
0000
0000
0000
0000
0000
0000
0000
0000
0000
0000
0000
0M00
0000
0000
0000
0000
0000
0000
0000
0000
0000
0000
0000
,
00M0
0000
0M00
0000
00M0
0000
0M00
0000
0000
00M0
0000
0000
0M00
0000
0000
0000
0000
0000
30M3
0000
0000
0000
0000
0000
,
0001
0000
0000
0000
0000
0000
0000
0000
0010
0000
0000
0000
0100
0000
0000
0000
0000
0000
0000
0000
1000
0000
0000
0000
0100
0000
0000
0000
0000
0000
0000
0000
0000
0000
0000
0000
0011
0000
0000
0000
0000
0000
0000
0000
0000
0001
0000
0000
,
0010
0000
0000
0000
1100
0000
0000
1000
0100
0000
0000
0000
1010
0000
0000
1000
,
0010
0000
0000
0000
0000
0000
0000
0000
0000
0000
0000
0000
0101
0000
0000
0000
0000
0000
0000
0000
0000
0100
0000
0000
0001
0000
0000
0000
0000
0000
0000
0000
0000
0000
0000
0000
0100
0000
0000
0000
0000
0000
0000
0000
0100
0000
0000
0000
,
0010
0000
0000
0000
0010
0000
1000
0000
0000
0001
0000
0000
1000
0000
0000
0000
0000
0000
2002
0000
0000
0000
0000
0000
,
30M3
0000
MMMM
0000
1000
0100
0001
0100
,
1000
0010
0001
0010
1000
0100
0001
0100
,
1000
0010
0001
0010
1000
0100
0010
0001
,
0100
1000
0100
0001
0010
1000
0010
0001
,
0100
1000
0100
0001
0010
0100
1000
0100
,
0001
0100
1000
0100
0010
0001
0010
1000
,
0010
0001
0100
1000
0200
0000
0000
0002
,
0000
0003
001M
00M0
2000
0000
3000
M020
,
0000
0030
03M1
0000
1010
0000
0100
0001
,
0010
0100
1000
0000
0101
0000
0001
0000
,
0010
0000
0100
0000
1000
0000
0000
0010
0100
0000
0000
0000
0101
0000
0000
0000
,
0010
0100
1000
0100
0010
0000
0100
0001
,
0010
0100
0020
0000
0031
0000
0011
0000
,
1000
1010
0001
0101
,
1000
0000
0000
0000
1100
0000
0000
0100
2000
0000
0000
0000
3200
0000
0000
0000
,
0320
0000
0031
1000
0200
0000
1300
0000
,
0001
2000
0002
0000
3013
0000
0000
0000
;
#NOTES:
     dance-single:
     Renard:
     Easy:
     6:
     0.400,0.617,0.378,0.142,0.000:
0000
0000
0000
0000
,
0000
0000
0000
0000
,
0000
0000
0000
0000
,
0000
0000
0000
0000
,
0000
0000
0000
0000
,
0000
0000
0000
0000
,
0000
0000
0000
0000
,
0000
0000
0000
0000
,
1000
1000
0001
0001
,
1000
1100
0001
0101
,
1000
1000
0001
0001
,
1000
1000
0002
0023
,
0031
0001
1000
1000
,
0001
0011
1000
1010
,
0002
0203
0320
2030
,
3001
0100
0100
0010
,
2000
0000
0000
0000
,
0000
0000
0000
0000
,
3000
0001
1000
0001
,
0100
0000
0001
0010
0001
0000
1000
0000
,
0010
1000
0100
1000
,
0001
0000
0010
0000
0001
0000
0100
0010
,
0100
0010
1000
0000
0010
0000
0100
0001
,
0100
0000
0001
0000
0010
0000
0100
1000
,
0100
1000
0001
0100
,
0001
1000
1100
0010
,
0011
1000
0001
1000
,
0001
0101
1001
1100
,
1001
1001
0101
1001
,
1100
1001
0101
1001
,
1100
1000
0001
1000
,
0001
0001
0010
0011
,
0011
0010
0100
1000
,
0001
0100
0110
1001
,
0110
0000
0010
1000
0010
0000
0100
0001
,
0100
0000
0001
0010
0001
0000
0010
0001
,
0010
0000
0100
1000
0100
0000
1000
0001
,
1000
0000
0001
0100
0001
0000
1000
0000
,
1000
0000
0010
1000
0010
0000
0100
0001
,
0100
0000
0001
1000
0001
0000
1000
0100
,
1000
0000
0001
0010
0001
0000
1000
0010
,
1000
0101
0110
1100
,
0110
0101
0000
0000
,
0000
0000
0000
2002
,
0000
0000
0000
0000
,
0000
0000
0000
0000
,
0000
0000
0000
0000
,
0000
0000
0000
0000
,
0000
0000
0000
0000
,
0000
0000
0000
0000
,
0000
0000
0000
0000
,
0000
0000
0000
3003
,
0000
1000
1100
1000
,
0000
1001
0101
1001
,
0000
1000
0001
0010
,
0000
0001
1000
0101
,
1010
0000
0000
0000
1000
0000
0100
1000
,
0100
0000
1000
0100
1000
0000
0100
1000
,
0100
1000
0100
1000
0001
0000
0010
0001
,
0010
0000
0001
0010
0001
0000
0010
0001
,
0010
0001
0010
0001
0100
0000
0001
0100
,
0001
0000
0100
0001
0100
0000
0001
0100
,
0001
0100
0001
0000
2000
0000
0000
3200
,
0000
0000
0320
0000
0032
0000
0000
2003
,
0000
3020
0130
0100
,
0100
0001
0100
0100
,
0010
0100
0001
0001
,
1000
0100
1000
1100
,
0110
0011
1001
0001
,
0100
0010
0010
1000
,
0100
0010
0001
1000
,
0001
0100
0001
0000
1000
0000
0100
0000
,
1000
0001
0100
0000
1001
0000
0000
0000
;
#NOTES:
     dance-single:
     Renard:
     Beginner:
     3:
     0.277,0.514,0.189,0.057,0.000:
0000
0000
0000
0000
,
0000
0000
0000
0000
,
0000
0000
0000
0000
,
0000
0000
0000
0000
,
0000
0000
0000
0000
,
0000
0000
0000
0000
,
0000
0000
0000
0000
,
0000
0000
0000
0000
,
1000
0000
1000
0001
,
0100
0000
0001
0000
,
1000
0001
1000
0000
,
0001
0001
0001
0001
,
0010
0000
0001
1000
,
0010
0000
0100
0001
,
1000
0010
1000
0001
,
0100
0100
0010
1000
,
0002
0000
0000
0000
,
0000
0000
0000
0000
,
0000
0103
0100
0100
,
0001
1000
0100
0100
,
0100
1000
1000
0001
,
0001
1000
0001
1000
,
0000
0010
0010
0010
,
1000
0001
0001
0001
,
0100
0001
1000
0001
,
1000
0001
0010
0100
,
1000
0001
0000
0001
,
1000
0010
0000
1000
,
0000
0001
0001
0100
,
0100
0100
0010
1000
,
0000
0010
0000
1000
,
0001
0100
0000
0001
,
1000
0100
0100
0010
,
0010
0001
1000
0001
,
0100
1001
0000
0001
,
1000
0100
1000
0001
,
0000
1001
0000
0001
,
0010
0001
1000
0010
,
0010
1000
0000
0010
,
1000
0001
0000
0100
,
0001
1000
0000
0100
,
1000
0001
0000
0010
,
0001
2000
0000
0000
,
0000
0000
0000
3002
,
0000
0000
0000
0000
,
0000
0000
0000
0000
,
0000
0000
0000
0000
,
0000
0000
0000
0000
,
0000
0000
0000
0000
,
0000
0000
0000
0000
,
0000
0000
0000
0000
,
0000
0000
0000
0003
,
0000
0000
0000
0100
,
0000
0100
0010
1000
,
0000
1000
0010
0100
,
0000
0100
0001
2000
,
3100
0000
1100
1100
,
1000
1000
0100
0100
,
1000
0000
0011
0011
,
0001
0001
0010
0010
,
0001
0000
1001
1001
,
1001
1001
0110
0110
,
0110
0000
0110
0000
1001
0000
0000
0110
,
0000
0000
1001
0000
0110
0000
0000
1001
,
0000
0110
0010
1000
,
0010
1000
0001
0100
,
0001
1000
0100
0100
,
0010
0010
0001
0010
,
0001
0010
0100
0000
,
0100
1000
0010
0000
,
0100
0001
1000
0100
,
1000
0001
2000
0000
,
0002
0000
3013
0000
;
