#TITLE:Dis;
#SUBTITLE:;
#ARTIST:Sigma;
#TITLETRANSLIT:;
#SUBTITLETRANSLIT:;
#ARTISTTRANSLIT:;
#CRChallenge:;
#BANNER:dis.png;
#BACKGROUND:dis-bg.png;
#LYRICSPATH:;
#CDTITLE:!cdtitle.png;
#MUSIC:dis.ogg;
#OFFSET:0.000;
#SAMPLESTART:16.514;
#SAMPLELENGTH:12.000;
#SELECTABLE:YES;
#BPMS:0.000=260.024,64.000=130.012,68.000=260.024,196.000=130.012,204.000=260.024,220.000=130.012,228.000=260.024,244.000=32.503,244.003=65.006,246.000=130.012,247.000=260.024,259.000=65.006,261.000=290.132,319.000=330.090;
#STOPS:244.000=1.846
,259.000=0.923
,317.000=1.241
;
#BGCHANGES:;
#NOTES:
     dance-single:
     Renard:
     Challenge:
     14:
     1.000,1.000,0.458,0.090,0.244:
0000
0000
0000
0000
,
0000
0000
0000
0000
,
0000
0000
0000
0000
,
0000
0000
0000
0000
,
1100
0000
0010
0001
1000
0100
0010
0000
,
0011
0000
0100
1000
0001
0010
0100
0000
,
1100
0000
0010
0001
1000
0100
0010
0000
,
0001
0000
1000
0001
1000
0000
0100
0000
0010
0000
0001
0000
1000
0000
0000
0000
,
0101
0000
1010
0000
0001
0100
0010
1000
,
1100
0000
0011
0000
1000
0100
0010
0001
,
0101
0000
1010
0000
1000
0100
0010
0001
,
0011
1100
1001
0000
,
0001
0010
0100
0000
1000
0010
0100
0000
,
0001
0100
0010
0000
1000
0100
0010
0000
,
0001
0010
0100
1000
0100
0010
0001
1000
,
0001
0010
0001
0000
1000
0100
1000
0000
0001
0010
0001
0000
1000
0100
1000
0000
,
2002
0000
0000
0000
0000
0000
0000
3003
,
1000
0100
0010
0000
0001
0000
0010
0000
,
0001
0010
0100
0000
1000
0000
0100
0000
,
1000
0010
0100
0000
0001
0000
0100
0000
,
0001
0100
0010
0000
1000
0100
0010
0001
,
1000
0000
1000
0000
0001
0010
0100
1000
,
0001
0000
0001
0000
1000
0000
0001
0010
,
0100
1000
0001
0000
0100
0010
1000
0000
,
0001
0010
0100
1000
0001
0100
0010
1000
,
0001
0010
0100
0000
1000
0000
0100
0000
,
1000
0100
0010
0000
0001
0000
0010
0000
,
0001
0100
0010
0000
1000
0000
0010
0000
,
1000
0010
0100
0000
0001
0010
0100
1000
,
0001
0000
0001
0000
1000
0100
0010
0001
,
1000
0000
1000
0000
0001
0000
1000
0100
,
0010
0001
1000
0000
0010
0100
0001
0000
,
1000
0000
0100
1000
0100
0000
0000
0000
1000
0001
1000
0000
0001
1000
0001
0000
,
1000
0100
0010
0001
1000
0010
0100
0001
,
1000
0100
0010
0001
1000
0010
0100
0001
,
0001
0100
0010
1000
0001
0010
0100
1000
,
0010
0100
0001
0010
0100
1000
0100
0010
,
0001
0010
0100
1000
0001
0100
0010
1000
,
0001
0010
0100
1000
0001
0100
0010
1000
,
1000
0010
0100
0001
1000
0100
0010
0001
,
1000
0010
0100
0001
0010
0100
1000
0001
,
1000
0100
0010
0001
1000
0010
0100
0001
,
1000
0100
0010
0001
1000
0010
0100
0001
,
0001
0100
0010
1000
0001
0010
0100
1000
,
0010
0100
0001
0010
0100
1000
0100
0010
,
0001
0010
0100
1000
0001
0100
0010
1000
,
0001
0010
0100
1000
0001
0100
0010
1000
,
1000
0010
0100
0001
1000
0100
0010
0001
,
1000
0100
1000
0000
0001
0010
0001
0000
1000
0010
1000
0000
0001
0100
0001
0000
,
0101
0000
0000
0110
0000
0000
1010
0000
1000
0100
0010
0000
0011
0000
0110
0000
,
1100
0000
0000
0011
0000
0000
0110
0000
1100
1100
0000
0011
0011
0000
0000
0000
,
1000
0000
0100
0000
0010
0000
0001
0000
1000
0000
0001
0000
1000
0001
1000
0000
,
0001
0000
0100
0000
0010
0000
1000
0000
0001
0000
1000
0000
0001
1000
0001
0000
,
1000
0000
0100
0000
0010
0000
0001
0000
1000
0000
0010
0000
1000
0001
1000
0000
,
0001
0000
0010
0000
0100
0000
1000
0000
0001
0000
1000
0000
0001
1000
0001
0000
,
1100
0000
0000
1100
0000
0000
1100
0000
0001
0010
0100
0000
1100
0000
0011
0000
,
1001
0000
0000
0101
0000
0000
1010
0000
0101
1010
0000
0101
1010
0000
0000
0000
,
0001
0100
0010
1000
0100
0010
0001
0001
,
0010
0100
1000
0001
0100
0010
1000
1000
,
0100
1000
0010
0100
0001
0010
0100
0100
,
1000
0010
0100
0001
0010
0100
0010
0010
,
2002
0000
0000
0000
3003
0000
1000
0100
,
0010
0000
0001
0010
0001
0000
1000
0000
0100
0000
1000
0001
1000
0000
0001
1000
,
0001
0000
0000
0000
0000
0000
0100
0000
0000
0000
0000
0000
0010
0000
0000
1000
0000
0000
0010
0000
0000
0000
0000
0000
1000
0000
0000
0010
0000
0000
1000
0000
0000
0000
0000
0000
0101
0000
0000
0000
0000
0000
0000
0000
0110
0000
0000
0000
,
0000
1010
0000
1100
0000
0110
0000
0011
0000
2002
0000
0000
,
0000
3003
0001
0010
0100
1000
0010
0100
,
0001
0010
0100
1000
0100
0010
0001
0010
,
1000
0010
0001
0010
0100
1000
0010
0100
,
0001
0100
0010
1000
0100
0001
0100
1000
,
0100
0001
0100
0010
0001
0010
0100
1000
,
0010
0100
0001
0100
0010
1000
0100
0001
,
0100
1000
0010
0100
0001
0100
0010
1000
,
0010
0100
0001
0010
0100
1000
0100
0001
,
0100
1000
0010
1000
0001
0010
0100
1000
,
0001
0010
0001
0100
0010
1000
0100
0001
,
0100
1000
0010
0100
0001
0010
0100
0010
,
0001
1000
0010
0100
0010
1000
0100
0001
,
0100
1000
0010
0100
0001
0010
0100
1000
,
0001
0100
0010
1000
0100
0010
0001
0010
,
1000
0010
2020
3030
0000
0000
0010
0001
,
0010
1000
0010
0100
0001
0100
1000
0100
,
0010
0001
0010
1000
0010
0100
1000
0010
,
0001
0010
1000
0010
0100
0001
0100
1000
,
0100
0010
1000
0010
0001
0010
0100
0001
,
0010
1000
0010
0001
0010
0100
0001
0100
,
1000
0010
0100
0001
0100
0010
1000
0100
,
0001
0100
0010
0001
0010
1000
0010
0100
,
0001
0100
1000
0010
0100
0001
0100
0001
,
1000
0000
0010
0000
1000
0000
0001
0000
0100
0000
0001
0010
0001
0000
0100
0000
,
0010
0000
1000
0000
0100
0000
0010
0000
0001
0000
1000
0100
1000
0000
0001
0000
,
0010
0000
0100
0000
1000
0000
0001
0000
0100
0000
0001
0100
0001
0000
1000
0000
,
0100
0000
0010
0000
0001
0000
1000
0000
0100
0000
1000
0100
1000
0000
0000
0000
,
0100
0000
0010
0001
0010
0000
0000
0000
0100
0000
1000
0100
1000
0000
0000
0000
,
1000
0000
0001
0100
0001
0000
0000
0000
0001
0000
1000
0100
1000
0000
0000
0000
,
1000
0000
0001
0010
0001
0000
0000
0000
0001
0000
1000
0100
1000
0000
0001
0010
,
0001
0000
1000
0010
1000
0000
0001
0100
0001
0000
1000
0001
2000
0000
0000
0000
,
0000
0000
0000
0000
,
0000
0000
0000
0000
,
0000
0000
0000
0000
,
0000
0000
0000
0000
,
3000
0000
0000
0000
;
#NOTES:
     dance-single:
     Renard:
     Medium:
     11:
     0.732,0.810,0.239,0.040,0.020:
0000
0000
0000
0000
,
0000
0000
0000
0000
,
0000
0000
0000
0000
,
0000
0000
0000
0000
,
1100
0000
0011
0000
,
0101
0000
1010
0000
,
0011
0011
1100
1100
,
0001
1000
0100
0010
0001
1000
0001
0000
,
1000
0000
1001
0000
0001
0100
0001
0000
,
1000
1001
0001
1000
,
0001
0000
1001
0000
1000
0100
1000
0000
,
0001
1001
1000
0001
,
1000
0100
0010
0000
0001
0010
0100
0000
,
1000
0100
0010
0000
0001
0010
0100
0000
,
1000
0010
0100
0001
0100
0010
1000
0010
,
0100
0001
1000
0100
0010
0001
1000
0100
,
0020
0000
0000
0000
,
0130
0000
1000
0000
0001
0000
0010
0001
,
0010
0100
1000
0001
,
1000
0000
0100
0000
0010
0000
0001
0010
,
0001
0010
0100
1000
,
0001
0000
0100
0000
0010
0000
1000
0010
,
1000
0001
0100
0010
,
1000
0000
0001
0000
0010
0000
0100
1000
,
0001
0000
1000
0000
0010
1000
0001
0100
,
0010
0000
1000
0000
0001
0000
0010
0001
,
0010
0100
1000
0001
,
1000
0000
0100
0000
0010
0000
0001
0010
,
0001
0010
0100
1000
,
0001
0000
0100
0000
0010
0000
1000
0010
,
1000
0001
0100
0010
,
1000
0000
0001
0000
0010
0000
0100
1000
,
0001
0000
1000
0000
0010
1000
0001
0100
,
0001
0010
0100
1000
0001
0010
0100
1000
,
0001
0100
0010
1000
,
0001
0010
0100
1000
0001
0010
0100
1000
,
0001
0100
0010
1000
,
0010
1000
0001
0100
0010
1000
0001
0100
,
0010
1000
0100
0010
,
0001
0100
0010
1000
0001
0100
0010
1000
,
0010
1000
0001
1000
,
0100
0010
0001
0010
0100
1000
0001
0010
,
0100
1000
0001
0010
,
0100
1000
0001
0100
0010
1000
0001
0100
,
0010
1000
0100
0010
,
0001
0010
0100
1000
0001
0100
0010
1000
,
0001
1000
0100
0010
,
0001
0010
0100
1000
0001
0100
0010
1000
,
0100
0010
0001
0010
,
0110
0000
0110
0000
0100
1000
0001
0000
,
1001
0000
1001
0000
0001
1000
0010
0000
,
1000
0000
0001
0000
0100
0000
0001
1000
,
0001
0000
1000
0000
0100
0010
0001
0000
,
0010
0000
0100
0000
1000
0000
0001
1000
,
0001
0000
0100
0000
0010
1000
0001
0000
,
0101
0000
0110
0000
0010
1000
1100
0000
,
1000
0000
0110
0000
0010
0001
1001
0000
,
0001
0000
0100
0000
0010
1000
0010
0000
,
1000
0000
0100
0010
0100
0000
0010
0000
,
0001
0000
1000
0000
0001
0100
0001
0000
,
0100
0000
0010
1000
0010
0000
1000
0000
,
2200
0000
0000
0000
3300
0000
1000
0100
,
0010
0001
0100
0010
1000
0100
0010
0001
,
0100
0000
0000
0010
0000
0000
1000
0000
0000
0100
0000
0000
0010
0000
0000
0001
0000
0000
1000
0000
0000
0000
0100
0000
,
0000
0010
0000
0001
0000
0010
0000
0100
0000
2000
0000
0000
,
0000
0000
3001
0010
0100
0000
1000
0000
,
0001
0000
0010
0100
1000
0000
0001
0000
,
0010
0000
0100
1000
0001
0000
0100
0000
,
0010
0000
1000
0001
0100
0000
0010
0000
,
1000
0000
0001
0100
0010
1000
0100
0000
,
0010
0000
0001
0010
0100
1000
0001
0000
,
0100
0000
0010
1000
0001
0010
0100
1000
,
0001
0100
0010
1000
0100
0010
0001
0000
,
0010
0000
0100
1000
0001
0010
0100
0000
,
1000
0001
0100
0010
,
1000
0000
0001
0100
0010
1000
0100
0000
,
1000
0001
0010
0100
,
1000
0000
0001
0100
0010
0000
1000
0010
,
0100
0000
0001
0100
0010
0000
1000
0100
,
0010
0000
1001
0000
0000
0000
0001
0010
,
0100
1000
0001
0000
0010
0000
0100
0000
,
1000
0000
0001
0000
0010
0000
0100
1000
,
0001
0010
0100
0000
1000
0000
0001
0000
,
0100
0000
0010
0000
1000
0000
0001
0100
,
0010
1000
0001
0000
0100
0000
0010
0000
,
1000
0000
0100
0000
0010
0000
0001
0010
,
0100
1000
0001
0000
0100
0000
0010
0000
,
1000
0000
0001
0100
0010
0000
1000
0010
,
1000
0000
0001
0100
0001
0000
0100
0010
,
0100
0000
0010
1000
0010
0000
1000
0100
,
1000
0000
0001
0010
0001
0000
0010
0100
,
0010
0000
0100
1000
0100
0000
1000
0001
,
0010
0100
1000
0000
0001
0000
0010
0100
,
1000
0001
0010
0000
0100
0000
1000
0001
,
0100
0010
1000
0000
0001
0000
0100
0010
,
1000
0001
0100
0000
0010
0000
1001
0000
;
#NOTES:
     dance-single:
     Renard:
     Easy:
     8:
     0.527,0.572,0.100,0.189,0.000:
0000
0000
0000
0000
,
0000
0000
0000
0000
,
0000
0000
0000
0000
,
0000
0000
0000
0000
,
0000
0000
0000
0000
,
0000
0000
0000
0000
,
0000
0000
0000
0000
,
0000
0000
0000
0000
,
1000
1000
0100
0010
,
0001
0001
0010
0100
,
1000
1000
0010
0100
,
0001
0001
1000
1000
,
0001
0100
0010
1000
,
0100
0010
0001
0010
,
0100
1000
0010
0100
,
0001
0010
0100
1000
,
2002
0000
0000
0003
,
3001
1000
0100
0010
,
0010
0001
0100
0010
,
0010
1000
0100
0010
,
0010
0001
0100
0010
,
1000
1000
0001
0001
,
1000
1000
0001
0001
,
0100
0010
0100
0010
,
1000
0001
1000
0001
,
0010
0010
0100
1000
,
0010
0010
0100
0001
,
0010
0010
0100
1000
,
0010
0010
0100
0001
,
0010
0010
0001
1000
,
0100
0100
1000
0001
,
1000
1000
0001
0001
,
1000
1000
1000
1000
,
0001
0100
0010
2000
,
0001
0001
0001
3001
,
1000
0100
0010
0002
,
1000
1000
1000
1003
,
0001
0100
0010
2000
,
0100
0100
0100
3100
,
1000
0010
0100
0002
,
0010
0010
0010
0013
,
0001
0100
0010
2000
,
0100
0100
0100
3100
,
1000
0010
0100
0002
,
0010
0010
0010
0013
,
0001
0100
0010
2000
,
0010
0010
0010
3010
,
1000
0010
0100
0002
,
0100
0100
0100
0103
,
0001
0101
0100
0101
,
0001
0101
0100
0101
,
0001
0100
1000
0100
,
0001
0100
1000
0100
,
0001
0100
1000
0100
,
0001
0100
1000
0100
,
0102
0100
1000
1003
,
2010
0010
0001
3001
,
1000
1000
0100
0010
,
0001
0001
0010
0100
,
0010
1000
0010
0001
,
1000
0010
0100
0001
,
2002
0000
3003
1000
,
0001
1000
0001
0100
,
0100
0010
0010
2020
,
0000
0002
0000
3133
,
0000
1000
1000
0010
,
0010
1000
1000
0010
,
0010
0100
0001
0010
,
0100
1000
0010
0100
,
0001
0010
0010
0001
,
0001
1000
1000
0100
,
0100
1000
0010
0100
,
0001
0010
0100
1000
,
0010
0100
0001
0010
,
0100
0001
0100
0010
,
0100
1000
0010
0100
,
1000
0100
0010
1000
,
0100
0010
0001
0010
,
0100
0001
0100
0010
,
0002
2003
0000
1000
,
0001
0100
1000
0100
,
0001
1000
0100
0001
,
0100
1000
0001
0010
,
1000
0010
0001
1000
,
0010
0001
0010
1000
,
0001
0010
0100
1000
,
0010
0100
1000
0100
,
0001
1000
0100
0001
,
0100
1000
0001
0100
,
1000
0100
0001
0010
,
1000
0001
1000
0010
,
0001
1000
0010
0001
,
1000
0001
0010
0100
,
1000
0100
0010
0100
,
0001
1000
0100
0010
,
0001
1000
0010
1001
;
#NOTES:
     dance-single:
     Renard:
     Beginner:
     6:
     0.453,0.619,0.179,0.100,0.000:
0000
0000
0000
0000
,
0000
0000
0000
0000
,
0000
0000
0000
0000
,
0000
0000
0000
0000
,
0000
0000
0000
0000
,
0000
0000
0000
0000
,
0000
0000
0000
0000
,
0000
0000
0000
0000
,
1000
0000
1000
0000
,
0001
0001
0001
0000
,
0100
0000
0100
0000
,
0010
0010
0010
0000
,
1000
0010
1000
0000
,
0001
0100
0001
0000
,
1000
0100
0010
0001
,
1000
0010
0100
0002
,
2000
0000
0000
3003
,
1000
0000
0001
1000
,
0001
0000
0100
0010
,
0100
0000
0010
1000
,
0001
0100
0001
0000
,
1000
0000
0100
1000
,
0001
0000
0010
0001
,
1000
0010
0100
0001
,
1000
0100
0010
0001
,
1000
0000
1000
0010
,
0100
0000
0100
0001
,
0010
0000
0010
0001
,
1000
0100
0010
0001
,
1000
0000
1000
0010
,
0100
0000
0100
0001
,
0010
0001
1000
0100
,
0010
0001
1000
0000
,
0001
0100
0010
1000
,
0001
0000
0001
0000
,
1000
0010
0100
0001
,
1000
0000
1000
0000
,
0001
0100
0010
1000
,
0001
0000
0001
0000
,
1000
0010
0100
0001
,
1000
0000
1000
0000
,
0001
0001
0001
0001
,
0000
0000
0000
0000
,
1000
1000
1000
1000
,
0000
0000
0000
0000
,
0010
0010
0010
0010
,
0000
0000
0000
0000
,
0100
0100
0100
0100
,
0000
0000
0000
0000
,
1010
1010
0101
0101
,
1001
1001
2200
3300
,
1000
0100
0010
0001
,
1000
0100
0010
0001
,
1000
0100
0010
0001
,
1000
0100
0010
0000
,
1100
1100
1010
1010
,
0101
0101
0022
0033
,
0001
1000
0010
0100
,
0001
1000
0100
0010
,
0001
1000
0010
0100
,
0001
0010
0100
0000
,
2002
0000
3003
1000
,
0000
1000
0000
0001
,
0000
0001
0000
0110
,
0000
2002
0000
3013
,
0000
1000
1000
0001
,
0001
1000
1000
0001
,
0001
1000
0001
1000
,
0001
1000
0001
1000
,
0001
1000
1000
0001
,
0001
1000
0001
1000
,
0001
1000
0001
1000
,
1000
0001
1000
0001
,
0001
1000
0001
1000
,
1000
0001
1000
0001
,
0001
1000
1000
0001
,
0001
1000
0001
1000
,
1000
0001
0001
1000
,
0001
1000
1000
0001
,
1000
0001
0000
0001
,
0100
0001
0100
0100
,
0001
0100
0001
0100
,
0100
0001
0001
0100
,
0001
0100
0001
1000
,
1000
0010
1000
0010
,
0010
1000
0010
1000
,
0010
0010
1000
1000
,
0010
1000
0010
1000
,
1000
0001
0100
0010
,
0010
1000
0001
0001
,
1000
0001
0001
0100
,
0010
1000
0001
0001
,
1000
0010
1000
0001
,
0001
0100
0010
1000
,
1000
0001
0001
0100
,
0100
0010
0010
1001
;
