#TITLE:Devil Road;
#SUBTITLE:;
#ARTIST:Renard;
#TITLETRANSLIT:;
#SUBTITLETRANSLIT:;
#ARTISTTRANSLIT:;
#CRChallenge:;
#BANNER:devil.png;
#BACKGROUND:devil-bg.png;
#LYRICSPATH:;
#CDTITLE:;
#MUSIC:devil2.ogg;
#OFFSET:0.000;
#SAMPLESTART:23.063;
#SAMPLELENGTH:12.000;
#SELECTABLE:YES;
#BPMS:0.000=360.000,314.000=180.000,344.000=360.000;
#STOPS:124.000=0.333
;
#BGCHANGES:;
#NOTES:
     dance-single:
     Renard:
     Challenge:
     14:
     1.000,1.000,0.352,0.000,0.000:
0000
0000
0000
0000
,
0000
0000
0000
0000
,
0000
0000
0000
0000
,
0000
0000
0000
0000
,
0000
0000
0000
0000
,
0000
0000
0000
0000
,
0000
0000
0000
0000
,
0000
0000
0000
0000
,
1100
0000
0000
1010
,
0000
0000
0101
0000
,
1000
0100
0010
0001
,
0010
0100
1000
0000
,
0101
0000
0000
1010
,
0000
0000
1001
0000
,
0001
0100
0010
1000
,
0100
0010
0100
1000
,
0100
0010
0001
1000
0100
0010
0001
1000
,
0100
0010
0001
1000
0100
0010
0001
0000
,
0010
0100
1000
0001
0010
0100
1000
0001
,
0010
0100
1000
0001
0010
0100
1000
0000
,
0010
0100
0001
1000
0010
0100
0001
1000
,
0010
0100
0001
1000
0010
0100
0001
0000
,
1000
0100
0010
0100
1000
0001
0010
0100
,
0010
0001
1000
0100
0010
0100
1000
0000
,
0001
0010
0001
1000
0100
1000
0001
0010
,
0001
1000
0010
0100
0001
1000
0100
0000
,
0010
0001
0010
0100
1000
0010
0100
0001
,
1000
0010
0100
0001
1000
0100
0010
0000
,
0100
0000
1000
0100
1000
0000
1001
0000
,
0010
0001
0010
0000
1001
0000
1001
0000
,
0010
0100
0101
0000
0000
0000
1000
0010
,
1010
0000
0000
0000
1000
0100
0010
0100
,
1000
0001
0100
0001
,
1000
0000
0010
0000
0100
0001
0100
0010
,
1000
0010
0100
0001
,
1000
0000
0100
0000
0010
0100
1000
0001
,
0010
0100
1000
0010
,
0100
0000
0001
0000
1000
0100
1000
0001
,
0010
0001
1000
0010
,
0100
0000
0001
0000
1000
0100
0010
0100
,
1000
0000
0001
0000
0010
0000
0100
0010
,
0001
0000
1000
0000
0010
0100
0001
1000
,
0010
0000
0100
0001
1000
0000
0100
0000
,
0010
0000
0100
0000
1000
0001
0010
0100
,
0010
0000
0001
1000
0010
0000
0100
0000
,
0001
0000
1000
0000
0001
0000
0100
0001
,
0100
0000
0010
1000
0010
0000
0100
0001
,
1000
0000
0001
1000
0001
0010
0100
0010
,
0001
1000
0010
1000
,
0001
0000
0100
0000
0010
1000
0010
0100
,
0001
0100
0010
1000
,
0001
0000
0010
0000
0100
0010
0001
1000
,
0100
0010
0001
0100
,
0010
0000
1000
0000
0001
0010
0001
1000
,
0100
1000
0001
0100
,
0010
0000
1000
0000
0001
0010
0100
0010
,
0001
0000
1000
0000
0100
0000
0010
0100
,
1000
0000
0001
0000
0100
0010
1000
0001
,
0100
0000
0010
1000
0001
0000
0010
0000
,
0100
0000
0010
0000
0001
1000
0100
0010
,
0100
0000
1000
0001
0100
0000
0010
0000
,
1000
0000
0001
0000
1000
0001
1001
0000
,
0000
0000
0001
0100
0101
0000
0000
0000
,
1101
0000
0000
0000
1000
0100
0010
0001
,
0010
0100
1000
0100
0010
0001
0010
0100
,
1000
0000
0010
0000
0100
0001
0100
0010
,
1000
0010
0100
0001
0100
0010
1000
0100
,
0010
0000
0100
0000
1000
0001
0010
0100
,
0010
0001
1000
0100
0010
0100
1000
0010
,
0100
0000
0001
0000
1000
0010
0100
0000
,
0001
0100
0010
0000
1000
0100
0010
0000
,
0001
0010
0100
0000
1000
0100
1000
0010
,
0100
0000
0001
0000
0100
0010
1000
0000
,
0010
0100
0001
0000
1000
0100
0010
0001
,
0010
0100
1000
0000
0010
0100
0001
0000
,
1000
0010
0100
0000
0110
0000
0100
0010
,
1000
0000
1001
0000
1000
0001
1001
0000
,
1001
0000
0000
0000
1000
0001
0101
0000
,
0000
0000
0001
1000
1010
0000
0000
0000
,
1000
0100
0010
0001
0010
0100
1000
0010
,
0100
0001
0100
1000
0100
0001
0010
0100
,
1000
0100
0001
0100
1000
0010
0100
0001
,
1000
0100
0010
0100
1000
0001
0010
0100
,
0010
0001
1000
0010
0100
0001
1000
0100
,
0010
0100
1000
0001
0010
0100
0010
0001
,
1000
0010
0100
0001
1000
0010
0100
0110
,
0000
0000
0000
0000
,
0000
0000
0000
0000
,
1000
0100
0010
0001
0010
0100
1000
0010
,
0100
0001
0100
1000
0100
0001
0010
0100
,
1000
0100
0001
0100
1000
0010
0100
0001
,
1000
0100
0010
0100
1000
0001
0010
0100
,
0010
0001
1000
0010
0100
0001
1000
0100
,
0010
0100
1000
0001
0010
0100
0010
0001
,
1000
0010
0100
0001
1000
0010
0100
0010
,
1000
0001
0100
0100
,
0001
0010
0100
1000
0100
0010
0001
0100
,
0010
1000
0010
0001
0010
1000
0100
0010
,
0001
0010
1000
0010
0001
0100
0010
1000
,
0001
0010
0100
0010
0001
1000
0100
0010
,
0100
1000
0001
0100
0010
1000
0001
0010
,
0100
0010
0001
1000
0100
0010
0100
1000
,
0001
0100
0101
0000
0000
0000
1000
0100
,
1100
0000
1111
0000
,
1000
0010
0100
0000
0001
0100
0010
0000
,
1000
0100
0010
0000
0100
1000
0001
0000
,
0010
0001
1000
0000
0010
0100
0001
0000
,
1000
0010
0100
0001
1000
0000
0100
0000
,
0010
0100
1000
0000
0001
0010
0100
0000
,
1000
0100
0010
0000
0100
0010
0001
0000
,
1000
0010
0100
0000
0001
0100
0010
0000
,
1000
0100
0010
0000
0100
0010
0001
0000
,
1000
0010
0100
0001
0100
0000
0010
0000
,
1000
0010
0100
0001
1000
0000
0010
0000
,
0100
0001
1000
0100
0010
0100
1000
0001
,
0010
0100
0010
0001
1000
0000
0001
0000
,
1010
0000
0000
1001
,
0000
0000
0101
0000
,
1000
0001
1001
0000
0000
0000
0001
0100
,
0101
0000
0000
0000
1000
0100
1100
0000
,
0000
0000
0001
1000
1001
0000
0000
0000
,
1010
0101
1101
0000
;
