#TITLE:Detonated 2005;
#SUBTITLE:;
#ARTIST:Bass-X;
#TITLETRANSLIT:;
#SUBTITLETRANSLIT:;
#ARTISTTRANSLIT:;
#CRChallenge:;
#BANNER:deton-banner.avi;
#BACKGROUND:deton-bg.jpg;
#LYRICSPATH:;
#CDTITLE:!cdtitle.png;
#MUSIC:deton.ogg;
#OFFSET:0.000;
#SAMPLESTART:45.176;
#SAMPLELENGTH:12.000;
#SELECTABLE:YES;
#BPMS:0.000=170.000,92.000=340.000,96.000=170.000,252.000=340.000,256.000=170.000;
#STOPS:92.000=0.176
,93.000=0.176
,94.000=0.176
,95.000=0.176
,252.000=0.132
,252.750=0.132
,253.500=0.132
,254.250=0.132
,255.000=0.088
,255.500=0.088
;
#BGCHANGES:;
#NOTES:
     dance-single:
     Renard:
     Hard:
     11:
     0.831,0.929,0.115,0.412,0.824:
0000
0000
0000
0000
,
0000
0000
0000
0000
,
0000
0000
0000
0000
,
0000
0000
0000
0000
,
1000
0100
0000
0100
0010
0001
0000
0001
,
0100
0010
0000
0010
1000
0100
0010
0001
,
1000
0010
0000
0010
0100
0001
0000
0001
,
0010
0100
0000
0100
1000
0010
0100
0001
,
0100
0010
0100
0010
0100
1000
0100
1000
,
0100
0001
0100
0001
0010
0100
1000
0010
,
0100
0001
0100
0001
0100
1000
0100
1000
,
0100
0010
0100
0010
1000
0100
0010
0001
,
0010
0100
0010
0100
0001
0100
0001
0100
,
1000
0100
1000
0100
1000
0010
0100
0001
,
0010
0100
0010
0100
0010
1000
0010
1000
,
0010
0000
0100
0000
0010
0000
0000
0001
0000
0000
0010
0000
0100
0000
0100
0000
,
1000
0000
1000
0000
0001
0100
0000
0010
0000
1000
0000
0100
0000
0010
0001
0010
,
0100
0000
1000
0000
0100
0010
0000
0001
0000
0010
0000
0100
0000
1000
0001
0100
,
0010
0000
1000
0000
0010
0100
0000
0001
0000
0010
0000
0100
0000
1000
0100
0010
,
0001
0000
1000
0000
0001
0100
0000
0010
0000
1000
0000
0001
0000
0010
0100
1000
,
0001
0000
0010
0000
0001
1000
0000
0010
0000
0100
0000
0001
0000
0100
0010
1000
,
0100
0000
0010
0000
0001
0010
0000
0001
0000
1000
0000
0010
0000
0100
0001
0100
,
0010
0000
1000
0000
0100
0010
0000
0001
0000
0010
0000
0001
0000
1000
0010
0100
,
M002
0003
02M0
0300
0M20
0030
200M
3000
,
0020
0000
2000
0030
0200
3000
0302
0200
,
0003
0300
0200
2000
0000
3300
2200
0000
,
3000
0000
2000
0300
0020
3000
0032
0020
,
0000
0003
0230
2000
0300
3200
0002
0300
,
2000
0003
0200
3000
0002
0300
0203
0020
,
0000
0300
0032
0020
0000
0033
2010
0000
,
3020
0000
0032
0000
0203
0000
2300
3200
,
0302
0000
0200
0000
0000
1010
1313
0000
,
0101
0000
0101
0000
0001
0010
0000
0100
0000
1000
0000
0100
0000
0010
0001
1000
,
0010
0000
0010
0000
1000
0100
0000
0010
0000
0001
0000
1000
0000
0010
0100
0000
,
0110
0000
0110
0000
0010
0100
0000
0000
0001
0010
0000
0100
0000
1000
0001
1000
,
0010
0000
0100
0000
0010
1000
0000
0001
0000
0010
0000
0001
0000
1000
0100
0000
,
1100
0000
1100
0000
0100
0010
0000
0001
0000
1000
0000
0001
0000
0100
0010
0100
,
0010
0000
1000
0000
0001
0010
0000
0001
0000
1000
0000
0100
0000
1000
0100
0000
,
0011
0000
0011
0000
0010
0100
0000
1000
0000
0001
0000
0010
0000
0001
0100
0010
,
1000
0000
0010
0000
0100
0001
0000
0010
0000
0100
0000
1000
0000
0001
0010
0001
,
1000
0100
0001
0100
0010
0001
0010
1000
,
0000
1000
0010
0001
0000
0001
0100
1000
,
0100
1000
0100
0010
0001
0010
1000
0100
,
0000
0100
0001
0100
0000
0100
1000
0000
,
1000
0010
0001
0010
0100
1000
0100
0001
,
0000
0001
1000
0100
0000
0100
1000
0010
,
0100
0000
0000
0001
0000
0000
0010
0000
0000
1000
0000
0000
0010
0000
0000
0001
0000
0000
0100
0000
0000
200M
00M0
0M00
,
00M0
000M
00M0
0M00
00M0
000M
00M0
0M00
000M
00M0
0M00
00M0
000M
0M00
00M0
000M
00M0
0M00
000M
00M0
0M00
30M0
0000
0000
,
0100
0001
0000
0100
0010
0000
1000
0100
0000
0010
0001
0000
0010
0000
0100
0000
,
1000
0001
0010
0100
1000
0000
0100
0010
0000
0001
0010
0000
0100
0000
1000
0000
,
0001
0100
0000
0010
1000
0000
0001
0100
0000
0010
1000
0000
0100
0000
0010
0000
,
0001
0010
0100
1000
0001
0000
0010
0001
0000
1000
0010
0000
0100
0000
0001
0000
,
0100
0010
0000
1000
0010
0000
0100
0001
0000
0100
0010
0000
1000
0000
0100
0000
,
0010
0001
0010
0100
1000
0000
0001
0010
0000
0001
1000
0000
0010
0000
0100
0000
,
0001
0100
0000
0010
1000
0000
0001
0100
0000
0010
1000
0000
0001
0000
1000
0000
,
0100
0010
0001
0010
0100
1000
0001
0100
0010
1000
0100
0010
0001
0010
0100
1000
,
0001
0010
0000
0010
0001
0000
0001
0010
0000
0010
0001
0000
0010
0000
0100
0000
,
1000
0100
1000
0100
1000
0000
0010
1000
0000
1000
0010
0000
0100
0001
0100
0000
,
0001
1000
0000
1000
0001
0000
0001
1000
0000
1000
0001
0000
1000
0000
1000
0000
,
0001
0010
0100
1000
0001
0000
1000
0100
0000
0100
1000
0000
0010
1000
0010
0000
,
1000
0100
0000
0100
1000
0000
1000
0100
0000
0100
1000
0000
0100
0000
0010
0000
,
0001
0010
0001
0010
0001
0000
0100
0001
0000
0001
0100
0000
0010
1000
0010
0000
,
1000
0001
0000
0001
1000
0000
1000
0001
0000
0001
1000
0000
0001
0000
0001
0000
,
2000
0000
0000
3200
0000
0000
0320
0000
0000
0032
0000
0000
2003
0000
3200
0000
,
1300
0100
1000
0100
0001
0100
0001
0100
,
0010
0001
0010
0001
0010
0100
1000
0010
,
0000
0001
0010
0001
0010
0100
0010
0100
,
1000
0100
1000
0100
0001
1000
0100
0010
,
0000
0001
0010
0001
0010
1000
0010
1000
,
0010
0100
0001
0100
1000
0010
0001
0010
,
0000
0100
0010
0100
0010
0100
1000
0100
,
0000
0100
0000
0100
0001
0010
0100
1000
;
#NOTES:
     dance-single:
     Renard:
     Medium:
     9:
     0.669,0.688,0.172,0.096,0.402:
0000
0000
0000
0000
,
0000
0000
0000
0000
,
0000
0000
0000
0000
,
0000
0000
0000
0000
,
M000
1000
000M
0001
0M00
0100
00M0
0010
,
M000
1000
0000
00M1
M100
00M1
M100
00M1
,
M000
1000
0M00
0100
00M0
0010
000M
0001
,
M000
1000
00M0
001M
M100
001M
M100
001M
,
1000
0000
1010
0000
0010
0100
0001
0000
,
1000
0000
1001
0000
1000
0100
1000
0000
,
0001
0000
0011
0000
0001
0100
0010
0000
,
1000
0000
1010
0000
1000
0100
0010
0001
,
1000
0000
1100
0000
1000
0100
0010
0000
,
0001
0000
0011
0000
0001
0010
0100
0000
,
1000
0000
1010
0000
1000
0010
0100
0000
,
0101
0110
1100
0110
,
0010
0000
0100
0000
0001
0000
0000
1000
0000
0100
0000
0010
0000
0000
0000
0000
,
0001
0000
0010
0000
0100
0000
0000
1000
0000
0001
0000
0100
0000
0000
0000
0000
,
0010
0000
1000
0000
0001
0000
0000
1000
0000
0100
0000
0010
0000
0000
0000
0000
,
0001
0000
0010
0000
0100
0000
0000
1000
0000
0001
0000
0100
0000
0000
0000
0000
,
0001
0000
0010
0000
0001
0000
0000
1000
0000
0100
0000
1000
0000
0000
0000
0000
,
0001
0000
0010
0000
0100
0000
0000
1000
0000
0010
0000
0100
0000
0000
0000
0000
,
0001
0000
0010
0000
0001
0000
0000
1000
0000
0010
0000
0100
0000
0000
0001
0000
,
1000
0100
0010
0001
,
1000
0000
0100
0000
1000
0000
0000
0001
0000
0010
0000
0001
0000
0000
1000
0000
,
0010
0000
0100
0000
0001
0000
0000
0010
0000
0001
0000
1000
0000
0000
0010
0000
,
0100
0000
0001
0000
1000
0000
0000
0100
0000
0010
0000
0001
0000
0000
1000
0000
,
0010
0000
0100
0000
0001
0000
0000
1000
0000
0001
0000
0010
0000
0000
0100
0000
,
1000
0000
0010
0000
0100
0000
0000
0001
0000
0010
0000
0001
0000
0000
1000
0000
,
0010
0000
0100
0000
0001
0000
0000
1000
0000
0100
0000
1000
0000
0000
0001
0000
,
0010
0000
0001
0000
1000
0000
0000
0010
0000
0100
0000
0001
0000
0000
2000
0000
,
0002
0000
0010
0000
0000
0010
3013
0000
,
1000
0000
0001
0000
0100
0000
0010
0000
1000
0000
0100
0000
0010
0000
0001
0010
,
0001
0000
0010
0000
0100
0000
1000
0000
0001
0000
0100
0000
0010
0000
1000
0010
,
1000
0000
0100
0000
0010
0000
0001
0000
0010
0000
0100
0000
1000
0000
0001
0100
,
0001
0000
0100
0000
0010
0000
1000
0000
0100
0000
0010
0000
0001
0000
1000
0100
,
1000
0000
0001
0000
0100
0000
0010
0000
1000
0000
0100
0000
0010
0000
0001
0010
,
0001
0000
0010
0000
0100
0000
1000
0000
0001
0000
0100
0000
0010
0000
1000
0010
,
1000
0000
0100
0000
0010
0000
0001
0000
0010
0000
0100
0000
1000
0000
0100
1000
,
0100
0000
1000
0000
0001
0000
0000
0100
0000
0010
0000
1000
0000
0010
1000
0000
,
0010
1000
0010
0100
0001
0100
0010
0010
,
0100
1000
0100
0010
0100
0100
0010
0100
,
0001
0010
0100
1000
0001
1000
0100
0100
,
1000
0010
0100
0100
0001
0010
0100
1000
,
0001
0100
0010
0100
1000
0100
0001
0001
,
0010
0100
1000
1000
0100
1000
0100
0010
,
0001
1000
0010
0100
0001
0010
0100
0100
,
200M
00M0
0M00
00M0
000M
0M00
0002
3003
,
1000
0100
0000
0000
0010
0000
0000
0001
0000
0000
1000
0000
0010
0000
0100
0000
,
0001
0000
0001
0000
0100
0000
0000
0010
0000
0000
1000
0000
0100
0000
0010
0000
,
0001
0010
0000
0000
0100
0000
0000
1000
0000
0000
0001
0000
0010
0000
0001
0000
,
1000
0000
0010
0000
0100
0000
0000
0001
0000
0000
0010
0000
0100
0000
1000
0000
,
0001
0100
0000
0000
0010
0000
0000
1000
0000
0000
0100
0000
0010
0000
0000
0000
,
0001
0000
0010
0000
0100
0000
0000
1000
0000
0000
0001
0000
0100
0000
0010
0000
,
1000
0100
0000
0000
0010
0000
0000
0001
0000
0000
0010
0000
0100
0000
0000
0000
,
1000
0100
1000
0000
0100
1000
0100
0000
1000
0100
1000
0000
0100
1000
0100
0000
,
1000
0100
0000
0000
1100
0000
0000
1000
0000
0000
0100
0000
0010
0000
0000
0000
,
0001
0100
0000
0000
0101
0000
0000
0001
0000
0000
0010
0000
0100
0000
0000
0000
,
1000
0100
0000
0000
1100
0000
0000
1000
0000
0000
0100
0000
0010
0000
0000
0000
,
0001
0010
0000
0000
0011
0000
0000
0001
0000
0000
0100
0000
0010
0000
1000
0000
,
0100
1000
0000
0000
1100
0000
0000
1000
0000
0000
0100
0000
0010
0000
0000
0000
,
0001
1000
0000
0000
1001
0000
0000
0001
0000
0000
0100
0000
0010
0000
0000
0000
,
0010
1000
0000
0000
1010
0000
0000
1000
0000
0000
0100
0000
0010
0000
0000
0000
,
0002
0000
0000
0023
0000
0000
0230
0000
0000
2300
0000
0000
3200
0000
2300
0000
,
3100
0010
0100
0010
0001
0010
0001
0010
,
0100
0010
0100
0010
0001
0001
0001
0001
,
1000
0100
1000
0100
0010
0100
0010
0100
,
1000
0100
1000
0100
0010
0010
0010
0010
,
0100
1000
0100
1000
0001
0100
0001
0100
,
0001
1000
0001
1000
0100
0100
0100
0100
,
1000
0001
1000
0001
0010
0001
0010
0001
,
1000
0010
1000
0010
0100
0100
0100
0100
;
#NOTES:
     dance-single:
     Renard:
     Easy:
     6:
     0.434,0.448,0.019,0.029,0.000:
0000
0000
0000
0000
,
0000
0000
0000
0000
,
0000
0000
0000
0000
,
0000
0000
0000
0000
,
0000
1000
0000
0100
0000
1000
0000
0100
,
0000
1000
0000
0001
0010
0001
0010
0001
,
0000
0100
0000
0001
0000
0100
0000
0001
,
0000
0100
0000
0010
1000
0010
1000
0010
,
1000
1000
0010
0010
,
0100
0000
0100
0000
0001
1000
0001
1000
,
0001
0001
0010
0010
,
0100
0000
0100
0000
1000
0001
1000
0001
,
1000
1000
0010
0010
,
0100
0000
0100
0000
0001
1000
0001
1000
,
0001
0001
0010
0010
,
0100
0100
0100
0100
,
1000
0000
1000
0000
0001
0000
0100
0001
,
0100
0000
0100
0000
0001
0000
0001
1000
,
0001
0000
0001
0000
1000
0000
1000
0100
,
1000
0000
0100
0000
1000
0000
0001
0010
,
0001
0000
0001
0000
1000
0000
1000
0010
,
1000
0000
1000
0000
0010
0000
0100
0010
,
0100
0000
0100
0000
0001
0000
0001
0010
,
0001
0001
0001
0001
,
1000
0000
1000
0000
0100
0000
0100
1000
,
0000
0000
0100
1000
0000
0000
0100
0000
,
0000
0000
1000
0000
0001
0000
0100
0001
,
0000
0000
0100
0001
0000
0100
0001
0000
,
0010
0000
0010
0000
0001
0000
1000
0001
,
0000
0000
1000
0100
0000
0000
0010
0000
,
0001
0000
0001
0000
1000
0000
0010
0100
,
0001
0000
1000
0000
0000
0100
1000
0000
,
0001
0001
1000
1000
,
0100
0000
0100
0000
0010
0001
0010
0000
,
0100
0100
1000
1000
,
0010
0000
0010
0000
0100
0001
0100
0000
,
0010
0010
1000
1000
,
0100
0000
1000
0000
0001
0010
0001
0000
,
1000
1000
0100
1000
,
0010
0000
0100
0000
0001
0000
1000
0001
,
1000
1000
0100
0010
,
0001
0000
1000
0001
0000
0000
1001
0000
,
1000
0000
0001
0000
0100
0000
0010
1000
,
0000
0000
0010
0100
0000
0000
0001
0000
,
1000
0000
0100
0000
0010
0000
0001
1000
,
0000
0000
0001
0010
0000
0000
0011
0000
,
0010
0000
0100
0000
1000
0000
0001
0100
,
0020
0000
0000
0000
,
1030
1000
1000
1000
,
0010
0100
0010
0000
0100
0000
0100
0000
,
0001
0001
0001
0001
,
0010
0100
0010
0000
0100
0000
0100
0000
,
1000
0000
0010
0000
0100
0010
0100
0000
,
0001
0000
0001
0000
0010
0001
0010
0000
,
0100
0100
1000
0001
,
0200
0000
0000
0000
0000
0000
0000
0300
,
0010
0000
0010
0000
1000
0010
1000
0010
,
0100
0000
0100
0000
0001
0100
0001
0100
,
0001
0000
0001
0000
0010
0100
0010
0100
,
1000
0000
1000
0000
0010
1000
0010
1000
,
0001
0000
0001
0000
0100
0001
0100
0001
,
1000
0000
1000
0000
0100
0010
0100
0010
,
0001
0000
0001
0000
1000
0010
1000
0010
,
0200
0000
0000
0000
,
0310
0010
0100
0100
,
0001
0000
1000
0000
0100
1000
0100
1000
,
0001
0001
0010
0010
,
0001
0000
0001
0000
1000
0010
1000
0010
,
0100
0100
0001
0001
,
1000
0000
1000
0000
0100
0010
0100
0010
,
0001
0001
1000
1000
,
0000
0010
0000
0010
0100
0010
0100
0010
;
#NOTES:
     dance-single:
     Renard:
     Beginner:
     3:
     0.328,0.309,0.000,0.105,0.000:
0000
0000
0000
0000
,
0000
0000
0000
0000
,
0000
0000
0000
0000
,
0000
0000
0000
0000
,
1000
1000
0001
0001
,
0100
0100
0001
0001
,
1000
1000
0001
0001
,
0010
0001
0010
0001
,
1000
1000
0001
0001
,
0100
0100
0001
0001
,
1000
1000
0001
0001
,
0010
0010
0001
0001
,
1000
0001
1000
0001
,
1000
0001
1000
1000
,
0001
1000
0001
1000
,
0001
0001
0001
0001
,
0100
0100
0200
0000
,
0320
0000
2030
0000
,
3010
0010
0010
0000
,
0100
0000
0001
0000
,
0010
0010
0002
0000
,
2003
0000
3200
0000
,
0310
0010
0001
0000
,
1000
1000
1000
1000
,
0001
0000
0001
0000
,
1000
0000
1000
0000
,
0001
0000
0001
0000
,
1000
0000
1000
0000
,
0010
0000
0010
0000
,
0100
0000
0100
0000
,
0010
0000
0010
0000
,
2000
0000
0000
0000
,
3001
0001
0100
0001
,
0100
0100
0001
0000
,
1000
1000
0100
1000
,
0100
0100
1000
0000
,
0001
0001
0010
0001
,
0010
0010
0001
0000
,
1000
1000
0010
1000
,
0010
0010
1000
0000
,
0010
0100
0010
0100
,
0001
1000
0001
1000
,
0001
0010
0001
0010
,
0100
1000
0100
1000
,
0001
0100
0001
0100
,
0010
1000
0010
1000
,
0100
1000
0100
1000
,
0002
0000
0000
0000
,
0013
0010
0010
0010
,
0100
0100
0100
0100
,
1000
1000
1000
1000
,
0010
0010
0010
0010
,
0100
0100
0100
0100
,
0001
0001
0001
0001
,
0010
0010
0010
0010
,
0200
0000
0000
0300
,
1000
0100
1000
0100
,
1000
0100
1000
0100
,
0010
0001
0010
0001
,
0010
0001
0010
0001
,
1000
0010
1000
0010
,
1000
0010
1000
0010
,
0100
0001
0100
0001
,
2000
0000
0000
0000
,
3100
0100
1000
1000
,
0100
0100
1000
1000
,
0000
0001
0010
0001
,
0000
0010
0001
0010
,
0001
0001
0100
0100
,
0001
0001
0100
0001
,
1000
0001
0010
0001
,
0020
0000
0100
0130
;
