#TITLE:Destination of the Heart;
#SUBTITLE:;
#ARTIST:Renard;
#TITLETRANSLIT:;
#SUBTITLETRANSLIT:;
#ARTISTTRANSLIT:;
#CRChallenge:;
#BANNER:heart.png;
#BACKGROUND:heart-bg.png;
#LYRICSPATH:;
#CDTITLE:;
#MUSIC:heart.ogg;
#OFFSET:0.000;
#SAMPLESTART:9.480;
#SAMPLELENGTH:12.000;
#SELECTABLE:YES;
#BPMS:0.000=200.000,32.000=400.000,531.000=150.001,559.000=300.001;
#STOPS:176.000=2.100
,353.000=2.250
;
#BGCHANGES:;
#NOTES:
     dance-single:
     Renard:
     Challenge:
     14:
     1.000,1.000,0.267,0.057,0.019:
0000
0000
0000
0000
,
0000
0000
0000
0000
,
0000
0000
0000
0000
,
0000
0000
0000
0000
,
0000
0000
1000
0100
0010
0000
0010
0001
,
0100
0000
0100
0010
1000
0000
1000
0100
,
0010
0000
0010
0001
0010
0000
0010
0100
,
1000
0001
0100
1001
,
0001
0000
0100
0000
0001
1000
0001
0000
,
1000
0000
0100
0000
1000
0001
1000
0000
,
0001
0000
0100
0000
0001
0010
0001
0000
,
1000
0000
0100
0000
1000
0010
1000
0000
,
0001
0000
1000
0000
0001
0010
0100
1000
,
0001
0000
1000
0000
0001
0100
0001
0000
,
1000
0000
0100
0000
1000
0100
0010
0001
,
1000
0000
0001
0000
1000
0010
1000
0000
,
0001
0000
1000
0010
1000
0000
0001
0100
,
0001
0000
1000
0100
1000
0000
0001
0000
,
1000
0000
0010
1000
0010
1000
0010
0000
,
0100
0000
0001
0010
0001
0000
1000
0000
,
0010
0000
0100
0000
0001
0000
1000
0100
,
0010
0000
0001
0000
1000
0100
0010
0001
,
1000
1000
1000
0001
,
0001
0001
0110
0000
,
1000
0000
0010
0000
1000
0001
1000
0000
,
0001
0000
0010
0000
0001
1000
0001
0000
,
1000
0000
0010
0000
1000
0100
1000
0000
,
0001
0000
0010
0000
0001
0100
0001
0000
,
1000
0000
0001
0000
1000
0100
0010
0001
,
1000
0000
0001
0000
1000
0010
1000
0000
,
0001
0000
0010
0000
0001
0010
0100
1000
,
0001
0000
1000
0000
0001
0100
0001
0000
,
1000
0000
0001
0100
0001
0000
1000
0010
,
1000
0000
0001
0010
0001
0000
1000
0000
,
0001
0000
0100
0001
0100
0001
0100
0000
,
0010
0000
1000
0100
1000
0000
0001
0000
,
0100
0000
0010
0000
1000
0000
0001
0010
,
0100
0000
1000
0000
0001
0010
0100
1000
,
0001
0001
0001
1000
,
1000
1000
0110
0000
,
2MMM
0MMM
0MMM
0MMM
,
02MM
00MM
00MM
00MM
,
002M
000M
000M
000M
,
0002
0000
0000
3333
,
1111
0000
1001
0100
,
0010
1000
1100
0010
,
0001
0100
1010
0100
,
0001
0011
0000
0100
,
1000
0100
0010
0001
1000
0000
0001
0000
,
1000
0000
0001
0000
0100
0000
0001
1000
,
0100
0010
0001
0100
,
0010
1000
0100
0010
,
0001
1000
1100
0010
,
0001
0100
0110
0100
,
0001
0010
1100
0010
,
0001
0101
0000
0010
,
1000
0010
0100
0001
0100
0000
0010
0000
,
1000
0000
0010
0000
0100
0000
0001
1000
,
0100
0010
0001
1000
,
0100
1000
0001
0100
,
0001
1000
0001
0000
1000
0000
0100
0000
,
0010
0001
1000
0000
0001
0000
0100
0000
,
0010
1000
0001
0010
,
0100
1000
0001
0000
0100
0000
0010
0000
,
1000
0010
0100
0001
,
0010
0100
1000
0100
,
0010
0001
1000
1000
,
0001
0001
1000
1000
,
0010
0000
0010
0000
1000
0100
1000
0001
,
1000
0010
1000
0000
0000
0000
0000
0000
,
1001
0000
0000
0000
0001
0010
0001
1000
,
0001
0100
0001
0000
0000
0000
0000
0000
,
0001
1000
0100
0000
1100
0000
0010
0000
,
0001
0100
0010
1000
,
0100
0010
0100
1000
,
0001
0100
0010
1000
,
0100
0000
0010
0000
0001
0000
1000
0100
,
0010
0000
0001
0010
0100
0000
1000
0100
,
0010
0000
0001
0000
1000
0000
0001
0100
,
0010
0000
1000
0010
0100
0000
0001
0100
,
0010
1000
0001
0001
,
1000
0100
0010
0000
0000
0000
0000
0000
,
1001
0000
0100
0100
,
0001
1000
1000
0100
,
0010
0000
0010
0000
MM01
0010
MM01
0010
,
MM01
0010
MM01
0000
1M0M
0010
1M0M
0010
,
1M0M
0010
1M0M
0000
M0M1
0100
M0M1
0100
,
M0M1
0100
M0M1
0000
10MM
0100
10MM
0100
,
10MM
0100
10MM
0000
0000
0000
0001
0100
,
0001
1000
0100
1000
0001
0100
0001
1000
,
0100
1000
0001
0010
0100
1000
0001
0010
,
0001
1000
0010
1000
0001
0010
0001
1000
,
0010
1000
0001
0010
0100
1000
0001
0100
,
0001
1000
0100
1000
0001
0100
0001
1000
,
0100
1000
0001
0010
0100
1000
0001
0010
,
0001
1000
0010
1000
0001
0010
0001
1000
,
0010
1000
0001
0010
0100
1000
0001
0010
,
0001
0010
0100
1000
0100
1000
0001
0100
,
0001
0100
0010
1000
0010
1000
0001
0010
,
0100
1000
0100
0010
0001
1000
0100
0010
,
0001
0010
0100
1000
0001
0010
0100
1000
,
0100
1000
0001
0010
0001
0010
0001
0100
,
0001
0100
0010
1000
0010
1000
0001
0100
,
0010
1000
0010
0100
0001
1000
0100
0010
,
0001
0010
0100
1000
0001
0100
0001
0010
,
0100
1000
0100
0010
0001
1000
0100
0010
,
0001
0010
0100
1000
0001
1000
0001
0100
,
0010
1000
0010
0100
0001
1000
0010
0100
,
0001
0100
0010
1000
0001
1000
0001
0010
,
0100
0010
0001
1000
0100
0010
0100
1000
,
0001
0010
0100
1000
0001
1000
0001
0100
,
0010
0100
0001
1000
0010
0100
0010
1000
,
0001
0100
0010
1000
0001
1000
0001
0010
,
0100
1000
0100
0010
0001
1000
0010
1000
,
0010
0100
0001
0100
0001
1000
0100
0010
,
0001
0010
0100
1000
0001
0100
0001
0100
,
0010
1000
0010
1000
0001
1000
0001
1000
,
0010
0100
0001
0100
0001
1000
0100
0010
,
0001
0010
0100
1000
0001
0100
0001
0100
,
0010
1000
0010
1000
0001
0010
0100
1000
,
0100
0010
0001
0100
0001
0100
0010
1000
,
0010
1000
0100
0010
0001
0010
0100
1000
,
0001
0010
0001
1000
0100
1000
0001
0010
,
0001
1000
0010
1000
0001
0100
0001
1000
,
0100
0010
0001
0100
0010
1000
2MM2
0000
,
0MM0
0MM0
0MM0
0MM0
,
0MM0
0MM0
0MM0
0MM0
,
0MM0
0MM0
0MM0
0MM0
,
0MM0
0MM0
0MM0
3113
,
MMMM
MMMM
0000
0000
,
0000
0000
0000
0000
,
0000
0000
0000
0000
,
0000
0000
0000
0000
0000
0000
10M1
M000
,
00M1
M100
00M0
1M01
000M
11M0
000M
00M0
,
0M01
M010
000M
01M0
100M
00M1
M100
00M0
,
001M
M100
00M0
M101
000M
1M10
00M0
1M01
,
000M
11M0
0M00
M011
0M00
00M1
0M10
000M
,
M100
10M0
0M10
M001
0M10
010M
M000
01M1
,
000M
1M00
001M
M100
00M1
0M00
10M1
0M00
,
000M
0000
M000
0000
0M01
0010
010M
1000
010M
0010
0001
1000
1001
0000
0000
0000
;
#NOTES:
     dance-single:
     Renard:
     Medium:
     9:
     0.683,0.667,0.181,0.124,0.000:
0000
0000
0000
0000
,
0000
0000
0000
0000
,
0000
0000
0000
0000
,
0000
0000
0000
0000
,
1000
1000
0100
0100
,
0010
0010
0001
0001
,
1000
0010
0100
0001
,
1000
0001
1001
0000
,
0001
0100
0010
1000
,
0100
0010
0001
0010
,
0100
1000
0010
0100
,
0001
0010
0100
0001
,
0100
1000
0010
0100
,
1000
0100
0010
0100
,
0001
0010
0100
0001
,
0100
1000
0001
0000
,
1000
0010
0001
0010
,
0100
1000
0100
0010
,
0100
0001
0010
0100
,
0001
0100
1000
0001
,
0010
0100
0001
0100
,
1000
0010
0001
0010
,
0100
1000
0100
0001
,
0010
0100
1001
0000
,
1000
0010
0100
1000
,
0100
0010
0100
0001
,
0010
0100
0001
0100
,
1000
0010
0100
0001
,
0010
1000
0010
0100
,
0001
0100
1000
0010
,
0100
1000
0100
0010
,
1000
0001
1001
0000
,
1100
0000
1000
0100
,
0010
0001
0010
0100
,
1000
0010
0001
0010
,
0100
0001
0010
0100
,
0001
0100
1000
0001
,
0010
0100
1000
0010
,
0100
0001
1001
0000
,
0100
0010
1010
0000
,
0202
0000
0000
0000
,
0000
0000
0000
0000
,
0020
0000
0000
0000
,
2000
0000
0000
3030
,
1313
0000
0001
1000
,
0100
0010
0001
0000
,
0001
0010
0100
1000
,
0010
0100
0000
0100
,
0010
1000
0100
0000
,
0100
0010
0000
0010
,
0001
0010
0100
0001
,
0100
1000
0000
1000
,
0001
0010
0100
1000
,
0010
0100
0001
0010
,
0100
0010
0001
1000
,
0010
0100
0000
0100
,
0010
1000
0100
0000
,
0100
0010
0100
1000
,
0010
0100
0001
0010
,
0100
0001
0000
0001
,
0100
1000
0010
0100
,
1000
0100
0001
0010
,
0100
0001
0100
1000
,
0001
0010
0100
0001
,
0100
1000
0010
0001
,
0010
1000
0100
0010
,
1000
0010
0001
0010
,
0100
0001
0100
1000
,
0001
0010
0100
0001
,
0100
1000
0010
0100
,
1000
0100
0010
0100
,
0001
0010
0100
0001
,
1000
0010
0001
0010
,
0100
0001
0100
1000
,
0010
0001
1000
0001
,
0010
0100
1000
0100
,
0010
1000
0100
0001
,
0100
1000
0001
0010
,
0100
0001
0100
1000
,
0010
0100
1000
0100
,
0010
0100
0001
1000
,
0100
0001
1000
0010
,
0001
0010
0100
0010
,
0100
0001
0100
1000
,
0010
0100
1000
0001
,
1000
0100
0010
1000
,
0001
0010
1000
0001
,
1000
0010
0001
1000
,
0010
0100
0000
0010
,
1000
0100
0001
0100
,
1000
0010
0100
1000
,
0100
0010
0100
0001
,
0010
0100
0001
0100
,
1000
0001
0010
0100
,
1000
0010
0001
0010
,
0100
1000
0100
0001
,
0010
1001
0000
1100
,
0000
1000
0100
0010
,
0001
1000
0010
0001
,
0010
0100
1000
0100
,
0001
0010
0100
0010
,
1000
0010
0001
1000
,
0010
0100
1000
0100
,
0010
1000
0100
0001
,
0100
1100
0000
1001
,
0000
1000
0010
0100
,
0001
0010
0000
0110
,
0000
0010
0001
0100
,
0010
1000
0000
1010
,
0000
1000
0100
0010
,
0001
0010
0000
0011
,
0000
0010
0100
0110
,
0000
0100
1000
1100
,
0000
1000
0010
0100
,
1000
0100
0001
0010
,
0100
0001
0100
1000
,
0001
0010
0100
1000
,
0010
0100
1000
0100
,
0010
0100
0001
0010
,
0100
0001
0100
1000
,
0010
0100
1000
0001
,
1000
0001
0010
1000
,
0010
1000
0100
0001
,
1000
0001
0100
1000
,
0010
0100
0001
2002
,
0000
0000
0000
0000
,
0000
0000
0000
0000
,
0000
0000
0000
0000
,
0000
0000
0000
0110
,
3003
0000
0000
0000
,
0000
0000
0000
0000
,
0000
0000
0000
0000
,
0000
0000
0000
2MMM
,
01MM
0M1M
0MM1
3MM2
,
MM10
M1M0
1MM0
2MM3
,
01MM
0M1M
0MM1
3MM2
,
MM10
M1M0
1MM0
2MM3
,
0M1M
01MM
0MM1
3MM2
,
MM10
M1M0
1MM0
2MM0
,
0MM0
0MM0
0MM0
3M13
;
#NOTES:
     dance-single:
     Renard:
     Easy:
     7:
     0.537,0.600,0.162,0.105,0.000:
0000
0000
0000
0000
,
0000
0000
0000
0000
,
0000
0000
0000
0000
,
0000
0000
0000
0000
,
1000
0000
1000
0000
,
0001
0000
0001
0000
,
0100
0010
1000
0100
,
0010
0001
1000
0000
,
0001
1000
0001
0100
,
0001
0000
1000
0000
,
0100
1000
0001
1000
,
0010
0000
1000
0000
,
0001
0010
0100
0000
,
1000
0010
0100
0000
,
0001
1000
0010
1000
,
0100
0000
1001
0000
,
1000
0000
0100
1000
,
0001
1000
0010
0000
,
1000
0000
0001
0100
,
0001
0000
0011
0000
,
1001
0000
1000
0100
,
1000
0000
0010
0000
,
1000
0000
1001
0000
,
0100
0000
1001
0000
,
0010
0000
1001
0000
,
1000
0010
0100
0000
,
0010
0000
1001
0000
,
0010
1000
0100
1000
,
0001
0000
1001
0000
,
1000
0010
0100
0000
,
0101
0000
0010
0000
,
1001
0000
0100
0000
,
1001
0000
1000
0010
,
0100
0001
1000
0000
,
1001
0000
1000
0100
,
0010
0001
1000
0000
,
0001
0000
1000
0010
,
1000
0000
0001
0100
,
0001
0000
1000
0000
,
0100
0000
1001
0000
,
0220
0000
0000
0000
,
0000
0000
0000
0000
,
0000
0000
0000
0000
,
0000
0000
0000
0000
,
1331
0000
0010
0000
,
0010
1000
0100
0000
,
0100
1000
0010
1000
,
0001
1000
0000
0001
,
1000
0001
0100
0000
,
0001
0010
0000
0100
,
1000
0001
0100
0010
,
1000
0001
0000
0000
,
0000
0000
1000
0000
,
0100
1000
0001
0000
,
0010
0001
1000
0010
,
0100
0001
0000
1000
,
0100
1000
0001
0000
,
0010
0001
0000
1000
,
0010
1000
0001
0100
,
0001
1000
0000
0000
,
0000
0000
0100
1000
,
0001
0010
0000
0000
,
0001
0000
0010
0100
,
1000
0001
0000
0000
,
0100
0000
1001
0000
,
0000
0000
1000
0000
,
0010
0000
0100
0000
,
0001
0000
1000
0000
,
0100
0000
1000
0001
,
0100
0010
1000
0000
,
0001
0000
0100
0010
,
1000
0001
0010
0000
,
0001
0000
1000
0000
,
0100
0000
1000
0000
,
0001
0000
0100
0000
,
0010
0000
1000
0000
,
0001
0000
0010
0001
,
1000
0100
0010
0001
,
1000
0000
0010
1000
,
0001
0100
0010
1000
,
0001
0000
1000
0100
,
0010
0000
0001
0010
,
0100
0000
1000
0010
,
0100
0001
0100
0010
,
1000
0000
0001
0100
,
0001
0100
0001
1000
,
0001
1000
0010
1000
,
0010
1000
0100
1000
,
0001
1000
0000
0001
,
1000
0100
0010
0001
,
0000
0010
0000
0001
,
0010
0100
1000
0100
,
0000
1000
0000
0010
,
1000
0001
0100
0010
,
0000
1000
0000
0001
,
0100
0010
1000
0001
,
0000
1000
0000
0100
,
1000
0001
0010
0100
,
1000
0001
0000
1000
,
0010
0100
0001
1000
,
0010
1000
0000
0010
,
1000
0001
0100
0010
,
1000
0100
0000
1000
,
0001
0010
0100
1000
,
0001
0100
0000
0001
,
1000
0100
0010
0001
,
0010
0100
0000
1000
,
0100
1000
0010
0100
,
0001
1000
0000
0001
,
0100
0010
1000
0001
,
0010
0100
0010
0001
,
0000
1000
0010
0100
,
0000
0010
1000
0001
,
0000
1000
0100
0010
,
0001
0010
0100
1000
,
0000
0001
0100
0010
,
1000
0001
0010
0001
,
0000
1000
0010
0100
,
0001
1000
0100
0010
,
0000
0100
1000
0010
,
0100
0001
0010
0100
,
0000
0010
0001
0100
,
0010
1000
0100
0010
,
0000
0100
1000
0010
,
0100
0001
0010
0022
,
0000
0000
0000
0000
,
0000
0000
0000
0000
,
0000
0000
0000
0000
,
0000
0000
0000
1000
,
0033
0000
0000
0000
,
0000
0000
0000
0000
,
0000
0000
0000
0000
,
0000
0000
0000
2000
,
0000
0100
0000
3020
,
0000
0100
0000
2030
,
0000
0001
0000
3002
,
0000
0010
1000
0203
,
0000
0010
0001
0302
,
0000
0010
1000
0200
,
0000
0000
0000
0313
;
#NOTES:
     dance-single:
     Renard:
     Beginner:
     7:
     0.510,0.867,0.229,0.220,0.000:
0000
0000
0000
0000
,
0000
0000
0000
0000
,
0000
0000
0000
0000
,
0000
0000
0000
0000
,
0000
0000
0000
0000
,
0000
0000
0000
0000
,
0000
0000
0000
0000
,
0000
0000
0000
0000
,
1000
0000
0100
0000
,
1000
0100
1000
0000
,
0001
0010
0001
0000
,
1000
0010
1000
0000
,
0001
0000
0100
0000
,
0001
1000
0001
0000
,
1000
0100
0010
0001
,
0010
0100
1000
0000
,
0001
0000
0100
0000
,
0010
1000
0010
0000
,
1000
0001
1000
0100
,
1000
0001
0010
0000
,
0001
1000
0001
0100
,
0010
1000
0001
0000
,
1000
0100
0010
0001
,
0010
0100
1000
0000
,
0001
0100
0010
1000
,
0010
0100
0001
0000
,
1000
0100
0010
0001
,
0010
0100
1000
0000
,
0001
0100
0001
0000
,
1000
0100
1000
0000
,
0011
0000
0011
0000
,
0110
0000
0110
0000
,
1100
0000
1000
0100
,
1000
0001
0100
0000
,
0001
0000
1000
0100
,
1000
0001
0100
0000
,
0001
0010
0001
0000
,
1000
0010
1000
0000
,
0001
0100
0010
1000
,
0001
1000
0100
0000
,
2002
0000
0000
0000
,
0000
0000
0000
0000
,
0000
0000
0000
0000
,
0000
0000
0000
0000
,
3013
0000
1000
0000
,
1000
0001
0100
0000
,
0001
1000
0100
1000
,
0001
1000
0000
0001
,
0100
0001
1000
0000
,
1000
0000
0001
0000
,
0001
0000
1000
0000
,
1000
0000
0001
0000
,
0001
0000
1000
0000
,
0010
1000
0001
0000
,
0010
0001
1000
0010
,
1000
0001
0000
0010
,
0001
1000
0010
0000
,
0010
0000
0100
0000
,
0100
0000
0010
0000
,
1000
0000
0001
0000
,
0000
0000
0100
0001
,
0100
0001
0000
0000
,
0000
0000
1000
0100
,
1000
0100
0000
0000
,
1001
0000
0110
0000
,
0000
0000
0010
0000
,
1000
0000
0100
0000
,
0010
0000
0001
0000
,
1000
0000
0010
1000
,
0010
1000
0000
0000
,
0001
0000
0100
0001
,
0100
0001
0000
0000
,
1001
0000
0110
0000
,
0000
0000
0010
1000
,
0010
0000
1000
0001
,
1000
0000
0001
0100
,
0001
0000
0001
1000
,
0100
1000
0001
1000
,
0100
0000
1000
0001
,
1000
0100
1000
0001
,
1000
0000
1001
0000
,
0000
0000
0110
0000
,
0000
0000
0010
1000
,
0010
0000
0100
0001
,
0100
0000
0001
0010
,
0001
0010
0001
0010
,
0001
0010
0100
0010
,
0100
0010
0100
1000
,
0001
1000
0000
0001
,
1000
0100
0000
1000
,
0001
0100
0000
0001
,
1000
0100
0000
1000
,
0001
0100
0000
0001
,
1000
0010
0000
1000
,
0001
0010
0000
1001
,
0000
0000
0000
0110
,
0000
0000
0000
1010
,
0000
0000
0000
1000
,
0010
0100
0000
0110
,
0000
0000
0000
0100
,
0001
0010
0000
0011
,
0000
0000
0000
0010
,
0100
1000
0000
1001
,
0000
1000
0000
0110
,
0000
1000
0000
1001
,
0000
1000
0100
0010
,
0001
1000
0000
1001
,
0000
1000
0001
0010
,
0100
1000
0000
1001
,
0000
0000
0000
1000
,
0000
0010
0000
0100
,
0001
0100
0000
0010
,
1000
0010
0000
1001
,
0000
1000
0010
0100
,
0001
1000
0000
1001
,
0000
1000
0000
0001
,
0000
0010
0000
0100
,
1000
0100
0000
1000
,
0000
0001
0000
0100
,
0001
0100
0000
0001
,
0000
1000
0000
0010
,
1000
0010
0000
1000
,
0001
1000
0000
0001
,
0010
0100
1000
0100
,
0010
0002
2000
0000
,
0000
0000
0000
0000
,
0000
0000
0000
0000
,
0000
0000
0000
0000
,
0000
0000
0000
3013
,
0000
0000
0000
0000
,
0000
0000
0000
0000
,
0000
0000
0000
0000
,
0000
0000
0000
2000
,
0000
3002
0000
0203
,
0320
2030
3200
0320
,
0000
0032
0000
2003
,
3020
0230
0302
0023
,
0000
0230
0000
2300
,
3002
0203
0320
2000
,
0000
0000
0000
3031
;
