#TITLE:Destination Unknown;
#SUBTITLE:;
#ARTIST:Renard;
#TITLETRANSLIT:;
#SUBTITLETRANSLIT:;
#ARTISTTRANSLIT:;
#CRChallenge:;
#BANNER:unknown.png;
#BACKGROUND:unknown-bg.png;
#LYRICSPATH:;
#CDTITLE:;
#MUSIC:unknown.ogg;
#OFFSET:0.000;
#SAMPLESTART:51.140;
#SAMPLELENGTH:12.000;
#SELECTABLE:YES;
#DISPLAYBPM:37.000;
#BPMS:0.000=37.500,64.000=225.000,88.000=150.000;
#STOPS:;
#BGCHANGES:;
#NOTES:
     dance-single:
     Renard:
     Challenge:
     14:
     0.819,1.000,0.208,0.061,1.000:
0000
0000
0000
0000
,
0000
0000
0000
0000
,
1001
0000
0000
0000
0001
0000
0100
0000
0010
0000
0000
0000
0000
0000
0110
0000
0000
0000
0000
0000
1010
0000
0000
0000
1001
0000
0000
0000
0000
0000
0000
0000
0000
0000
1000
0000
0100
0000
0010
0000
0001
0000
0000
0000
0001
0000
0010
0000
0000
0000
0010
0000
0100
0000
0000
0000
1000
0000
1000
0100
0000
0100
0010
0000
,
0001
0000
0000
0000
0001
0000
0010
0000
0100
0000
0000
0000
0000
0000
0110
0000
0000
0000
0000
0000
0100
0000
1000
0000
0010
0000
0001
0000
0010
0000
0000
0000
0000
0000
0010
0000
1000
0000
0010
0000
0100
0000
0000
0000
1000
0000
0100
0000
0000
0000
0001
0000
0100
0000
0010
1000
0001
0000
0000
0000
0000
0000
0000
0000
,
0001
0010
1000
0001
0100
1000
0001
0010
1000
0001
0100
1000
0001
0010
1000
0001
0100
1000
0001
0010
1000
0001
0100
1000
0001
0010
1000
0001
0100
1000
0001
0010
1000
0001
0100
1000
0001
0010
1000
0001
0100
1000
0001
0010
1000
0001
0100
1000
,
0100
1000
0010
0100
0001
0010
0100
0010
0001
0100
0010
1000
0100
0010
0100
1000
0010
0001
0010
0100
1000
0100
0001
0010
0100
0001
0100
1000
0010
0100
1000
0100
0001
0010
0100
0001
0100
1000
0010
0100
1000
0100
0010
0100
0001
0010
0100
1000
,
0001
0000
0002
0000
0100
0000
0200
0000
0010
0000
0020
0000
1333
0000
0000
0000
0000
0000
0001
0001
1000
0000
0100
0100
1000
0000
0001
0010
0100
1000
0001
0000
1000
0000
2000
0000
0100
0000
0200
0000
0010
0000
0020
0000
3331
0000
0000
0000
0100
1000
0010
0100
0001
0010
0100
1000
0100
0010
0001
0100
0010
1000
0001
0000
,
1001
0000
0010
0100
0000
0100
0010
0000
0010
0100
0000
0100
0010
0000
0100
0000
0000
0000
0001
0100
0010
0000
1000
0100
0010
0000
0100
1000
0100
0001
0100
0000
1000
0000
1000
0001
0000
0001
0010
0000
0010
0100
0000
0100
0001
0000
0100
0000
1000
0100
1000
0001
0100
0010
1000
0001
0010
1000
0010
0001
1000
0000
0000
0000
,
1012
0000
0100
1010
0000
0000
0100
0000
1010
0100
0010
1000
1100
0000
1000
0010
,
0110
0000
0000
0000
1000
0000
0000
0000
0110
0000
1000
0010
0100
0000
0010
0000
0000
0000
1010
0000
0100
0000
0010
1000
0103
0000
0000
0000
0000
0000
0000
0000
,
0001
0010
0100
1000
0001
0100
0010
1000
0100
0010
0100
1000
0010
0100
0001
0010
0100
0010
0001
0100
0010
1000
0100
0010
0001
0010
0100
1000
0001
0100
0010
1000
0100
0010
0001
0010
0100
1000
0001
0010
0100
1000
0001
0100
0010
1000
0100
0010
0100
1000
0010
0100
0001
0010
0100
1000
0100
0010
0001
0010
0100
1000
0001
0100
,
0010
1000
0100
0010
0001
0010
0100
1000
0001
0100
0010
0100
0001
0010
0100
0010
0100
0010
0001
0100
0010
1000
0100
0010
0100
0010
0100
1000
0010
0100
0010
0100
0001
0100
0010
0100
0001
0010
0100
0010
0001
0010
0001
0010
0100
0010
0001
0010
0100
1000
0100
1000
0100
1000
0010
0100
0010
1000
0100
0010
0100
0010
0100
1000
,
0001
0010
0100
0001
0100
1000
0010
0100
1000
0100
0010
0100
0001
0010
0100
0001
0100
0010
0001
0100
0010
0100
0001
0100
0010
1000
0100
0010
0001
0010
1000
0010
0001
0010
0100
0001
0100
1000
0010
0100
1000
0100
0010
0100
0001
0010
0100
0001
0100
0010
0001
0100
0010
1000
0100
0010
0100
1000
0010
0100
0001
0010
0100
0001
,
0100
0010
0001
0100
0010
1000
0100
0010
1000
0010
0001
0010
1000
0010
0001
0010
0100
0001
0100
1000
0001
0100
0010
0100
1000
0100
0010
0100
0001
0100
0010
0100
0001
1000
0100
0010
0001
0010
1000
0010
0100
0010
0001
0010
1000
0010
0001
0010
0100
0010
0001
0010
0100
1000
0100
0010
0001
1000
0010
0100
0001
1000
0010
0100
,
0110
0000
0001
0000
0110
0000
1000
0000
0110
0000
1001
0000
0110
0000
0000
0000
0000
0000
0010
0010
0100
0000
0010
0010
0100
0000
0010
0100
0001
0100
0010
0000
1010
0000
0100
0000
0011
0000
0100
0000
1010
0000
0100
0000
0011
0000
0000
0000
0001
1000
0100
1000
0001
1000
0010
1000
0001
0010
1000
0010
0001
1000
0001
0000
,
1100
0000
0010
0001
0000
1000
0010
0000
0001
0010
0000
1000
0100
0000
0001
0000
0000
0000
0100
1000
0001
0000
0010
0100
1000
0000
0001
0100
0010
1000
0010
0000
1000
0000
0010
0001
0000
0010
0100
0000
1000
0100
0000
0001
0100
0000
0010
0000
0100
0001
0100
0010
1000
0100
0010
0001
0010
0100
1000
0010
0100
0000
0000
0000
,
0001
0000
0000
0000
0000
0000
0001
0000
0000
0100
0000
0000
0010
0000
0000
0000
0000
0000
0010
0000
0000
0000
0000
0000
1000
0000
0000
0000
0000
0000
1000
0000
,
0000
0100
0000
0000
0010
0000
0000
0000
0000
0000
0010
0000
0000
0000
0000
0000
0001
0000
0000
0000
0000
0000
0001
0000
0000
0100
0000
0000
0010
0000
0000
0000
,
0000
0000
0010
0000
0000
0000
0000
0000
1000
0000
0000
0000
0000
0000
1000
0000
0000
0100
0000
0000
0010
0000
0000
0000
0000
0000
0001
0000
0000
0000
0000
0000
,
0001
0000
0000
0000
0000
0000
0100
0000
0000
0010
0000
0000
1000
0000
0000
0000
0000
0000
1000
0000
0000
0000
0000
0000
0100
0000
0000
0000
0000
0000
0010
0000
,
0000
0001
0000
0000
0010
0000
0000
0000
0000
0000
0001
0000
0000
0000
0000
0000
0010
0000
0000
0000
0000
0000
0010
0000
0000
0100
0000
0000
1000
0000
0000
0000
,
0000
0000
0001
0000
0000
0000
0000
0000
0100
0000
0000
0010
0000
0000
1000
0000
0000
0100
0000
0000
0010
0000
0000
0001
0000
0000
0010
0000
0000
0100
0000
0000
,
1100
0000
0000
0000
;
#NOTES:
     dance-single:
     Renard:
     Medium:
     9:
     0.532,0.621,0.104,0.009,1.000:
0000
0000
0000
0000
,
0000
0000
0000
0000
,
1001
0000
0000
0000
0001
0000
0100
0000
0010
0000
0000
0000
0000
0000
0110
0000
0000
0000
0000
0000
1010
0000
0000
0000
1001
0000
0000
0000
0000
0000
0000
0000
0000
0000
1000
0000
0100
0000
0010
0000
0001
0000
0000
0000
0001
0000
0010
0000
0000
0000
0010
0000
0100
0000
0000
0000
1000
0000
1000
0100
0000
0100
0010
0000
,
0001
0000
0000
0000
0001
0000
0010
0000
0100
0000
0000
0000
0000
0000
0110
0000
0000
0000
0000
0000
0100
0000
1000
0000
0010
0000
0001
0000
0010
0000
0000
0000
0000
0000
0010
0000
1000
0000
0010
0000
0100
0000
0000
0000
1000
0000
0100
0000
0000
0000
0001
0000
0100
0000
0010
1000
0001
0000
0000
0000
0000
0000
0000
0000
,
0001
0000
0001
0100
0000
0100
0010
0000
0010
1000
0000
1000
0100
0000
0100
0010
0000
0010
0001
0000
0001
0010
0000
0010
0100
0000
0100
1000
0000
1000
0010
0000
0010
0100
0000
0100
0001
0000
0001
1000
0000
1000
0100
0000
0100
1000
0000
1000
,
0001
0000
0001
0010
0000
0010
0100
0000
0100
1000
0000
1000
0010
0000
0010
0100
0000
0100
0001
0000
0001
0100
0000
0100
0010
0000
0010
1000
0000
1000
0100
0000
0100
0010
0000
0010
0001
0000
0001
0100
0000
0100
0010
0000
0010
1000
0000
0000
,
0001
1000
0100
0010
0001
0010
0100
1000
0000
0100
0100
1000
1000
0100
0100
1000
0100
1000
0100
0010
0001
1000
0010
0000
0100
0100
0001
0001
0100
0100
0001
0001
,
0100
0010
1000
0100
0010
0001
0010
0100
0000
0010
0010
0001
0001
1000
1000
0010
1000
1000
0010
0010
1000
0001
0100
0010
0000
1000
0100
0010
0001
1000
0001
0000
,
1012
0000
0100
1010
0000
0000
0100
0000
1010
0100
0010
1000
1100
0000
1000
0010
,
0110
0000
0000
0000
1000
0000
0000
0000
0110
0000
1000
0010
0100
0000
0010
0000
0000
0000
1010
0000
0100
0000
0010
1000
0103
0000
0000
0000
0000
0000
0000
0000
,
0001
0100
0010
1000
0100
0010
0001
0010
0100
1000
0010
0100
0001
0010
0100
0010
0001
0100
0010
1000
0100
0010
0100
1000
0010
0100
0001
0010
0100
1000
0100
0010
,
0001
0100
0010
1000
0100
0010
0100
1000
0001
0010
0100
0010
0001
0100
0010
1000
0100
0010
0001
0010
0100
1000
0001
0010
0100
1000
0010
0100
0001
0100
0010
1000
,
0100
0001
0100
1000
0010
0001
0010
0100
1000
0100
0001
0010
0100
0001
0100
1000
0010
0001
0010
0100
1000
0100
0001
0010
0100
0001
0100
1000
0001
0010
1000
0010
,
0001
0010
0100
0001
0100
1000
0010
0001
0010
0100
1000
0100
0001
0010
0100
0001
0100
1000
0010
0100
0001
0010
0100
0001
0100
1000
0010
0100
0001
0010
0100
0000
,
1000
1000
1000
1000
1000
1000
1000
0000
0000
0001
0100
0010
1000
0001
0100
0010
1000
1000
1000
1000
1000
1000
1000
0000
0001
0100
0010
1000
0001
0100
0010
1000
,
0001
0001
0001
0001
0001
0001
0001
0001
0000
1000
0010
0100
0001
0100
0010
1000
0001
0001
0001
0001
0001
0001
0001
0001
0000
0100
0010
1000
0001
0100
0010
0000
,
1000
0000
0000
0000
0000
0000
1000
0000
0000
0010
0000
0000
0100
0000
0000
0000
0000
0000
0100
0000
0000
0000
0000
0000
0001
0000
0000
0000
0000
0000
0001
0000
,
0000
0010
0000
0000
0100
0000
0000
0000
0000
0000
0100
0000
0000
0000
0000
0000
1000
0000
0000
0000
0000
0000
1000
0000
0000
0010
0000
0000
0100
0000
0000
0000
,
0000
0000
0100
0000
0000
0000
0000
0000
0001
0000
0000
0000
0000
0000
0001
0000
0000
0010
0000
0000
0100
0000
0000
0000
0000
0000
1000
0000
0000
0000
0000
0000
,
1000
0000
0000
0000
0000
0000
0010
0000
0000
0100
0000
0000
0001
0000
0000
0000
0000
0000
0001
0000
0000
0000
0000
0000
0010
0000
0000
0000
0000
0000
0100
0000
,
0000
1000
0000
0000
0100
0000
0000
0000
0000
0000
1000
0000
0000
0000
0000
0000
0100
0000
0000
0000
0000
0000
0100
0000
0000
0010
0000
0000
0001
0000
0000
0000
,
0000
0000
1000
0000
0000
0000
0000
0000
0010
0000
0000
0100
0000
0000
0001
0000
0000
0010
0000
0000
0100
0000
0000
1000
0000
0000
0100
0000
0000
0010
0000
0000
,
0001
0000
0000
0000
;
#NOTES:
     dance-single:
     Renard:
     Easy:
     7:
     0.387,0.544,0.000,0.000,0.851:
0000
0000
0000
0000
,
0000
0000
0000
0000
,
0001
1000
0100
1000
0001
0000
0000
1000
0000
0000
0001
0000
0100
0000
0000
0000
0001
1000
0100
1000
0001
0000
0000
1000
0000
0000
0001
0000
0100
0000
0000
0000
,
0001
1000
0100
1000
0001
0000
0000
1000
0000
0000
0001
0000
0100
0000
0000
0000
0001
1000
0100
1000
0001
0000
0000
0000
0100
0000
0001
0000
1000
0000
0000
0000
,
0001
0000
1000
0000
0100
0000
0010
0000
0001
0000
1000
0000
0001
0100
0001
0000
1000
0000
0001
0000
0100
0000
0010
0000
1000
0000
0100
0000
1000
0001
1000
0000
,
0001
0000
0100
0000
0010
0000
1000
0000
0001
0000
1000
0000
0100
1000
0100
0000
1000
0000
0001
0000
0100
0000
0010
0000
1000
0000
0001
0000
0010
0001
0010
0000
,
0001
0000
1000
0000
0001
0000
1000
0000
0000
0001
0100
0001
0100
0001
0100
0000
0001
0000
1000
0000
0001
0000
1000
0000
0000
0001
0100
0001
0100
0001
0100
0000
,
0001
0000
1000
0000
0001
0000
1000
0000
0000
0001
0100
0001
0100
0001
0100
0000
0001
0000
1000
0000
0001
0000
1000
0000
0000
0001
0100
0001
0100
0001
0100
0000
,
0001
0001
1000
0100
0000
0100
1000
0000
1000
0001
0001
0100
0000
0100
0001
0000
,
0001
1000
1000
0100
0000
1000
0001
0000
0100
0100
0001
1000
0100
0000
0000
0000
,
1000
0100
1000
0100
1000
0100
1000
0100
0010
0001
0010
0001
0010
0000
0001
0000
0100
0001
0100
0001
0100
0001
0100
0001
1000
0010
1000
0010
1000
0000
0010
0000
,
1000
0100
1000
0100
1000
0100
1000
0100
0010
0001
0010
0001
0010
0000
0001
0000
0100
0001
0100
0001
0100
0001
0100
0001
1000
0010
1000
0010
1000
0000
0010
0000
,
1000
0010
1000
0000
0001
0100
0001
0000
1000
0100
1000
0000
0001
0010
0001
0000
1000
0100
1000
0000
0001
0100
0001
0000
1000
0010
1000
0000
0001
0010
0001
0000
,
1000
0100
1000
0100
1000
0100
1000
0000
0001
0000
0100
0000
0010
0000
1000
0000
0001
0010
0001
0010
0100
1000
0100
1000
0001
0000
1000
0000
0100
0000
1000
0000
,
0001
0000
0001
0000
0001
0000
0001
0000
0000
1000
0100
1000
0100
1000
0100
1000
0001
0000
0001
0000
0001
0000
0001
0000
1000
0100
0010
0001
0010
0100
1000
0001
,
1000
0000
1000
0000
1000
0000
1000
0000
0000
0001
0010
0100
1000
0100
0010
0001
1000
0000
1000
0000
1000
0000
1000
0000
0001
0010
0100
1000
0100
0010
0001
0000
,
1000
0000
0000
1000
0000
0000
0001
0000
0000
0001
0000
0000
1000
0000
0000
1000
,
0000
0000
0001
0000
0000
0001
0000
0000
0100
0000
0000
0100
0000
0000
0010
0000
,
0000
0010
0000
0000
0100
0000
0000
0100
0000
0000
0010
0000
0000
0010
0000
0000
,
1000
0000
0000
1000
0000
0000
0001
0000
0000
0001
0000
0000
1000
0000
0000
1000
,
0000
0000
0001
0000
0000
0001
0000
0000
0100
0000
0000
0100
0000
0000
0010
0000
,
0000
0010
0000
0000
0100
0000
0000
0100
0000
0000
0010
0000
0000
0010
0000
0000
,
1000
0000
0000
0000
;
#NOTES:
     dance-single:
     Renard:
     Beginner:
     1:
     0.112,0.162,0.096,0.104,0.035:
0000
0000
0000
0000
,
0000
0000
0000
0000
,
0001
1000
0001
1000
,
0010
0100
0010
0100
,
0002
0000
2003
0000
,
3002
0000
2003
0000
,
3010
0000
0100
0000
,
1001
0000
0110
0000
,
0010
1010
0001
0101
,
0001
0011
0100
1100
,
2000
3020
0230
0302
,
2003
3200
0320
0032
,
1003
1001
0001
1001
,
1000
1001
0001
1001
,
0001
0001
0001
0001
0000
0000
0000
0000
0001
0001
0001
0001
0000
0000
0000
0000
,
0001
0001
0001
0001
0000
0000
0000
0000
0001
0001
0001
0001
0000
0000
0000
0000
,
1000
0000
0000
0001
,
0000
0000
1000
0000
,
0000
0001
0000
0000
,
0100
0000
0000
0010
,
0000
0000
0000
0000
0100
0000
0000
0010
,
0000
0000
1000
0000
0000
0100
0000
0000
,
1001
0000
0000
0000
;
