#TITLE:Destination Helios;
#SUBTITLE:;
#ARTIST:zeta vs Renard;
#TITLETRANSLIT:;
#SUBTITLETRANSLIT:;
#ARTISTTRANSLIT:;
#CRChallenge:;
#BANNER:helios-banner.avi;
#BACKGROUND:helios-bg.png;
#LYRICSPATH:;
#CDTITLE:!cdtitle.png;
#MUSIC:helios.ogg;
#OFFSET:0.040;
#SAMPLESTART:4.293;
#SAMPLELENGTH:12.000;
#SELECTABLE:YES;
#BPMS:0.000=418.000,293.000=209.000,323.000=418.000,585.000=627.000,633.000=209.002;
#STOPS:0.000=0.040
,288.000=2.010
,290.000=1.866
,323.000=0.287
,453.000=0.861
,583.000=0.861
;
#BGCHANGES:;
#NOTES:
     dance-single:
     Renard:
     Hard:
     14:
     1.000,1.000,0.294,0.045,0.067:
0000
0000
0000
0000
,
0000
0000
0000
0000
,
0000
0000
0000
0000
,
0000
0000
0000
0000
,
0000
0000
0000
0000
,
0000
0000
0000
0000
,
M000
0M00
00M0
000M
00M0
0M00
M000
0M00
,
00M0
000M
00M0
0M00
M000
0M00
00M0
000M
,
1000
0100
0010
0001
,
1000
0000
0001
0000
0100
0000
0001
0010
,
0001
0010
0100
1000
,
0010
0100
0001
1000
,
0100
1000
0010
0100
,
0001
0000
0010
0000
0001
0000
1000
0001
,
1000
0010
0100
0001
,
1000
0100
0010
0001
,
1000
0010
0100
0001
,
0100
0000
0001
0000
1000
0000
0100
0010
,
0100
1000
0010
0100
,
0001
0010
0100
1000
,
0001
0100
0010
1000
,
0100
0000
0010
0000
0001
0000
0010
0100
,
0010
0001
1000
0010
,
0100
0000
0001
0000
1000
0001
1000
0001
,
1000
0100
0010
0001
,
1000
0000
0001
0000
0100
0000
0001
0010
,
0001
0010
0100
1000
,
0010
0100
0001
1000
,
0100
1000
0010
0100
,
0001
0000
0010
0000
0001
0000
1000
0001
,
1000
0010
0100
0001
,
1000
0100
0010
0001
,
1000
0010
0100
0001
,
0100
0000
0001
0000
1000
0000
0100
0010
,
0100
1000
0010
0100
,
0001
0010
0100
1000
,
0001
0100
0010
1000
,
0100
0000
0010
0000
0001
0000
0010
0100
,
0010
0001
1000
0010
,
0100
0000
0001
0000
1000
0001
1000
0001
,
1000
0000
0100
0000
1000
0000
0010
0100
,
0000
0010
0100
0000
0010
0000
1000
0000
,
0100
0000
0010
0000
0001
0000
1000
0001
,
1000
0010
0100
0001
,
1000
0000
0100
0000
0010
0000
0001
1000
,
0000
0001
1000
0000
0001
0000
0100
0000
,
0010
1000
0010
0000
0100
0001
0100
0000
,
0001
1000
0001
0000
1000
0100
1000
0000
,
0001
0000
0010
0000
0001
0000
1000
0100
,
0000
1000
0100
0000
0010
0000
0001
0000
,
1000
0000
0010
0000
0100
0000
0001
0100
,
0000
0010
1000
0000
0001
0000
0100
0000
,
0010
0000
1000
0000
0100
0000
0010
0001
,
0000
1000
0100
0000
0010
0001
0010
0000
,
0100
1000
0100
0010
0001
1000
0010
0100
,
0001
0100
0010
1000
0001
0010
0100
1000
,
0001
0010
0001
1000
0100
1000
0001
0100
,
0001
1000
0010
1000
0001
0010
0001
1000
,
0100
1000
0001
0100
0001
1000
0010
1000
,
0001
0010
0100
1000
0100
0010
0001
1000
,
0001
0100
0010
1000
0010
0100
0001
1000
,
0100
0010
0001
0010
0100
1000
0001
0100
,
0001
1000
0100
1000
0001
0010
0001
1000
,
0010
1000
0001
0100
0001
1000
0100
0010
,
0001
0010
0100
1000
0001
0010
0100
1000
,
0001
0100
0010
1000
0001
0100
0010
1000
,
0001
0010
0100
0010
0001
1000
0100
0010
,
0100
1000
0001
0010
0100
1000
0001
1000
,
0001
0100
0010
1000
0001
0100
0010
1000
,
0001
0010
0100
1000
0001
0010
0100
1000
,
0100
0010
0001
1000
0100
0010
0100
1000
,
0001
0010
0100
1000
0001
0010
0100
2000
,
0MM2
0MM0
0MM0
0MM0
3M13
MMMM
0000
0000
,
1000
0100
M01M
0000
M01M
0000
MM01
0000
,
1MM0
0000
0010
1000
0M1M
0000
0000
0000
M10M
0000
0000
0000
M0M1
0000
0000
0000
,
10MM
0000
0100
0010
M001
0000
0000
0000
1MM0
0000
0001
0000
M0M0
0000
0100
0000
,
M00M
0010
0M0M
0000
10MM
0000
MM1M
0000
,
M1M0
0001
M1M0
0000
M01M
0000
1M0M
0000
,
01MM
0000
1000
0100
10MM
0000
0000
0000
M1MM
0000
0000
0000
1M0M
0000
0000
0000
,
M01M
M1MM
M1M0
MMM1
,
1MMM
M1MM
M01M
1M11
,
0000
M011
0100
1000
,
011M
1000
0010
1M01
,
0000
0100
0001
M110
,
1000
01M1
0000
1M1M
,
0000
M1M1
0010
1000
,
01M1
0010
1M01
0100
,
101M
0000
0000
M101
,
0010
1M01
0000
101M
,
0100
10M1
0100
0010
,
101M
0100
0001
M101
,
0001
1000
1MM1
0100
,
0010
M11M
1000
01M1
,
0000
0000
1MM1
0000
1000
0000
0001
0100
,
0001
0000
1000
0100
0010
0001
1000
0000
,
0001
0000
1000
0000
0001
1000
0001
1000
,
0001
0000
0100
0000
0010
1000
0010
1000
,
0010
0000
1000
0000
0001
0100
0001
0000
,
0100
0000
0010
0100
0010
0000
1000
0000
,
0010
1000
0010
0000
1000
0000
0100
0000
,
0010
0000
0001
0000
1000
0000
0010
0100
,
0001
0100
0010
0000
1000
0000
0100
0000
,
10M1
0010
M101
1000
,
01M1
0000
0010
1000
,
0100
0000
0010
0000
0001
0000
1000
0001
,
1000
0001
1000
0000
0100
0000
1000
0000
,
1001
0000
0100
1010
,
0000
0000
0100
0000
0100
0000
0001
1000
,
0001
1000
0001
0000
0010
0100
1000
0000
,
0001
1000
0000
0101
,
0000
0010
1000
0100
,
0010
0000
0001
0010
0100
1000
0001
0000
,
1000
0100
0010
0001
1000
0000
0001
0000
,
0100
0000
1MM1
0000
MMMM
0000
M001
0M10
,
M001
0M10
M001
0M10
M001
0M10
M001
0M10
,
M001
0M10
M001
0M10
M001
0010
010M
10M0
,
010M
10M0
010M
10M0
010M
10M0
010M
10M0
,
010M
10M0
010M
10M0
010M
1000
00M1
M100
,
00M1
M100
00M1
M100
00M1
M100
00M1
M100
,
00M1
M100
00M1
M100
00M1
0100
001M
1M00
,
001M
1M00
001M
1M00
001M
1M00
001M
1M00
,
001M
1M00
001M
1M00
001M
1000
0M01
10M0
,
0M01
10M0
0M01
10M0
0M01
10M0
0M01
10M0
,
0M01
10M0
0M01
10M0
0M01
1000
001M
M100
,
001M
M100
001M
M100
001M
M100
001M
M100
,
001M
M100
001M
M100
001M
0100
M001
01M0
,
M001
01M0
M001
01M0
M001
01M0
M001
01M0
,
M001
01M0
M001
01M0
M001
0100
001M
1M00
,
001M
1M00
001M
1M00
001M
1M00
001M
1M00
,
001M
1M00
001M
1M00
001M
1000
0M01
0010
,
0100
100M
0100
0010
0M01
1000
0100
M010
,
0001
0010
010M
1000
0001
M010
0100
1000
,
010M
0010
0001
10M0
0100
0010
M001
0010
,
0100
10M0
0001
0100
001M
1000
0010
M100
,
0001
1000
001M
0100
0001
M100
0010
1000
,
00M1
0100
0010
100M
0010
0100
00M1
1000
,
0010
M100
0001
0100
001M
1000
0001
0M10
,
0001
1000
01M0
1000
0001
1M00
0001
1000
,
001M
1000
0001
01M0
0001
1000
0M01
1000
,
0100
10M0
0001
0010
0M01
1000
0001
01M0
,
0001
1000
0M10
1000
0100
10M0
0001
0010
,
M001
0100
0001
10M0
0100
0010
0M01
1000
,
0001
M100
0010
1000
0M01
0010
0100
100M
,
0010
0100
00M1
1000
0001
M100
0010
1000
,
010M
0010
0001
M010
0100
1000
001M
0100
,
0001
10M0
0100
0010
0M01
1000
2MM2
0000
,
0MM0
3M13
0000
0000
,
0000
0000
0000
0000
,
0000
0000
0000
0000
,
0000
0000
0000
0000
,
0000
0000
0000
0000
,
0000
0000
0000
0000
,
0000
0000
0000
0000
,
0000
0000
0000
0000
,
0000
0000
0000
0000
,
0000
0000
0000
0000
,
0000
0000
0000
0000
,
0000
0000
0000
0000
,
0000
0000
0000
MMM1
0000
0001
1MM0
0000
0000
M1MM
0000
0000
,
MM10
0000
0001
1MM0
0000
0010
M10M
0000
0000
M11M
0000
0000
,
MM1M
0000
0000
1MMM
0000
1000
01MM
0000
0000
MM1M
0000
0000
,
0MM1
0000
1000
0M1M
0000
0100
M0M1
0000
0000
M1M1
0000
0000
,
M1MM
0000
0000
MM1M
0000
0010
1M0M
0000
0000
M11M
0000
0000
,
MM1M
0000
0001
1MM0
0000
0010
M10M
0000
0000
M11M
0000
0000
,
MM1M
0000
0000
0000
0000
0000
0000
0000
10M0
0000
0000
0M10
0000
0000
010M
0000
0000
0M01
0000
0000
0200
0000
0000
0000
0000
0000
0000
0000
0000
0000
0000
0000
,
0000
0000
0310
0000
;
#NOTES:
     dance-single:
     Renard:
     Challenge:
     16:
     1.000,1.000,0.365,0.027,0.053:
0000
0000
0000
0000
,
0000
0000
0000
0000
,
0000
0000
0000
0000
,
0000
0000
0000
0000
,
0000
0000
0000
0000
,
0000
0000
0000
0000
,
M000
0M00
00M0
000M
00M0
0M00
M000
0M00
,
00M0
000M
00M0
0M00
M000
0M00
00M0
000M
,
1000
0000
0100
0001
0100
0000
1000
0000
,
0010
0000
0100
0000
0001
0000
0010
1000
,
0010
0100
0001
0100
,
1000
0000
0010
0001
0010
0000
0100
0000
,
0001
0000
1000
0001
1000
0000
0100
0000
,
0001
0000
0100
0000
0010
0000
0001
1000
,
0001
0010
0100
0001
,
0100
0000
1000
0000
0010
0001
0010
0000
,
0100
0000
0001
0100
0001
0000
0100
0000
,
0010
0000
1000
0000
0100
0000
0010
1000
,
0010
0000
0001
0010
0001
0000
0010
0000
,
0100
0000
1000
0001
1000
0000
0010
0000
,
0100
0000
0001
0100
0001
0000
0100
0000
,
1000
0100
1000
0000
0100
0000
0010
1000
,
0010
0100
0001
0100
,
0100
0000
0001
0000
0010
0001
0010
0000
,
0001
0000
0010
1000
0010
0000
0001
0000
,
0100
0000
0010
0000
1000
0000
0100
0001
,
0100
0010
1000
0010
,
0001
0000
0100
1000
0100
0000
0010
0000
,
1000
0000
0001
1000
0001
0000
0010
0000
,
1000
0000
0010
0000
0100
0000
1000
0001
,
1000
0100
0010
1000
,
0010
0000
0001
0000
0100
1000
0100
0000
,
0010
0000
1000
0010
1000
0000
0010
0000
,
0100
0000
0001
0000
0010
0000
0100
0001
,
0100
0000
1000
0100
1000
0000
0100
0000
,
0010
0000
0001
1000
0001
0000
0100
0000
,
0010
0000
1000
0010
1000
0000
0010
0000
,
0001
0010
0001
0000
0010
0000
0100
0001
,
0100
0010
1000
0010
,
0010
0000
1000
0000
0100
1000
0100
0000
,
1000
0000
0100
0000
0001
0000
0100
0010
,
0000
0001
0010
0000
0100
0000
1000
0000
,
0010
0000
0100
0000
0001
0000
1000
0100
,
0010
0001
0010
1000
,
0010
0000
0100
0000
1000
0000
0010
0001
,
0000
0010
0100
0000
0001
0000
0100
0000
,
0010
1000
0010
0000
0100
0001
0100
0000
,
0010
1000
0010
0000
0001
0010
0001
0000
,
0010
0000
0100
0000
0001
0000
1000
0100
,
0000
1000
0010
0000
0001
0000
0010
0000
,
0100
0000
0001
0000
0010
0000
1000
0010
,
0000
0010
0100
0000
1000
0000
0010
0000
,
0100
0000
0001
0000
0100
0000
0001
0010
,
0000
0001
1000
0000
0001
0100
0001
0000
,
0010
0001
0010
0100
1000
0001
0100
0010
,
1000
0010
0100
0001
1000
0100
0010
0001
,
1000
0100
0010
0001
1000
0001
0010
0100
,
1000
0001
1000
0010
0100
0001
0010
0100
,
1000
0010
0100
0001
0010
0001
0100
0010
,
1000
0100
1000
0010
0100
0001
0010
0001
,
0010
0100
0010
0100
1000
0100
1000
0010
,
0100
0001
0010
0001
0100
0010
1000
0100
,
1000
0010
0100
0001
1000
0100
0010
0001
,
0100
0010
1000
0100
1000
0010
0100
0001
,
0010
0001
0100
0010
1000
0100
0010
0001
,
0010
0001
0010
1000
0010
1000
0010
0100
,
0010
0100
1000
0100
1000
0100
0001
0100
,
0001
0100
0010
0001
0010
0001
0100
0001
,
0100
0001
0100
1000
0100
1000
0100
0010
,
0100
0010
1000
0010
1000
0010
1000
0001
,
1000
0001
1000
0100
0010
0001
0010
1000
,
0010
0001
0010
0100
1000
0001
0100
0002
,
2MM0
0MM0
0MM0
0MM0
31M3
MMMM
0000
0000
,
0001
0010
010M
10M0
0M01
10M0
1M01
00M1
,
M100
001M
1M00
01M0
001M
M001
0M11
M010
,
010M
10M0
00M1
M100
001M
1M00
101M
1M00
,
01M0
M01M
M0M1
M100
001M
1M00
101M
1M00
,
01M0
001M
M001
M1M0
M0M1
M100
01M1
M100
,
0M1M
10MM
M10M
MM10
MMM1
1MMM
11MM
1MMM
,
M01M
M100
M001
0M10
M100
10M0
1M01
00M1
,
M100
001M
10M0
01MM
001M
M000
11M1
0000
,
0000
11MM
0010
MM01
,
M11M
MM01
01MM
1MM1
,
0000
M01M
1MM0
M11M
,
0MM1
1M1M
M0M0
M1M1
,
0M0M
1M1M
M1M0
0M01
,
1M1M
01MM
1MM1
0010
,
M1M1
M0M0
0M0M
1M1M
,
01MM
1MM1
0MM0
M1M1
,
M010
1MM1
M010
M10M
,
M1M1
M01M
1M00
1M1M
,
1M0M
0MM1
1MM1
M01M
,
01M0
M11M
M0M1
1M10
,
0MMM
0000
1MM1
0000
M0M1
0000
1M0M
0010
,
1000
0000
0001
0010
0100
1000
0001
0000
,
1000
0000
0001
0000
1000
0001
1000
0001
,
1000
0000
0010
0000
0100
0001
0100
0001
,
0100
0000
0001
0000
1000
0001
1000
0000
,
0010
0000
0001
0010
0100
0000
0001
0000
,
0100
1000
0100
0000
0001
0000
0010
0000
,
1000
0000
0010
0000
0100
0000
1000
0100
,
0001
0100
1000
0000
0001
0000
0010
0000
,
1MM1
M1MM
1M1M
MMM1
,
1M1M
0000
0100
0001
,
0010
0000
0100
0000
1000
0000
0001
0010
,
1000
0010
0001
0000
M010
0000
0MM1
0000
,
1MM1
M00M
0M10
01M1
,
M0M0
0000
0M1M
0000
0M10
0000
1000
0010
,
0001
0010
1000
0000
0100
0010
0001
0000
,
1MM0
M0M1
0M0M
1M10
,
M00M
01M0
M001
0M10
,
M100
0000
1000
0010
0001
0010
1000
0000
,
0001
0010
1000
0010
0001
0000
1000
0000
,
0010
0000
1MM1
0000
MMMM
0000
1000
0100
,
0001
0100
1000
0100
0001
0100
1000
0010
,
0001
0010
1000
0010
0001
0010
1000
0100
,
0010
0100
1000
0100
0010
0100
0010
0001
,
0010
0100
0010
0001
0010
0100
1000
0100
,
0001
0100
1000
0100
0001
0100
1000
0010
,
0001
0010
1000
0010
0001
0010
0100
0001
,
0100
0010
0100
0001
0100
0010
1000
0010
,
0100
0010
1000
0010
0100
0010
0001
0010
,
1000
0010
0001
0010
1000
0010
0001
0010
,
0100
1000
0100
0001
0100
0010
1000
0100
,
1000
0001
0010
0001
0100
0001
0100
1000
,
0100
0001
0010
0100
1000
0001
0010
0100
,
1000
0100
0001
0100
1000
0010
0001
0010
,
0100
1000
0100
0001
0100
0010
1000
0100
,
0001
0100
0010
0001
0010
0100
1000
0100
,
0001
0100
0010
0001
0010
0100
100M
01M0
,
00M1
1M00
00M1
01M0
100M
0M10
0M01
10M0
,
0M01
0M10
100M
01M0
00M1
1M00
00M1
01M0
,
100M
0M10
M001
10M0
0M01
M010
1M00
010M
,
001M
1M00
001M
010M
10M0
0M01
M010
M100
,
00M1
M100
M010
0M01
1M00
001M
010M
10M0
,
010M
M010
1M00
0M01
M010
M100
00M1
M100
,
M010
0M01
1M00
001M
0M01
M010
M100
00M1
,
M100
001M
1M00
01M0
00M1
M100
M010
0M01
,
M010
1M00
001M
010M
10M0
001M
010M
M001
,
M100
001M
1M00
001M
0M01
10M0
010M
00M1
,
1M00
001M
0M01
M010
010M
10M0
010M
00M1
,
M100
001M
1M00
01M0
M001
10M0
0M10
M001
,
10M0
010M
00M1
1M00
001M
0M01
M010
010M
,
10M0
0M10
M100
00M1
1M00
00M1
M100
001M
,
1M00
01M0
M001
10M0
0M01
01M0
100M
M010
,
0M01
M010
010M
00M1
1M00
010M
1MM1
0000
,
MMMM
1111
0000
0000
,
0000
0000
0000
0000
,
0000
0000
0000
0000
,
0000
0000
0000
0000
,
0000
0000
0000
0000
,
0000
0000
0000
0000
,
0000
0000
0000
0000
,
0000
0000
0000
0000
,
0000
0000
0000
0000
,
0000
0000
0000
0000
,
0000
0000
0000
0000
,
0000
0000
0000
0000
,
0000
0000
0000
1MMM
0000
1000
0MM1
0000
0000
MM1M
0000
0000
,
M1MM
0000
1000
MMM1
0000
0100
MM1M
0000
0000
M11M
0000
0000
,
M1MM
0000
0000
MMM1
0000
0001
MM1M
0000
0000
M1MM
0000
0000
,
1MMM
0000
0001
M1MM
0000
0010
1MMM
0000
0000
1M1M
0000
0000
,
MM1M
0000
0000
M1MM
0000
0100
MMM1
0000
0000
M11M
0000
0000
,
M1MM
0000
1000
MMM1
0000
0100
MM1M
0000
0000
M11M
0000
0000
,
M1MM
0000
0000
0000
0000
0000
0000
0000
MMM1
0000
0000
01M0
000M
0000
M010
0000
0M0M
10M0
0000
0000
0020
0000
0000
0000
0000
0000
0000
0000
0000
0000
0000
0000
,
0000
0000
0130
0000
;
#NOTES:
     dance-single:
     Renard:
     Medium:
     10:
     0.769,1.000,0.187,0.009,0.107:
0000
0000
0000
0000
,
0000
0000
0000
0000
,
0000
0000
0000
0000
,
0000
0000
0000
0000
,
0000
0000
0000
0000
,
0000
0000
0000
0000
,
0000
0000
0000
0000
,
0000
0000
0000
0000
,
1000
0100
1000
0000
,
0001
0100
0000
0010
,
1000
0000
0100
0010
,
0001
0010
0100
1000
,
0001
0100
0010
0000
,
1000
0010
0000
0100
,
0001
0000
1000
0100
,
0010
0001
0010
0100
,
1000
0001
0100
0000
,
0010
1000
0000
0100
,
0010
0000
0001
0010
,
0100
1000
0001
0100
,
0010
1000
0001
0000
,
0010
0100
0000
0010
,
0001
0000
0100
0000
,
0010
1000
0100
1000
,
0001
0100
0010
1000
,
0100
0010
0000
0001
,
0010
0000
0100
0000
,
1000
0001
0000
0000
,
0100
0010
1000
0100
,
0010
0001
0000
0010
,
0100
0000
1000
0000
,
0010
0100
0000
0000
,
0001
0100
0010
1000
,
0100
0010
0000
0001
,
0010
0000
0100
0000
,
1000
0001
0000
0000
,
0100
0010
0100
0001
,
0010
0100
0000
1000
,
0010
0000
0100
0000
,
0001
0000
1000
0000
,
0100
0000
1000
0000
0001
0000
0100
0010
,
0000
0100
0010
0000
1000
0000
0100
0000
,
0010
0001
0100
0010
,
1000
0100
0010
0001
,
0100
0000
0010
0000
1000
0000
0001
1000
,
0000
0001
1000
0000
0010
0000
0100
0000
,
0001
0010
0100
1000
,
0001
0100
0010
1000
,
0100
0000
0010
0000
0001
0000
1000
0100
,
0000
0010
0001
0000
1000
0000
0010
0000
,
0100
0000
0001
0000
0010
0000
0100
1000
,
0000
0001
0010
0000
0100
0000
1000
0000
,
0001
0000
0100
0000
0010
0000
1000
0001
,
0000
0100
0010
0000
1000
0000
0100
0000
,
0010
0001
0010
0100
,
1000
0001
0100
0001
,
0100
1000
0100
0001
,
0010
0100
0001
0100
,
1000
0010
0100
1000
,
0100
0010
1000
0100
,
0001
0100
0010
0001
,
0010
1000
0010
0100
,
0001
0100
1000
0010
,
0100
1000
0100
0010
,
1000
0100
0001
0100
,
0010
0001
0010
1000
,
0010
0100
0001
0100
,
1000
0010
0100
1000
,
0100
0010
1000
0100
,
0010
0001
0010
0100
,
0001
0100
1000
0010
,
0100
1000
0100
0010
,
1000
0000
1011
0000
,
0001
0000
0000
0100
0000
0000
0010
0000
0000
0000
0010
0000
1000
0000
0000
0000
0000
0000
0100
0000
0000
0000
0000
0000
,
0010
0000
0001
0010
0000
0100
1000
0000
0000
0011
0000
0000
,
0010
0000
0000
0100
0000
0100
1000
0000
0000
0010
0000
0000
,
0100
0000
0001
0100
0000
0010
1000
0000
0000
1010
0000
0000
,
0100
0000
0000
0001
0000
0001
0010
0000
0000
1100
0000
0000
,
1000
0000
0001
0010
0000
0100
1000
0000
0000
1001
0000
0000
,
0100
0000
0000
0010
0000
0010
1000
0000
0000
1100
0000
0000
,
1000
0000
0100
0010
0000
0001
1000
0000
0000
1001
0000
0000
,
0000
0001
0100
1000
,
0100
0001
0010
0100
,
0001
0100
1000
0010
,
0100
1000
0100
0010
,
1000
0100
0010
0001
,
0010
0000
0011
0000
,
0110
0000
0100
1000
,
0001
0100
0010
1000
,
0100
0010
0000
0010
,
0001
0000
0001
1000
,
0000
1000
0010
0000
,
0010
0100
0001
1000
,
0000
1100
0000
1000
,
0100
0010
0001
0100
,
0010
1000
0100
0010
,
0100
0000
1000
0001
1000
0001
0100
0000
,
0001
0010
0000
0010
,
0001
0000
0001
0100
,
0000
0010
1000
0100
,
0010
0001
0010
0100
,
1000
0000
0001
0000
0000
0000
0100
0001
,
0100
0000
0101
0000
,
0110
0000
0010
1000
,
0100
0010
0001
0000
0010
0000
0001
0000
,
0000
0110
0000
0100
,
1000
0010
0100
0001
,
0010
0001
0010
0000
0100
0000
1000
0000
,
0001
0100
0000
0010
,
1000
0100
1000
0010
,
0100
0000
0001
1000
0001
0000
0100
0001
,
1000
0001
0100
0010
,
1000
0000
0100
0010
0001
1000
0001
0000
,
1000
1001
0000
0001
,
0100
0001
0100
1000
,
0100
1000
0100
0001
,
0010
0001
0010
1000
,
0010
1000
0010
0001
,
0100
0001
0100
1000
,
0100
1000
0100
0001
,
0010
0001
0010
1000
,
0010
1000
0010
1000
,
0001
1000
0001
0100
,
0001
0100
0001
0100
,
1000
0100
1000
0010
,
1000
0010
1000
0010
,
0001
0010
0001
1000
,
0001
1000
0001
1000
,
0100
0010
1000
0100
,
0010
0000
0001
0000
1000
0100
1000
0000
,
0001
0010
0100
1000
,
0100
0000
0010
0000
0001
0010
0001
0000
,
0010
0100
1000
0001
,
0100
0000
0010
0000
1000
0010
1000
0000
,
0010
0100
0001
0010
,
0100
0000
1000
0000
0001
0010
0001
0000
,
1000
0100
0010
0001
,
1000
0000
0010
0000
1000
0010
1000
0000
,
0010
1000
0010
0000
0100
0000
0001
0000
,
0010
0000
0100
0000
1000
0001
1000
0000
,
0001
1000
0001
0000
0010
0000
0100
0000
,
1000
0000
0010
0000
0100
0001
0100
0000
,
0010
1000
0010
0000
1000
0001
1000
0000
,
0001
0100
0001
0000
1000
0010
1000
0000
,
0001
0100
0001
0000
1000
0010
1000
0000
,
0001
0100
0010
1000
0001
0000
1001
0000
,
0000
1011
0000
0000
,
0000
0000
0000
0000
,
0000
0000
0000
0000
,
0000
0000
0000
0000
,
0000
0000
0000
0000
,
0000
0000
0000
0000
,
0000
0000
0000
0000
,
0000
0000
0000
0000
,
0000
0000
0000
0000
,
0000
0000
0000
0000
,
0000
0000
0000
0000
,
0000
0000
0000
0000
,
0000
0000
0000
0001
0000
0001
0100
0000
0000
0010
0000
0000
,
1000
0000
0100
0010
0000
0001
0010
0000
0000
0110
0000
0000
,
0010
0000
0000
0001
0000
0001
1000
0000
0000
1100
0000
0000
,
1000
0000
0010
0100
0000
0001
0100
0000
0000
0110
0000
0000
,
0010
0000
0000
1000
0000
1000
0100
0000
0000
0110
0000
0000
,
0010
0000
0001
0100
0000
0010
1000
0000
0000
1100
0000
0000
,
1000
0000
0000
0000
0000
0000
0000
0000
1000
0000
0000
0010
0000
0000
0100
0000
0000
0001
0000
0000
0200
0000
0000
0000
0000
0000
0000
0000
0000
0000
0000
0000
,
0000
0000
0310
0000
;
#NOTES:
     dance-single:
     Renard:
     Easy:
     9:
     0.625,0.738,0.134,0.018,0.000:
0000
0000
0000
0000
,
0000
0000
0000
0000
,
0000
0000
0000
0000
,
0000
0000
0000
0000
,
0000
0000
0000
0000
,
0000
0000
0000
0000
,
0000
0000
0000
0000
,
0000
0000
0000
0000
,
1000
0001
1000
0000
,
0001
0100
0000
0000
,
0001
0000
1000
0000
,
0100
1000
0000
0000
,
0001
0010
0001
0000
,
1000
0010
0000
0100
,
0001
0000
1000
0000
,
0100
0010
0000
0000
,
0001
0010
0100
0000
,
1000
0001
0000
0100
,
0001
0000
1000
0000
,
0100
0010
0000
0000
,
0001
0010
0001
0000
,
1000
0010
0000
1000
,
0001
0000
0100
0000
,
0001
0000
1000
0000
,
0100
0010
0001
0000
,
1000
0010
0000
1000
,
0001
0000
0100
0000
,
0001
0010
0000
0000
,
0001
1000
0010
0000
,
0100
0001
0000
1000
,
0100
0000
1000
0000
,
0001
0010
0000
0000
,
0001
1000
0010
0000
,
0100
0001
0000
1000
,
0100
0000
1000
0000
,
0001
0010
0000
0000
,
0001
1000
0010
0000
,
0100
0001
0000
1000
,
0100
0000
0010
0000
,
0001
0000
1000
0000
,
0001
0100
0001
0000
,
1000
0100
1000
0000
,
0001
0010
0001
1000
,
0010
1000
0001
0000
,
0100
0001
0100
0000
,
0001
1000
0001
0000
,
1000
0100
0010
0001
,
0010
0100
1000
0001
,
0100
0001
0100
0000
,
0001
1000
0001
0000
,
1000
0100
1000
0000
,
0001
0010
0001
0000
,
1000
0010
0100
0001
,
0100
0010
1000
0100
,
0010
0001
0010
0100
,
1000
0000
0001
0000
,
0100
0010
0100
0010
,
1000
0010
1000
0010
,
0100
0001
0100
0001
,
0010
0001
0010
0100
,
1000
0100
0010
0001
,
0100
0010
1000
0100
,
0010
0001
0010
0100
,
1000
0001
0100
0010
,
1000
0010
1000
0010
,
1000
0001
1000
0001
,
0010
0001
0010
0001
,
0010
0100
0010
0100
,
1000
0100
1000
0001
,
0100
0010
1000
0100
,
0010
0001
0010
0100
,
1000
0001
0100
0010
,
1001
0000
1011
0000
,
0000
1000
0001
0100
,
0010
0010
1000
0100
,
0100
0010
0001
0100
,
0100
0001
0010
0100
,
1000
0010
0010
0100
,
0001
0010
0010
0001
,
0100
0010
0010
1000
,
1000
0001
1000
1011
,
0000
1000
0000
1000
,
0001
0000
0001
0100
,
0000
0010
1000
0100
,
0000
0010
0000
0001
,
0000
0010
0100
1000
,
0001
0000
1001
0000
,
0110
0000
0000
0010
,
1000
0001
0000
0100
,
0000
0001
0000
0001
,
1000
0000
1000
0100
,
0000
0100
0010
0000
,
0010
0001
0010
0100
,
0000
1000
0000
0001
,
0100
0010
1000
0100
,
0000
0010
0000
0001
,
0010
0100
1000
0001
,
0000
0100
0000
0100
,
0001
0000
0001
1000
,
0000
1000
0100
0000
,
0100
0010
0000
0001
,
0010
0100
0000
0100
,
1000
0000
1001
0000
,
1010
0000
1000
0010
,
0100
0001
0010
0100
,
1000
0001
0000
0001
,
0100
0000
0100
0010
,
0000
1000
0010
0100
,
0000
0001
1000
0100
,
0010
0001
0000
0010
,
0100
1000
0001
0100
,
0000
0010
0000
1000
,
0100
0010
0001
1000
,
0000
1001
0000
1000
,
0001
1000
0001
0100
,
0001
0100
0001
1000
,
0001
1000
0001
1000
,
0100
1000
0100
1000
,
0001
1000
0001
0100
,
0001
0100
0001
1000
,
0001
1000
0001
1000
,
0100
1000
0100
1000
,
0001
1000
0001
0010
,
0001
0010
0001
1000
,
0001
1000
0001
1000
,
0010
1000
0010
1000
,
0001
0010
0001
1000
,
0010
1000
0001
0010
,
0001
1000
0010
1000
,
0000
1001
0000
1000
,
0001
0100
0010
1000
,
0100
0010
0001
0010
,
0100
1000
0001
0100
,
0010
1000
0100
0010
,
0100
1000
0001
0100
,
0010
1000
0100
0010
,
0100
1000
0010
0100
,
0001
0010
0100
0010
,
0001
0100
0010
1000
,
0100
0010
0001
0010
,
0100
1000
0001
0100
,
0010
1000
0100
0010
,
0001
0010
0100
1000
,
0001
0100
0010
1000
,
0100
0010
0001
0100
,
0010
1000
0001
1001
,
0000
1011
0000
0000
,
0000
0000
0000
0000
,
0000
0000
0000
0000
,
0000
0000
0000
0000
,
0000
0000
0000
0000
,
0000
0000
0000
0000
,
0000
0000
0000
0000
,
0000
0000
0000
0000
,
0000
0000
0000
0000
,
0000
0000
0000
0000
,
0000
0000
0000
0000
,
0000
0000
0000
0000
,
0000
1000
0001
0100
,
0010
0010
1000
1100
,
0000
1000
0010
0100
,
0001
0001
0010
1001
,
0000
0001
0100
0010
,
0010
1000
0100
0110
,
0000
2002
0000
0000
,
0000
0000
3013
0000
;
#NOTES:
     dance-single:
     Renard:
     Beginner:
     7:
     0.479,0.738,0.116,0.009,0.000:
0000
0000
0000
0000
,
0000
0000
0000
0000
,
0000
0000
0000
0000
,
0000
0000
0000
0000
,
0000
0000
0000
0000
,
0000
0000
0000
0000
,
0000
0000
0000
0000
,
0000
0000
0000
0000
,
1000
0000
0001
0000
,
0100
0001
0000
0000
,
1000
0000
0100
0000
,
0010
0000
0000
0000
,
0001
0000
1000
0000
,
0010
1000
0000
0000
,
0001
0000
0100
0000
,
0010
0000
0000
0000
,
1000
0000
0010
0000
,
1000
0001
0000
0000
,
0010
0000
0001
0000
,
1000
0000
0000
0000
,
0100
0000
1000
0000
,
0001
0100
0000
0000
,
0001
0000
1000
0000
,
0100
0000
0010
0000
,
0001
0000
1000
0000
,
0010
1000
0000
0000
,
0001
0000
0100
0000
,
0001
0000
0000
0000
,
1000
0000
0100
0000
,
0010
0001
0000
0000
,
1000
0000
0010
0000
,
0100
0000
0000
0000
,
0001
0000
1000
0000
,
0100
0010
0000
0000
,
0001
0000
1000
0000
,
0010
0000
0000
0000
,
0100
0000
0001
0000
,
1000
0100
0000
0000
,
0010
0000
0001
0000
,
0010
0000
0100
0000
,
1000
0000
0001
0000
,
0100
0000
0001
1000
,
0001
0000
1000
0000
,
0100
0000
0010
0000
,
0001
0000
1000
0000
,
0010
0000
0100
0001
,
0100
0000
0001
0000
,
1000
0000
0100
0000
,
0010
0000
0001
0000
,
1000
0000
0010
1000
,
0010
0000
1000
0000
,
0001
0000
0100
0000
,
0001
0000
1000
0000
,
0100
0000
0010
0000
,
0001
0000
0010
0000
,
0100
0000
1000
0000
,
0001
0100
0001
0000
,
1000
0100
1000
0000
,
0001
0100
0001
0000
,
1000
0000
0000
0000
,
0001
0010
0001
0000
,
1000
0010
1000
0000
,
0001
0010
0001
0000
,
1000
0000
0000
0000
,
0010
1000
0010
0000
,
0100
0001
0100
0000
,
0001
0010
0001
0000
,
1000
0000
0000
0000
,
0001
0100
0001
0000
,
1000
0100
1000
0000
,
0010
1000
0010
0000
,
0100
0010
0100
0000
,
0001
0000
1001
0000
,
0000
1000
0000
0001
,
0000
0100
0100
0010
,
0000
1000
0000
0001
,
0000
0010
0010
0100
,
0000
1000
0000
0001
,
0000
0100
0100
0010
,
0000
1000
0000
0010
,
0000
0100
0000
1001
,
0000
1000
0000
0001
,
0000
0100
0000
0001
,
0000
1000
0000
0100
,
0000
0010
0001
0010
,
0000
0100
0000
0100
,
1000
0000
1001
0000
,
0110
0000
0000
0010
,
0000
1000
0000
0001
,
0000
0100
0000
0000
,
0001
0000
0000
1000
,
0000
0000
0100
0000
,
0000
0010
0000
0001
,
0000
0010
0000
0100
,
1000
0100
0000
1000
,
0001
1000
0000
0001
,
0100
0001
0000
1000
,
0000
0100
0000
0100
,
1000
0000
1000
0001
,
0000
0100
0000
0001
,
0000
0010
0000
0001
,
1000
0001
0000
1000
,
0010
0000
1000
0000
,
0001
0000
0000
0100
,
0000
0001
1000
0100
,
0000
1000
0000
0001
,
0000
0010
0001
1000
,
0000
0001
0000
1000
,
0000
0010
0100
0001
,
0000
1000
0000
0100
,
0000
0010
0001
0010
,
0100
1000
0000
0001
,
0000
0100
0010
1000
,
0000
1001
0000
1000
,
0000
0001
0000
1000
,
0001
1000
0000
0001
,
0000
0100
0000
0001
,
0100
0001
0000
1000
,
0000
0001
0000
1000
,
0001
1000
0000
0100
,
0000
1000
0000
0100
,
1000
0100
0000
1000
,
0000
0010
0000
0100
,
0010
0100
0000
0001
,
0000
0010
0000
0100
,
0010
0100
0000
1000
,
0000
0010
0000
0100
,
0010
0100
0000
0010
,
1000
0010
0000
0100
,
0001
0100
0000
0001
,
1000
0001
1000
0100
,
1000
0100
1000
0001
,
1000
0001
1000
0001
,
0100
0001
0100
0001
,
1000
0100
1000
0001
,
0100
0001
1000
0100
,
1000
0001
0100
0001
,
1000
0100
1000
0001
,
0010
0001
1000
0010
,
1000
0001
0100
0001
,
1000
0100
1000
0001
,
0010
0001
1000
0010
,
1000
0001
0100
0001
,
1000
0100
0010
0001
,
0010
0100
1000
0001
,
0100
0010
1000
1001
,
0000
1001
0000
0000
,
0000
0000
0000
0000
,
0000
0000
0000
0000
,
0000
0000
0000
0000
,
0000
0000
0000
0000
,
0000
0000
0000
0000
,
0000
0000
0000
0000
,
0000
0000
0000
0000
,
0000
0000
0000
0000
,
0000
0000
0000
0000
,
0000
0000
0000
0000
,
0000
0000
0000
0000
,
0000
1000
0100
1100
,
1000
0100
0010
0110
,
0000
0010
0001
0011
,
0001
0100
0010
0110
,
0000
0010
1000
1010
,
1000
0100
0010
0110
,
0010
0002
0000
0000
,
0000
0000
1003
0000
;
