#TITLE:Deadbeat;
#SUBTITLE:;
#ARTIST:Dougal & Gammer;
#TITLETRANSLIT:;
#SUBTITLETRANSLIT:;
#ARTISTTRANSLIT:;
#GENRE:;
#CRChallenge:;
#BANNER:deadbeat.jpg;
#BACKGROUND:deadbeat-bg.jpg;
#LYRICSPATH:;
#CDTITLE:;
#MUSIC:deadbeat.ogg;
#OFFSET:0.042;
#SAMPLESTART:33.082;
#SAMPLELENGTH:12.000;
#SELECTABLE:YES;
#BPMS:0.000=173.800;
#STOPS:0.000=0.025
;
#BGCHANGES:;
#KEYSOUNDS:;
#NOTES:
     dance-single:
     Renard:
     Hard:
     11:
     0.918,0.000,0.078,0.147,1.000:
0000
0000
0000
0000
,
0000
0000
0000
0000
,
0000
0000
0000
0000
,
0000
0000
0000
0000
0000
0000
1000
0100
0010
0001
1000
0100
,
0020
0031
0200
0310
,
2000
3100
0020
0031
,
0002
1003
0200
0310
,
0002
0000
0103
0100
0010
0010
2000
0000
,
3001
0000
1000
0100
0010
0001
0010
0000
0100
0000
0000
1000
0000
0000
0000
1000
,
0001
0000
0100
0010
1000
0100
0010
0001
1000
0000
0000
0010
1000
0000
0001
0000
,
0100
0000
0001
0010
0100
1000
0100
0000
0010
0000
0000
0001
0000
0000
0000
0001
,
1000
0000
0010
0100
0001
0010
0100
1000
0001
0000
0000
0100
0010
0000
1000
0000
,
0010
0000
1000
0100
0010
0001
0010
0000
0100
0000
0000
1000
0000
0000
0000
1000
,
0001
0000
0100
0010
1000
0100
0010
0001
1000
0000
0000
0010
1000
0000
0001
0000
,
0100
0000
0001
0010
0100
1000
0100
0000
0010
0000
0000
0001
0000
0000
0000
0001
,
1000
0000
0010
0100
0001
0010
0100
1000
0001
0000
0000
0100
0001
0000
0001
0000
,
1000
0000
0001
1000
0001
1000
0001
0000
0100
0000
0000
0010
0000
0000
0000
0010
,
1000
0000
0001
0010
0001
0010
0001
0010
0001
0000
0000
1000
0100
0000
1000
0000
,
0001
0000
0100
0010
0100
0010
0100
0000
0010
0000
0000
0010
0000
0000
0000
0010
,
0100
0000
0001
0010
0001
0010
0001
0010
0001
0000
0000
1000
0100
0000
1000
0000
,
0001
0000
1000
0001
1000
0001
1000
0000
0010
0000
0000
0100
0000
0000
0000
0100
,
0001
0000
1000
0100
1000
0100
1000
0100
1000
0000
0000
0001
0010
0000
0001
0000
,
1000
0000
0010
0100
0010
0100
0010
0000
0100
0000
0000
0001
0000
0000
0000
1000
,
0001
1000
0001
1000
0001
1000
0001
1000
0001
1000
0001
1000
0002
0000
0000
0000
,
1003
0000
0100
1000
0100
1000
0100
0000
1000
0000
0000
0001
1000
0000
0000
1000
,
0001
0000
0010
0001
0010
0001
0010
0000
0001
0000
0000
1000
0001
0000
0000
0000
,
1000
0000
0100
1000
0100
1000
0100
0000
1000
0000
0000
0001
1000
0000
0000
1000
,
0001
0000
0010
0001
0010
0001
0010
0000
0001
0000
0000
1000
0001
0000
0000
0000
,
0001
0000
0010
0001
0010
0001
0010
0000
0001
0000
0000
1000
0001
0000
0000
0001
,
1000
0000
0100
1000
0100
1000
0100
0000
1000
0000
0000
0001
1000
0000
0000
0000
,
0001
0000
0010
0001
0010
0001
0010
0000
0001
0000
0000
1000
0001
0000
0000
0001
,
1000
0000
0000
0000
0000
0000
0100
0000
0000
1000
0000
0000
0100
0000
0000
1000
0000
0000
0100
0000
0000
0000
0000
0000
1000
0000
0000
0000
0100
0000
0000
0000
0010
0000
0000
0000
0001
0000
0000
0000
0010
0000
0000
0000
0100
0000
0000
0000
,
1000
0000
0100
0010
0100
0010
0100
0000
0010
0000
0000
0001
0000
0000
0000
0001
,
0100
0000
0010
0100
0010
0100
0010
0100
0010
0000
1000
0000
0100
0000
0000
0000
,
1000
0000
0100
0010
0100
0010
0100
0000
0010
0000
0000
0001
0000
0000
0000
0001
,
0100
0000
0010
0100
0010
0100
0010
0100
0010
0000
1000
0000
0100
0000
1000
0000
,
0001
0000
0010
0100
0010
0100
0010
0000
0100
0000
0000
1000
0000
0000
0000
1000
,
0010
0000
0100
0010
0100
0010
0100
0010
0100
0000
0001
0000
0010
0000
0000
0000
,
0001
0000
0010
0100
0010
0100
0010
0000
0100
0000
0000
1000
0000
0000
0000
1000
,
0010
0000
0100
0010
0100
0010
0100
0010
0100
0000
0001
0000
0001
0000
0000
0000
,
0010
0000
0000
0001
0000
0000
1000
0000
0010
0000
0010
0000
0100
0000
0001
0000
,
0010
0000
0100
1000
0100
0010
0001
0010
0001
0000
0000
0001
0000
0000
0100
0000
,
0010
0000
0000
1000
0000
0000
0001
0000
0010
0000
0010
0000
0001
0000
0010
0000
,
0001
1000
0001
1000
0001
0000
0100
0000
0010
0000
2000
0000
0000
0000
3000
0000
,
1000
0000
0000
0100
0000
0000
1000
0000
0010
0000
0010
0000
0100
0000
0001
0000
,
0010
0000
0100
1000
0100
0010
0001
0010
0001
0000
0000
0010
0000
0000
0100
0000
,
1000
0000
0000
1000
0000
0000
0100
0000
0010
0000
0010
0000
0001
0000
0010
0000
,
0001
1000
0001
1000
0001
1000
0001
1000
0001
1000
0001
1000
0002
0000
0003
0000
,
0011
0000
0000
1001
0000
0000
1000
0000
0010
0000
0010
0000
0100
0000
0001
0000
,
0010
0000
0100
1000
0100
0010
0001
0010
0001
0000
0000
0011
0000
0000
0100
0000
,
1000
0000
0000
0101
0000
0000
0100
0000
0010
0000
0010
0000
1000
0000
0100
0000
,
1000
0001
1000
0001
1000
0000
0010
0000
0100
0000
0002
0000
2000
0000
3003
0000
,
0011
0000
0000
1100
0000
0000
0001
0000
0100
0000
0100
0000
0010
0000
1000
0000
,
0100
0000
0010
0001
0010
0100
1000
0100
1000
0000
0000
0110
0000
0000
0010
0000
,
0001
0000
0000
1001
0000
0000
0010
0000
0100
0000
0100
0000
0001
0000
0010
0000
,
0001
0001
1000
1000
0001
0001
2000
0000
,
3001
0000
1000
0100
0010
0001
0010
0000
0100
0000
0000
1000
0000
0000
0000
1000
,
0001
0000
0100
0010
1000
0100
0010
0001
1000
0000
0000
0010
1000
0000
0001
0000
,
0100
0000
0001
0010
0100
1000
0100
0000
0010
0000
0000
0001
0000
0000
0000
0001
,
1000
0000
0010
0100
0001
0010
0100
1000
0001
0000
0000
0100
0010
0000
1000
0000
,
0001
0000
1000
0100
0010
0001
0010
0000
0100
0000
0000
1000
0000
0000
0000
1000
,
0001
0000
0100
0010
1000
0100
0010
0001
1000
0000
0000
0010
1000
0000
0001
0000
,
0100
0000
0001
0010
0100
1000
0100
0000
0010
0000
0000
0001
0000
0000
0000
0001
,
1000
0000
0000
0000
0000
0000
0010
0000
0000
0100
0000
0000
0001
0000
0000
0010
0000
0000
0100
0000
0000
1000
0000
0000
0001
0000
0000
0000
0010
0000
0000
0000
0100
0000
0000
0000
1000
0000
0000
0000
0001
0000
0000
0000
0001
0000
0000
0000
,
1000
0000
0001
0010
0100
1000
0100
0000
0010
0000
0000
0001
0000
0000
0000
0001
,
1000
0000
0010
0100
0001
0010
0100
1000
0001
0000
0000
0100
0001
0000
1000
0000
,
0010
0000
1000
0100
0010
0001
0010
0000
0100
0000
0000
1000
0000
0000
0000
1000
,
0001
0000
0100
0010
1000
0100
0010
0001
1000
0000
0000
0010
0100
0000
0001
0000
,
1000
0000
0001
0010
0100
1000
0100
0000
0010
0000
0000
0001
0000
0000
0000
0001
,
1000
0000
0010
0100
0001
0010
0100
1000
0001
0000
0000
0100
0001
0000
1000
0000
,
0010
0000
1000
0100
0010
0001
0010
0000
0100
0000
0000
1000
0000
0000
0000
1000
,
0001
0001
1000
1000
0010
0010
0200
0000
,
0300
0000
0000
0000
;
#NOTES:
     dance-single:
     Renard:
     Medium:
     9:
     0.610,0.000,0.235,0.010,0.147:
0000
0000
0000
0000
,
0000
0000
0000
0000
,
0000
0000
0000
0000
,
0000
0000
0000
0000
,
0000
0000
0000
0000
,
0000
0000
0000
0000
,
0000
0000
0000
0000
,
0000
0000
0000
0000
,
1000
0100
0010
0001
1000
0000
1000
0000
,
0001
0010
0100
1000
0001
0000
0001
0000
,
1000
0010
0100
0001
1000
0000
1000
0000
,
0001
0010
0100
1000
0001
0000
0001
0000
,
1000
0010
0100
0001
1000
0000
1000
0000
,
0001
0010
0100
1000
0001
0000
0001
0000
,
1000
0010
0100
0001
0010
0100
1000
0001
,
0100
0010
1000
0001
1000
0000
0001
0000
,
1000
0100
0010
0001
1000
0000
1001
0000
,
0001
0010
0100
1000
0001
0000
1001
0000
,
1000
0010
0100
0001
1000
0000
1001
0000
,
0001
0100
0010
1000
0001
0000
1001
0000
,
1000
0100
1000
0010
1000
0000
1010
0000
,
1000
0001
0100
0001
0010
0000
0011
0000
,
0001
0010
0100
1000
0001
0000
1001
0000
,
1000
1000
0100
0100
0010
0010
0011
0000
,
1000
0000
0100
0000
0010
0000
0001
0000
1000
0000
0000
1000
0000
0000
0000
0000
,
0001
0000
0010
0000
0100
0000
1000
0000
0001
0000
0000
1000
0001
0000
0000
0000
,
1000
0000
0010
0000
0100
0000
0001
0000
1000
0000
0000
1000
0000
0000
0000
0000
,
0001
0000
0010
0000
0100
0000
1000
0000
0001
0000
0000
0100
0010
0000
0010
0000
,
1000
0000
0100
0000
0010
0000
0001
0000
1000
0000
0000
0001
0000
0000
0000
0000
,
1000
0000
0100
0000
0010
0000
0001
0000
1000
0000
0000
0001
1000
0000
0000
0000
,
0001
0000
0100
0000
0010
0000
1000
0000
0001
0000
0000
0010
0000
0000
0000
0001
,
0010
0000
0000
0100
0000
0000
1000
0000
0000
0001
0000
0000
1000
0000
0001
0000
1000
0000
0001
0000
1000
0000
0001
0000
,
1000
0000
0100
0000
0010
0000
0001
0000
1000
0000
0000
1000
0000
0000
0000
0000
,
0001
0000
0010
0000
0100
0000
1000
0000
0001
0000
0000
0100
0010
0000
1000
0000
,
0100
0000
0010
0000
0001
0000
1000
0000
0001
0000
0000
0001
0000
0000
0000
0000
,
1000
0100
0010
0001
1000
0000
1001
0000
,
0001
0000
0100
0000
0010
0000
1000
0000
0001
0000
0000
1000
0000
0000
0000
0000
,
0001
0000
0010
0000
0100
0000
1000
0000
0001
0000
0000
1000
0001
0000
1000
0000
,
0010
0000
0100
0000
0001
0000
0010
0000
0100
0000
0000
1000
0000
0000
0000
0000
,
0001
0010
0100
1000
0001
0010
0001
0000
,
1000
0000
0000
1000
0000
0000
1000
0000
0100
0000
0010
0000
0001
0000
0010
0000
,
0100
0000
1000
0000
0001
0000
0010
0000
0100
0000
0000
1000
0000
0000
0001
0000
,
0010
0000
0000
0010
0000
0000
0001
0000
0010
0000
0100
0000
1000
0000
0001
0000
,
0010
0100
1000
0001
1000
0001
1000
0000
,
0100
0000
0000
0010
0000
0000
0001
0000
0010
0000
0100
0000
1000
0000
0001
0000
,
0010
0000
0100
0000
1000
0000
0001
0000
0010
0000
0000
0001
0000
0000
1000
0000
,
0001
0000
0000
0010
0000
0000
0001
0000
1000
0000
1000
0000
0001
0000
0010
0000
,
0100
1000
0001
0100
0010
1000
0001
0000
,
1000
0000
0000
0100
0000
0000
0010
0000
0001
0000
0010
0000
0100
0000
1000
0000
,
0001
0000
0100
0000
0010
0000
1000
0000
0010
0000
0000
1000
0000
0000
0000
0000
,
0010
0000
0000
1000
0000
0000
0100
0000
0010
0000
0001
0000
0010
0000
0100
0000
,
1000
0001
0100
0000
0010
0000
1000
0000
,
0010
0000
0000
1000
0000
0000
0100
0000
0010
0000
0001
0000
0010
0000
0100
0000
,
1000
0000
0001
0000
0100
0000
0010
0000
1000
0000
0000
0010
0000
0000
0000
0000
,
1000
0000
0000
0100
0000
0000
0010
0000
0001
0000
0010
0000
0100
0000
1000
0000
,
0001
0000
0010
0000
0001
1000
0001
0000
,
1000
0100
0010
0001
1000
0000
1001
0000
,
0001
0010
0100
1000
0001
0000
1001
0000
,
1000
0010
0100
0001
1000
0000
1001
0000
,
1000
0010
0100
0001
1000
0000
1001
0000
,
0001
0010
0001
0100
0001
0000
0101
0000
,
0001
1000
0100
1000
0010
0000
1010
0000
,
1000
0010
0100
0001
0010
0000
0011
0000
,
0001
0010
0100
1000
0001
0000
0101
0000
,
0001
0100
0010
1000
0100
0000
1100
0000
,
1000
0010
0100
0001
0010
0000
0011
0000
,
0001
0010
0100
1000
0001
0000
1001
0000
,
1000
0010
0100
0001
1000
0000
1001
0000
,
1000
0100
1000
0010
1000
0000
1100
0000
,
1000
0001
0100
0001
0010
0000
0011
0000
,
0001
0100
0001
1000
0100
0000
1100
0000
,
1000
0000
0001
0100
0010
1000
0002
0000
,
0003
0000
0000
0000
;
#NOTES:
     dance-single:
     Jinxie:
     Easy:
     4:
     0.435,0.000,0.411,0.000,0.000:
0000
0000
0000
0000
,
0000
0000
0000
0000
,
0000
0000
0000
0000
,
0000
0000
0000
0000
,
0000
0000
0000
0000
,
0000
0000
0000
0000
,
0000
0000
0000
0000
,
0000
0000
0000
0000
,
1001
0010
1000
1100
,
0100
0010
0001
0011
,
0001
1000
0010
1010
,
0010
0100
0001
0101
,
0001
0010
0100
1100
,
1000
0010
1000
1010
,
1000
0001
0100
0101
,
0001
0010
0100
1100
,
1000
0001
1000
1010
,
1000
0001
0100
0101
,
0001
0010
0100
0110
,
0100
1000
0100
1100
,
1000
0010
0100
0110
,
0100
0001
0100
0110
,
0010
1000
0100
1100
,
0100
0010
0001
0010
,
0100
1000
0010
1000
,
0100
0010
0001
0101
,
0010
1000
0100
1000
,
0010
0100
0001
0011
,
0001
0010
0100
0010
,
0001
0100
0010
0110
,
0010
1000
0100
1000
,
0010
0100
0001
0101
,
0010
1000
0100
0110
,
0010
0000
0001
0000
0100
0010
1000
0000
,
0010
1000
0100
0110
,
0010
0000
0001
0000
0010
0001
0100
0000
,
0010
1000
0100
1100
,
1000
0010
0100
0101
,
0001
0010
0100
1100
,
1000
0000
0010
0000
0100
0010
1000
0000
,
0100
0010
0001
0010
,
0100
0100
1000
1000
,
0010
1000
0100
1000
,
0010
0100
0001
0100
,
0010
1000
0100
0010
,
0001
0100
0010
1000
,
0100
1000
0010
0100
,
0001
1000
0010
1000
0001
0000
1001
0000
,
0010
1000
0100
0010
,
0001
0010
0001
0000
1000
0100
1000
0000
,
0010
0100
0001
0100
,
0010
0100
0010
0000
1000
0100
1000
0000
,
0100
0010
0001
0010
,
0100
0010
0001
0000
0001
0100
0010
0000
,
0010
0100
0001
1000
,
0100
0010
0001
0000
0010
0100
1000
0000
,
0010
1000
0100
1100
,
0100
0010
0001
0101
,
0010
1000
0100
1010
,
0010
1000
0100
0110
,
0010
0001
0100
0110
,
0001
0100
0010
1010
,
1000
0100
0010
0011
,
0001
0010
0100
1100
,
0001
1000
0001
1001
,
0001
1000
0001
1001
,
0010
0100
0010
0110
,
0010
0100
0010
0110
,
0010
1000
0010
1010
,
0010
1000
0010
1010
,
0001
0010
0001
0011
,
0001
0010
0001
0011
;
#NOTES:
     dance-single:
     Jinxie:
     Beginner:
     3:
     0.246,0.000,0.157,0.000,0.000:
0000
0000
0000
0000
,
0000
0000
0000
0000
,
0000
0000
0000
0000
,
0000
0000
0000
0000
,
0000
0000
0000
0000
,
0000
0000
0000
0000
,
0000
0000
0000
0000
,
0000
0000
0000
0000
,
0010
0000
1000
0000
,
0001
0000
1000
1100
,
0001
0000
0010
0000
,
0001
0000
0100
0110
,
0010
0000
1000
0000
,
0100
0000
1000
1010
,
1000
0000
0010
0000
,
1000
0000
0010
0110
,
1000
0000
0010
0000
,
1000
0000
0100
0000
,
0010
0000
0001
0000
,
0010
0000
0100
0000
,
1000
0000
0001
0000
,
1000
0000
0001
0000
,
1000
0000
0001
0000
,
0010
0000
0001
0000
,
0100
0000
0010
0000
,
1000
0000
0001
1001
,
1000
0000
0100
0000
,
0010
0000
0001
0011
,
0001
0000
0100
0000
,
0010
0000
0100
0110
,
0010
0000
1000
0000
,
0100
0000
1000
0000
,
0001
0000
1000
0000
,
0001
0000
1000
1001
,
0010
0000
1000
0000
,
0100
0000
1000
1010
,
0010
0000
0100
0000
,
0001
0000
0100
0110
,
0010
0000
1000
0000
,
0100
0000
1000
0000
,
0001
0001
1000
1000
,
0001
0001
1000
1000
,
0010
0010
0100
0100
,
0010
0010
0100
0100
,
1000
1000
0001
0001
,
1000
1000
0001
0001
,
0010
0010
0100
0100
,
0010
0010
0100
0100
,
1000
0000
0001
0000
,
1000
0000
0001
0000
,
1000
0000
0001
0000
,
1000
0000
0001
0000
,
1000
0000
0001
0000
,
0010
0000
0100
0000
,
0010
0000
0001
0000
,
1000
0000
0010
0000
,
1000
0000
0001
0000
,
1000
0000
0100
0110
,
0010
0000
0001
0000
,
0100
0000
0001
0011
,
0010
0000
0100
0000
,
1000
0000
0100
1100
,
1000
0000
0010
0000
,
0100
0000
0001
0000
,
0010
0000
0100
0000
,
0010
0000
0100
1100
,
1000
0000
0010
0000
,
1000
0000
0100
0110
,
0010
0000
0001
0000
,
0010
0000
0100
1100
,
1000
0000
0010
0000
,
1000
0000
0001
0000
;
