#TITLE:Dawn;
#SUBTITLE:;
#ARTIST:Sonitus Vir;
#TITLETRANSLIT:;
#SUBTITLETRANSLIT:;
#ARTISTTRANSLIT:;
#CRChallenge:;
#BANNER:dawn.png;
#BACKGROUND:dawn-bg.png;
#LYRICSPATH:;
#CDTITLE:;
#MUSIC:dawn.ogg;
#OFFSET:0.000;
#SAMPLESTART:24.714;
#SAMPLELENGTH:12.000;
#SELECTABLE:YES;
#BPMS:0.000=155.000;
#STOPS:;
#BGCHANGES:;
#NOTES:
     dance-single:
     Renard:
     Hard:
     10:
     0.804,1.000,0.219,0.197,0.805:
0000
0000
0000
0000
,
0000
0000
0000
0000
,
0000
0000
0000
0000
,
0000
0000
0000
0000
,
0001
1000
0100
0010
0001
0010
0100
1000
0010
0001
0010
0100
,
1000
0100
0001
0010
0100
0001
0100
1000
0010
0001
0010
0100
,
1000
0100
0001
0010
0100
0001
0100
1000
0001
0010
1000
0010
,
0100
0001
0100
1000
0010
0100
0001
0010
0100
1000
0001
1000
,
2002
0000
3013
0000
0000
0202
0000
0313
,
0000
0000
0000
0000
,
2002
0000
3013
0000
0000
2200
0000
3310
,
0000
0000
0000
0000
,
2012
0000
3013
0000
0000
0212
0000
0313
,
0000
0000
0000
0000
,
2012
0000
3013
0000
0000
2210
0000
3310
,
0000
0000
0000
0000
0000
0000
0000
0000
0000
0000
0000
0001
1000
0000
0000
0000
,
0001
0000
0100
0010
0100
0000
0000
0000
0110
0000
0000
0000
1010
0000
0000
0000
,
1000
0000
0100
0001
0100
0000
0010
0000
0001
0010
0001
0000
0010
0000
0100
1000
,
0001
0000
0000
1000
0100
1000
0000
0000
0001
0000
0000
0100
0010
0100
0000
0000
,
0010
0000
1000
0100
0010
0000
0001
0000
0010
0000
0000
0000
1001
0000
0000
0000
,
1000
0000
0010
0100
0010
0000
0000
0000
0110
0000
0000
0000
0101
0000
0000
0000
,
0001
0000
0010
1000
0010
0000
0100
0000
1000
0100
1000
0000
0100
0000
0010
0001
,
1000
0000
0000
0001
0010
0001
0000
0000
1000
0000
0000
0010
0100
0010
0000
0000
,
0100
0000
0001
0010
0100
0000
1000
0000
0100
0000
0000
0000
1001
0000
0000
0000
,
0001
0001
0100
0010
0010
1000
0100
0100
,
0010
0001
0001
0010
0100
0100
1000
1000
,
0001
0001
0010
0001
0001
1000
0001
0001
,
0100
0001
0001
1000
0100
0010
0001
0010
,
0100
0100
1000
0010
0010
0100
0010
0010
,
1000
0001
0001
0010
0100
0100
1000
1000
,
0001
0100
0010
1000
0100
0010
0010
0010
,
0001
0100
0010
1000
0100
0010
0001
0001
,
1000
1000
0010
0100
0100
0001
0010
0010
,
0001
1000
1000
0100
0010
0001
0010
0100
,
1000
0000
1000
0000
0010
0000
0100
0000
0100
0000
0001
0000
0010
0001
0010
0000
,
0001
0000
1000
0000
1000
0000
0010
0100
0010
0000
0100
0000
0001
0000
1000
0000
,
0001
0001
0100
0010
0010
1000
0100
0100
,
1000
0001
0001
0010
0100
1000
0100
0010
,
0001
0000
0001
0000
0100
0000
0010
0000
0010
0000
1000
0000
0100
1000
0100
0000
,
1000
0000
0001
0000
0001
0000
0100
0010
0100
0000
0000
0000
1011
0000
0000
0000
,
0001
0100
0010
0100
0001
0000
1000
0100
0010
0100
1000
0000
0001
0100
0010
0100
,
0001
0000
1000
0100
0010
0100
1000
0000
0001
0100
0010
1000
0100
0010
0001
0000
,
1000
0100
0010
0100
1000
0000
0001
0100
0010
0100
0001
0000
1000
0100
0010
0100
,
1000
0000
0001
0100
0010
0100
0001
0000
1000
0100
0010
0001
0010
0100
1000
0000
,
0001
0100
0010
0100
0001
0000
1000
0100
0010
0100
1000
0000
0001
0100
0010
0100
,
0001
0000
1000
0100
0010
0100
1000
0000
0001
0010
0100
1000
0100
0010
0001
0000
,
1000
0100
0010
0000
0100
0010
0001
0000
1000
0100
0010
0000
0100
0010
0001
0000
,
1000
0100
0010
0001
0010
0100
1000
0001
0010
0100
1000
0001
1000
0000
0000
0000
,
0001
0100
0010
1000
0100
0010
0001
0010
0100
1000
0001
0010
0100
1000
0001
0100
,
0010
1000
0100
0010
0001
0010
0100
1000
0001
0100
0010
1000
0100
0010
0100
1000
,
0001
0100
0010
0100
0001
0010
0100
0010
0001
1000
0100
0010
0001
0100
0010
1000
,
0100
0010
0100
1000
0001
0100
0010
0100
0001
0010
0100
0010
0001
0010
0100
1000
,
0001
0100
0010
1000
0100
0010
0001
0010
0100
1000
0001
0100
0010
1000
0100
0010
,
0001
0010
0100
1000
0001
0010
0100
1000
0001
0100
0010
1000
0010
0100
0001
0000
,
1001
0110
0000
0000
0110
1001
0000
0000
,
2012
0000
0000
0000
,
0000
0000
0000
0000
0000
0000
3003
0000
0000
0001
1000
0001
1000
0000
0000
0000
0000
0000
0000
0000
0000
0000
0000
0000
;
#NOTES:
     dance-single:
     Renard:
     Medium:
     9:
     0.676,0.774,0.427,0.197,0.389:
0000
0000
0000
0000
,
0000
0000
0000
0000
,
0000
0000
0000
0000
,
0000
0000
0000
0000
,
0001
1000
0001
1000
0001
1000
0001
0100
0001
0100
0001
0100
,
0001
1000
0001
1000
0001
1000
0100
1000
0100
1000
0100
1000
,
0001
0010
0001
0010
0001
0010
0001
1000
0001
1000
0001
1000
,
0010
1000
0001
0100
0010
1000
0100
0010
0001
1000
0000
0000
,
2002
0000
3013
0000
0000
0202
0000
0313
,
0000
0000
0000
0000
,
2002
0000
3013
0000
0000
2200
0000
3310
,
0000
0000
0000
0000
,
2002
0000
3013
0000
0000
0202
0000
0313
,
0000
0000
0000
0000
,
2002
0000
3013
0000
0000
2200
0000
3310
,
0000
0000
0000
0000
0000
0000
0000
0000
0000
0000
0000
0001
1000
0000
0000
0000
,
0001
0000
0100
0010
0100
0000
0000
0000
0110
0000
0000
0000
1010
0000
0000
0000
,
1000
0000
0100
0001
0100
0000
0010
0000
0001
0010
0001
0000
0010
0000
0100
1000
,
0001
0000
0000
1000
0100
1000
0000
0000
0001
0000
0000
0100
0010
0100
0000
0000
,
0010
0000
1000
0100
0010
0000
0001
0000
0010
0000
0000
0000
1001
0000
0000
0000
,
1000
0000
0010
0100
0010
0000
0000
0000
0110
0000
0000
0000
0101
0000
0000
0000
,
0001
0000
0010
1000
0010
0000
0100
0000
1000
0100
1000
0000
0100
0000
0010
0001
,
1000
0000
0000
0001
0010
0001
0000
0000
1000
0000
0000
0010
0100
0010
0000
0000
,
0100
0000
0001
0010
0100
0000
1000
0000
0100
0000
0000
0000
1001
0000
0000
0000
,
0001
0001
0100
0010
0010
1000
0100
0100
,
0010
0001
0001
0010
0100
0100
1000
1000
,
0001
0001
0010
0001
0001
1000
0001
0001
,
0100
0001
0001
1000
0100
0010
0001
0010
,
0100
0100
1000
0010
0010
0100
0010
0010
,
1000
0001
0001
0010
0100
0100
1000
1000
,
0001
0100
0010
1000
0100
0010
0010
0010
,
0001
0100
0010
1000
0100
0010
0001
0001
,
1000
1000
0010
0100
0100
0001
0010
0010
,
0001
1000
1000
0100
0010
0001
0010
0100
,
1000
0000
1000
0000
0010
0000
0100
0000
0100
0000
0001
0000
0010
0001
0010
0000
,
0001
0000
1000
0000
1000
0000
0010
0100
0010
0000
0100
0000
0001
0000
1000
0000
,
0001
0001
0100
0010
0010
1000
0100
0100
,
1000
0001
0001
0010
0100
1000
0100
0010
,
0001
0000
0001
0000
0100
0000
0010
0000
0010
0000
1000
0000
0100
1000
0100
0000
,
1000
0000
0001
0000
0001
0000
0100
0010
0100
0000
0000
0000
1011
0000
0000
0000
,
0101
0000
0000
0011
0000
0000
0101
0000
0000
0000
0001
0000
1000
0000
0100
0000
,
0000
0000
1100
0000
0000
1010
0000
0000
1001
0000
0000
0000
1000
0000
0100
0000
,
0110
0000
0000
0011
0000
0000
0110
0000
0000
0000
0000
0000
0010
0000
0001
0000
,
0100
0000
1001
0000
0000
0101
0000
0000
1010
0000
0000
0000
1000
0000
0010
0000
,
0110
0000
0000
0101
0000
0000
0110
0000
0000
0000
0100
0000
0001
0000
0010
0000
,
0100
0000
1100
0000
0000
1100
0000
0000
0110
0000
0000
0000
0010
0000
0001
0000
,
0100
0001
0100
0000
0001
1000
0001
0000
1000
0100
1000
0000
0001
1000
0001
0000
,
1000
0100
0010
0001
1000
0001
1001
0000
,
1000
0000
0001
0100
0001
0000
1000
0000
0100
0000
0010
0000
0001
0000
0010
0000
,
0100
0000
1000
0100
1000
0000
0001
0000
0100
0000
0010
0000
1000
0000
0100
0000
,
0010
0000
0001
0000
0010
0000
0100
1000
0100
0000
1000
0000
0001
0000
0100
0000
,
0010
0000
1000
0000
0100
0000
0010
0000
0001
0000
1000
0001
1000
0000
0001
0100
,
0001
0000
0100
0000
0010
0000
1000
0000
0100
0000
0010
0000
0001
0000
1000
0001
,
1000
0001
0100
0010
1000
0100
0010
0000
,
1001
0110
0000
0000
0110
1001
0000
0000
,
2012
0000
0000
0000
,
0000
0000
0000
0000
0000
0000
3003
0000
0000
0001
1000
0001
1000
0000
0000
0000
0000
0000
0000
0000
0000
0000
0000
0000
;
#NOTES:
     dance-single:
     Renard:
     Easy:
     5:
     0.369,0.526,0.230,0.055,0.000:
0000
0000
0000
0000
,
0000
0000
0000
0000
,
0000
0000
0000
0000
,
0000
0000
0000
0000
,
1000
0000
0100
1000
0100
0000
1000
0000
,
0001
0000
0100
0001
0100
0000
0001
0000
,
1000
0000
0100
1000
0100
0000
1000
0000
,
0001
0000
0100
0001
0100
0000
0001
0000
,
1000
0000
0001
0000
0000
0110
0000
1001
,
0000
0000
0000
0000
,
0001
0000
1000
0000
0000
0110
0000
1001
,
0000
0000
0000
0000
,
1000
0000
0001
0000
0000
0110
0000
1001
,
0000
0000
0000
0000
,
0001
0000
1000
0000
0000
0110
0000
1001
,
0000
0000
0000
1011
,
0000
1000
1000
2000
,
0000
0001
0010
0001
,
3001
0000
0000
0000
0000
0000
1000
0001
,
0100
0001
1000
0001
0100
0000
0000
0000
,
0000
0001
0001
0002
,
0000
1000
0100
1000
,
2003
0000
0000
0010
,
3001
0000
0001
1000
0100
0000
1000
0000
,
0001
0000
1000
1000
,
0010
0100
0001
1000
,
0100
1000
0100
1000
0100
1000
0100
1000
,
0100
1000
0100
1000
0100
1000
0100
1000
,
0100
0100
0010
0010
,
0001
0000
0100
0000
,
0010
0100
0001
1000
,
0001
0100
0001
0100
0001
0100
0001
0100
,
0001
1000
1000
0100
,
0100
0000
0010
0001
,
1000
0000
0010
0100
,
0001
1000
0001
1000
0001
1000
0001
1000
,
0100
0000
0100
1000
,
0010
0000
0010
0100
,
0001
0001
0010
0010
,
0100
1000
0001
0000
,
0101
0000
0000
0101
0000
0000
0001
1000
,
0100
0000
0000
1100
0000
0000
1000
0001
,
0100
0000
0000
0101
0000
0000
0001
1000
,
0100
0000
0000
1100
0000
0000
1000
0001
,
0010
0000
0000
0011
0000
0000
0001
1000
,
0010
0000
0000
1010
0000
0000
1000
0001
,
0010
0010
0010
0010
0010
0010
0010
0010
,
0010
0001
1000
0010
,
0000
0000
1000
0000
0010
0000
1000
0010
,
1000
0010
1000
0000
0010
0000
1000
0000
,
0001
0000
0100
0001
0100
0001
0000
0000
,
0000
1000
0100
0010
0001
0000
1000
0000
,
0000
0001
0100
0001
0100
0000
0001
1000
,
0001
1000
0100
0000
0010
0000
0001
0000
,
1001
1001
0000
0000
1001
2002
0000
0000
,
0010
0000
0000
0000
,
0000
0000
3003
0010
1001
0000
0000
0000
;
#NOTES:
     dance-single:
     Renard:
     Beginner:
     3:
     0.216,0.340,0.131,0.186,0.000:
0000
0000
0000
0000
,
0000
0000
0000
0000
,
0000
0000
0000
0000
,
0000
0000
0000
0000
,
1001
1001
1001
0000
,
0010
0010
0010
0000
,
1001
1001
1001
0000
,
0100
0100
0100
0000
,
2000
0000
0000
0000
,
3010
0000
0000
0000
,
0002
0000
0000
0000
,
0103
0000
0000
0000
,
2000
0000
0000
0000
,
3100
0000
0000
0000
,
0002
0000
0000
0000
,
0013
0000
0000
1001
,
0000
0001
1000
0001
,
0000
0100
0010
0100
,
0010
0000
0000
1000
,
0010
0100
0001
0000
,
0000
1000
0001
1000
,
0000
0001
0100
0001
,
1000
0000
0000
0100
,
1000
0001
0100
0000
,
0000
0010
0010
0010
,
0010
0010
0010
0010
,
0020
0000
0000
0000
,
0000
0000
0030
0000
,
0000
0100
0100
0100
,
0200
0000
0000
0000
,
0300
0100
0100
0100
,
0200
0000
0000
0000
,
0301
0001
0001
0001
,
0002
0003
0002
0003
,
0002
0000
0000
0000
,
0000
0000
0000
0000
,
0003
1000
1000
1000
,
2000
3000
2000
3000
,
2000
0000
0000
0000
,
0000
0000
0000
0000
,
3010
0000
0000
0000
,
0101
0000
0000
0000
,
1001
0000
0000
0000
,
1100
0000
0000
0000
,
2002
0000
0000
0000
,
0010
0000
0000
0000
,
0100
0000
0000
0000
,
3013
0000
1000
0001
,
1000
1000
1000
1000
,
0010
0100
0001
0000
,
0001
0001
0001
0001
,
0100
0010
1000
0000
,
1000
1000
1000
0100
,
0010
0001
1000
0001
,
0100
0100
0010
0000
,
2002
0000
0000
0000
,
0000
0000
3013
0000
;
