#TITLE:Dash Hopes III;
#SUBTITLE:;
#ARTIST:Renard;
#TITLETRANSLIT:;
#SUBTITLETRANSLIT:;
#ARTISTTRANSLIT:;
#CRChallenge:;
#BANNER:dh3.png;
#BACKGROUND:dh3-bg 2x1.png;
#LYRICSPATH:;
#CDTITLE:;
#MUSIC:dh3.ogg;
#OFFSET:0.000;
#SAMPLESTART:6.311;
#SAMPLELENGTH:12.000;
#SELECTABLE:YES;
#BPMS:0.000=600.816;
#STOPS:32.000=3.096
;
#BGCHANGES:;
#NOTES:
     dance-single:
     Renard:
     Challenge:
     20:
     1.000,1.000,0.436,0.015,0.000:
0000
0000
0000
0000
,
0000
0000
0000
0000
,
0000
0000
0000
0000
,
0000
0000
0000
0000
,
0000
0000
0000
0000
,
0000
0000
0000
0000
,
0000
0000
0000
0000
,
0000
0000
0000
0000
,
0000
0000
0001
0010
0100
1000
0001
1000
,
0100
0010
0001
1000
0001
0010
0100
1000
,
0001
1000
0100
0010
0001
1000
0001
0010
,
0100
1000
0001
1000
0100
0010
0001
1000
,
0001
0010
0100
1000
0001
1000
0100
0010
,
0001
1000
0001
0010
0100
1000
0001
1000
,
0100
0010
0001
1000
0001
0010
0100
1000
,
0001
1000
0100
0010
0001
1000
0001
0010
,
0100
1000
0001
1000
0100
0010
0001
1000
,
0001
0010
0100
1000
0001
1000
0100
0010
,
0001
1000
0001
0010
0100
1000
0001
1000
,
0100
0010
0001
1000
0001
0010
0100
1000
,
0001
1000
0100
0010
0001
1000
0001
0010
,
0100
1000
0001
1000
0100
0010
0001
1000
,
0001
0010
0100
1000
0001
1000
0100
0010
,
0001
1000
0001
0010
0100
1000
0001
0100
,
0010
1000
1000
0100
0010
0001
1000
0001
,
0010
0100
1000
0001
1000
0100
0010
0001
,
1000
0001
0010
0100
1000
0001
1000
0100
,
0010
0001
1000
0001
0010
0100
1000
0001
,
1000
0100
0010
0001
1000
0001
0010
0100
,
1000
0001
1000
0100
0010
0001
1000
0001
,
0010
0100
1000
0001
1000
0100
0010
0001
,
1000
0001
0010
0100
1000
0001
1000
0100
,
0010
0001
1000
0001
0010
0100
1000
0001
,
1000
0100
0010
0001
1000
0001
0010
0100
,
1000
0001
1000
0100
0010
0001
1000
0001
,
0010
0100
1000
0001
1000
0100
0010
0001
,
1000
0001
0010
0100
1000
0001
1000
0100
,
0010
0001
1000
0001
0010
0100
1000
0001
,
1000
0100
0010
0001
1000
0001
0010
0100
,
1000
0001
1000
0100
0010
0001
1000
0001
,
1000
0001
1000
0000
1000
0000
1000
0000
,
1000
1000
1000
1000
,
1000
1000
1000
1000
,
1000
1000
1000
1000
,
1000
1000
1000
1000
,
1000
1000
1000
1000
,
1000
1000
1000
1000
,
1000
1000
1000
1000
,
1000
0001
0001
0001
,
0001
0001
0001
0001
,
0001
0001
0001
0001
,
0001
0001
0001
0001
,
0001
0001
0001
0001
,
0001
0001
0001
0001
,
0001
0001
0001
0001
,
0001
0001
0001
0001
,
0001
0000
1000
0001
1000
0001
1000
0001
,
1000
0001
0100
0010
1000
0001
0100
0010
,
1000
0001
1000
0001
1000
0001
1000
0001
,
1000
0001
0100
0010
1000
0001
0100
0010
,
1000
0100
1000
0010
1000
0001
1000
0010
,
1000
0001
0100
0010
1000
0001
0100
0010
,
1000
0100
1000
0010
1000
0100
1000
0010
,
1000
0001
0100
0010
1000
0001
0100
0010
,
1000
0001
1000
0001
1000
0001
1000
0001
,
1000
0001
0100
0010
1000
0001
0100
0010
,
1000
0001
1000
0001
1000
0001
1000
0001
,
1000
0001
0100
0010
1000
0001
0100
0010
,
1000
0100
1000
0010
1000
0001
1000
0010
,
1000
0001
0100
0010
1000
0001
0100
0010
,
1000
0100
1000
0010
1000
0100
1000
0010
,
1000
0001
0100
0010
1000
0001
0100
0010
,
1000
0001
1011
0000
0000
0000
0000
0000
,
0000
0000
0000
1011
,
0000
0000
0000
0000
,
0000
1101
0000
0000
,
0000
0000
0000
1011
,
0000
0000
0000
0000
,
0000
1110
0000
0000
,
0000
0000
0000
0000
,
0000
0111
0000
0000
,
0000
0000
0000
1011
,
0000
0000
0000
0000
,
0000
1110
0000
0000
,
0000
0000
0000
1101
,
0000
0000
0000
0000
,
0000
0111
0000
0000
,
0000
0000
0000
0000
,
0000
1001
0000
1001
,
0000
0000
0000
0000
0001
1000
1001
0000
,
0000
1001
0000
0000
,
0010
1000
1010
0000
0000
0000
1010
0000
,
0000
0000
0000
0000
0001
0100
0101
0000
,
0000
0101
0000
0000
,
0001
1000
1001
0000
0000
0000
1001
0000
,
0000
0000
0000
0000
0001
1000
0001
0000
,
0000
1001
0000
1001
,
0000
0000
0000
0000
1000
0001
1001
0000
,
0000
1001
0000
0000
,
0100
0001
0101
0000
0000
0000
0101
0000
,
0000
0000
0000
0000
1000
0010
1010
0000
,
0000
1010
0000
0000
,
1000
0001
1001
0000
0000
0000
1001
0000
,
0000
0000
0000
0000
1000
0001
1000
0000
,
0000
0000
0001
0000
0100
0010
0100
0000
,
0001
0000
0010
0100
0010
0000
0001
0000
,
0100
0010
0100
0000
0001
0000
0010
0100
,
0010
0000
0100
0000
1000
0010
1000
0000
,
0010
0000
0100
0010
0100
0000
1000
0000
,
0100
0010
0100
0000
1000
0000
0010
0100
,
0010
0000
1000
0010
0100
0001
1000
0010
,
0100
0001
1000
0100
0010
0001
1000
0100
,
0010
0001
1000
0000
0010
0100
0010
0000
,
1000
0000
0100
0010
0100
0000
1000
0000
,
0010
0100
0010
0000
1000
0000
0100
0010
,
0100
0000
0010
0000
0001
0100
0001
0000
,
0100
0000
0010
0100
0010
0000
0001
0000
,
0010
0100
0010
0000
0001
0000
0100
0010
,
0100
0000
0001
0100
0010
1000
0001
0100
,
0010
1000
0001
0010
0100
1000
0001
0010
,
0100
1000
0001
0010
0100
1000
0001
0000
,
0000
0000
1000
0100
0010
0001
1000
0000
,
0000
0000
0001
0010
0100
1000
0001
0000
,
0000
0000
1000
0100
0010
0001
1000
0000
,
0000
0000
0001
0010
0100
1000
0001
0000
,
0000
0000
1000
0100
0010
0001
1000
0000
,
0000
0000
0001
0010
0100
1000
0001
0000
,
0000
0000
1000
0100
0010
0001
1000
0000
,
0000
0000
1000
0100
0010
0001
1000
0000
,
0000
0000
0001
0010
0100
1000
0001
0000
,
0000
0000
1000
0100
0010
0001
1000
0000
,
0000
0000
0001
0010
0100
1000
0001
0000
,
0000
0000
1000
0100
0010
0001
1000
0000
,
0000
0000
0001
0010
0100
1000
0001
0000
,
0000
0000
1000
0100
0010
0001
1000
0000
,
0000
0000
0001
0010
0100
1000
0001
0000
,
0000
0000
1000
0100
0001
0100
1000
0010
,
0001
0010
1000
0100
0001
0100
1000
0010
,
0001
0010
1000
0100
0001
0100
0010
0001
,
0010
1000
0010
0001
0010
0100
0001
0100
,
1000
0100
0001
0100
0010
0001
0010
1000
,
0010
0001
0010
0100
0001
0100
1000
0010
,
0001
0010
1000
0010
0100
1000
0100
0001
,
0100
1000
0100
0001
0100
0010
1000
0100
,
0001
0100
1000
0100
0001
0100
1000
0010
,
0001
0010
1000
0100
0001
0100
1000
0010
,
0001
0010
1000
0100
0001
0100
0010
0001
,
0010
1000
0010
0001
0010
0100
0001
0100
,
1000
0100
0001
0100
0010
0001
0010
1000
,
0010
0001
0010
0100
0001
0100
1000
0010
,
0001
0010
1000
0010
0100
1000
0100
0001
,
0100
1000
0100
0001
0100
0010
1000
0100
,
0001
0100
2000
0000
0000
0000
0000
0000
,
0000
0000
0000
0000
,
0000
0000
0000
0000
,
0000
0000
0000
0000
,
0000
0000
0000
0000
,
0000
0000
0000
0000
,
0000
0000
0000
0000
,
0000
0000
0000
0000
,
0000
0000
0000
0000
,
0000
0000
0000
0000
,
0000
0000
0000
0000
,
0000
0000
0000
0000
,
3000
0000
0000
0000
;
