#TITLE:Dash Hopes III EX;
#SUBTITLE:;
#ARTIST:Renard;
#TITLETRANSLIT:;
#SUBTITLETRANSLIT:;
#ARTISTTRANSLIT:;
#CRChallenge:;
#BANNER:dh3.png;
#BACKGROUND:dh3-bg 2x1.png;
#LYRICSPATH:;
#CDTITLE:;
#MUSIC:dh3.ogg;
#OFFSET:0.098;
#SAMPLESTART:9.860;
#SAMPLELENGTH:12.000;
#SELECTABLE:NO;
#BPMS:0.000=102.000;
#STOPS:0.000=0.120
;
#BGCHANGES:;
#NOTES:
     dance-single:
     Renard:
     Challenge:
     8:
     0.691,0.584,1.000,0.000,0.662:
0000
0000
0000
0000
,
0101
0000
1010
0000
0000
1000
0010
0000
0101
0000
1010
0000
0000
1000
0100
0000
,
0010
0001
1000
0100
0000
0010
0001
0000
1100
0000
0011
0000
0000
0001
0100
0000
,
1010
0000
0101
0000
0000
0001
0010
0000
1100
0000
0011
0000
0000
1000
0100
0000
,
0010
0001
1000
0010
0000
1000
0010
0000
0101
0000
1010
0000
0000
0000
1001
0000
,
0001
0000
0100
0000
0001
0000
0100
0000
0000
0000
0000
0000
0010
0000
0000
1000
0000
0000
0010
0000
0000
0100
0000
0000
0000
0000
0000
0101
0000
0000
0000
0000
0000
0010
0000
0000
0100
0000
0000
0001
0000
0000
1000
0000
0000
0001
0000
0000
,
0000
0000
1001
0000
0000
1000
0100
0010
0001
0000
0010
0100
1000
0000
0000
0000
,
0000
0001
0100
0000
0110
0000
0010
1000
0010
0000
1001
0000
0000
0001
0100
0000
,
0001
1000
0100
0010
0000
0001
0010
0000
0110
0000
0011
0000
0000
0001
0010
0000
,
1100
0000
1001
0000
0000
0001
0100
0000
1001
0000
1010
0000
0000
0100
0001
0000
,
1000
0010
0100
0001
0000
1000
0100
0000
0011
0000
1100
0000
0000
0001
0010
0000
,
0100
0000
1000
0000
0100
0000
1000
0000
0000
0000
0000
0000
0011
0000
0000
0000
0000
0000
1100
0000
0000
0000
0000
0000
0001
0000
0000
1000
0000
0000
0010
0000
0000
0100
0000
0000
0000
0000
0000
0100
0000
0000
0010
0000
0000
0000
0000
0000
,
1010
0000
1001
0000
0011
0000
1001
0000
0110
0000
1001
0000
0000
0001
0100
0000
,
0101
0000
0110
0000
0000
0010
1000
0000
1010
0000
1001
0000
0000
1000
0100
0000
,
0010
0001
0010
0100
0000
1000
0001
0000
1011
0000
0000
0000
0000
0000
0000
0000
;
