#TITLE:Dash Hopes II;
#SUBTITLE:;
#ARTIST:Renard;
#TITLETRANSLIT:;
#SUBTITLETRANSLIT:;
#ARTISTTRANSLIT:;
#CRChallenge:;
#BANNER:dash.png;
#BACKGROUND:dash-bg.png;
#LYRICSPATH:;
#CDTITLE:;
#MUSIC:dash2.ogg;
#OFFSET:0.000;
#SAMPLESTART:4.800;
#SAMPLELENGTH:12.000;
#SELECTABLE:YES;
#BPMS:0.000=500.000;
#STOPS:;
#BGCHANGES:;
#NOTES:
     dance-single:
     Renard:
     Challenge:
     20:
     1.000,1.000,0.897,0.000,0.000:
1111
0000
0000
0000
,
0000
0000
0000
0000
,
0000
0000
0000
0000
,
0000
0000
0000
0000
,
0000
0000
0000
0000
,
0000
0000
0000
0000
,
0000
0000
0000
0000
,
0000
0000
0000
0000
,
0000
0000
0000
0000
,
0000
0000
0000
0000
,
1001
0000
0100
0010
0001
0000
0010
0100
,
1000
0000
0001
0010
0100
0000
0010
0001
,
1000
0000
0001
0010
0100
0000
0010
0001
,
1000
0000
0100
0010
0001
0000
0010
0100
,
1000
0000
0100
1000
0001
0000
0010
0001
,
1000
0000
0100
1000
0001
0000
0010
0100
,
1000
0000
0100
0010
0001
0000
0010
0001
,
1000
0000
0100
1000
0001
0000
0010
0100
,
1100
0000
0100
0010
0001
0000
0010
0100
,
1000
0000
0001
0010
0100
0000
0010
0001
,
1000
0000
0001
0010
0100
0000
0010
0001
,
1000
0000
0100
0010
0001
0000
0010
0100
,
1000
0000
0100
1000
0001
0000
0010
0001
,
1000
0000
0100
1000
0001
0000
0010
0100
,
1000
0000
0100
0010
0001
0000
0010
0001
,
1000
0000
0100
1000
0001
0000
0010
0100
,
1100
0000
0001
0100
0010
0000
1000
0010
,
0100
0000
0010
1000
0001
0000
0100
0010
,
1000
0000
0010
0100
0001
0000
0100
0001
,
1000
0000
0001
1000
0100
0000
1000
0001
,
0100
0000
0010
1000
0010
0000
0100
0001
,
0100
0000
0010
1000
0001
0000
0100
0001
,
1000
0000
0010
1000
0010
0000
0100
0001
,
0100
0000
0010
1000
0010
0000
0100
0001
,
1001
0000
0001
0100
0010
0000
1000
0010
,
0100
0000
0010
1000
0001
0000
0100
0010
,
1000
0000
0010
0100
0001
0000
0100
0001
,
1000
0000
0001
1000
0100
0000
1000
0001
,
0100
0000
0010
1000
0010
0000
0100
0001
,
0100
0000
0010
1000
0001
0000
0100
0001
,
1000
0000
0010
1000
0010
0000
0100
0001
,
0100
0000
0010
1000
0010
0000
0100
0001
,
1001
0100
0010
0001
0010
0100
1000
0001
,
0010
0100
1000
0100
0010
0001
0010
0100
,
1000
0001
0100
0010
1000
0010
0100
0001
,
0100
0010
1000
0001
0100
0010
1000
0010
,
0100
0001
1000
0100
0010
0001
1000
0001
,
0010
0100
1000
0001
1000
0100
0010
0001
,
1000
0001
0100
0010
1000
0010
0100
0001
,
1000
0001
1000
0100
0010
0001
1000
0001
,
1001
0001
0100
0010
1000
0100
0010
0001
,
0010
0100
1000
0100
0010
0001
0010
0100
,
1000
0001
0100
0010
1000
0100
0010
0001
,
0010
0100
1000
0001
0100
0010
1000
0100
,
1000
0001
0010
0100
1000
0001
0010
0001
,
0100
0010
1000
0010
0100
0001
0100
0010
,
1000
0010
0100
0001
1000
0100
1000
0001
,
0010
0100
1000
0100
0010
0001
1000
0001
,
1001
0100
0010
0001
0010
0100
1000
0001
,
0010
0100
1000
0100
0010
0001
0010
0100
,
1000
0001
0100
0010
1000
0010
0100
0001
,
0100
0010
1000
0001
0100
0010
1000
0010
,
0100
0001
1000
0100
0010
0001
1000
0001
,
0010
0100
1000
0001
1000
0100
0010
0001
,
1000
0001
0100
0010
1000
0010
0100
0001
,
1000
0001
1000
0100
0010
0001
1000
0001
,
1001
0001
0100
0010
1000
0100
0010
0001
,
0010
0100
1000
0100
0010
0001
0010
0100
,
1000
0001
0100
0010
1000
0100
0010
0001
,
0010
0100
1000
0001
0100
0010
1000
0100
,
1000
0001
0010
0100
1000
0001
0010
0001
,
0100
0010
1000
0010
0100
0001
0100
0010
,
1000
0010
0100
0001
1000
0100
1000
0001
,
1001
0000
0000
0000
,
1111
0000
0000
0000
,
0000
0000
0000
0000
,
0000
0000
0000
0000
,
0000
0000
0000
0000
,
0000
0000
0000
0000
,
0000
0000
0000
0000
,
0000
0000
0000
0000
,
0000
0000
0000
0000
,
0000
0000
0000
0000
,
0000
0000
0000
0000
,
1011
0000
1001
0000
,
1011
0000
0110
0000
,
1011
0000
1010
0000
,
1011
0000
0101
0000
,
1011
0000
0011
0000
,
1011
0000
1100
0000
,
0011
0110
1100
0110
,
0011
1001
0101
0000
,
1011
0000
0110
0000
,
1011
0000
0110
0000
,
1011
0000
0110
0000
,
1001
0000
1001
0000
1000
0100
0010
0000
,
0011
1001
1010
0110
,
0101
1001
1010
1001
,
0001
0100
0010
1000
0010
0100
0001
1000
,
0100
0010
0001
0010
0100
1000
0001
0100
,
1111
0000
0000
0000
,
0000
0000
0000
0000
,
0000
0000
0000
0000
,
0000
0000
0000
0000
,
0000
0000
0000
0000
,
0000
0000
0000
0000
,
0000
0000
0000
0000
,
0000
0000
0000
0000
,
0000
0000
0000
0000
,
0000
0000
0000
0000
,
1001
0000
0010
0100
0010
0000
0100
0000
,
0001
0000
0010
0100
0010
0000
0100
0000
,
1000
0000
0010
0100
0010
0000
0100
0000
,
0011
0110
1100
1001
,
0001
0000
0100
0010
0100
0000
0010
0000
,
1000
0000
0100
0010
0100
0000
0010
0000
,
0001
0000
0100
0010
0100
0000
0010
0000
,
1100
0110
0011
1001
,
1001
0000
0010
0100
0010
0000
0100
0000
,
0001
0000
0010
0100
0010
0000
0100
0000
,
1000
0000
0010
0100
0010
0000
0100
0000
,
0011
0110
1100
1001
,
0001
0000
0100
0010
0100
0000
0010
0000
,
1000
0000
0100
0010
0100
0000
0010
0000
,
0001
0000
0100
0010
0100
0000
0010
0000
,
1100
0110
0011
1001
,
1001
0100
0010
0001
0100
0010
1000
0100
,
0010
0001
0010
0100
1000
0001
0100
0010
,
1000
0100
0010
0001
0100
0010
1000
0001
,
0010
0100
1000
0001
0100
0010
1000
0001
,
1000
0100
0010
0001
0010
0100
1000
0001
,
0010
0100
1000
0001
1000
0100
0010
0001
,
0100
0010
1000
0001
0010
0100
1000
0010
,
0100
0001
0010
0100
1000
0100
0010
0001
,
1001
0100
1000
0100
1000
0100
1000
0100
,
0010
0001
0010
0001
0010
0001
0010
0001
,
0100
0001
0100
0001
1000
0010
1000
0010
,
1000
0100
0010
0001
0010
0100
1000
0001
,
1001
0000
0000
1111
,
0000
0000
1110
0000
,
0000
1111
0000
0000
,
1011
0000
1111
0000
,
1001
0000
0010
0100
1000
0000
0100
0010
,
0001
0000
1000
0100
0010
0000
0100
1000
,
0001
0000
1000
0100
0010
0000
0100
1000
,
0001
0000
0010
0100
1000
0000
0100
0010
,
0001
0000
0010
0001
1000
0000
0100
1000
,
0001
0000
0010
0001
1000
0000
0100
0010
,
0001
0000
0010
0100
1000
0000
0100
1000
,
0001
0000
0010
0001
1000
0000
0100
0010
,
0011
0000
0010
0100
1000
0000
0100
0010
,
0001
0000
1000
0100
0010
0000
0100
1000
,
0001
0000
1000
0100
0010
0000
0100
1000
,
0001
0000
0010
0100
1000
0000
0100
0010
,
0001
0000
0010
0001
1000
0000
0100
1000
,
0001
0000
0010
0001
1000
0000
0100
0010
,
0001
0000
0010
0100
1000
0000
0100
1000
,
0001
0000
0010
0001
1001
0000
0010
0000
,
1111
0000
0000
0000
,
0000
0000
0000
0000
,
0000
0000
0000
0000
,
0000
0000
0000
0000
,
0000
0000
0000
0000
,
0000
0000
0000
0000
,
0000
0000
0000
0000
,
0000
0000
0000
0000
,
0000
0000
0000
0000
,
0000
0000
0000
0000
,
1001
0010
0100
1000
0010
0100
0001
0010
,
0100
1000
0010
0100
0001
1000
0001
1000
,
0100
0010
0001
0100
0010
1000
0100
0010
,
0001
0100
0010
1000
0001
1000
0001
1000
,
0001
0010
0100
1000
0001
1000
0001
1000
,
0010
0100
0001
0010
0100
0010
0100
1000
,
0001
0100
0010
1000
0100
1000
0001
0010
,
0001
1000
0100
0010
0001
1000
0010
0100
,
1001
1000
0100
1000
0001
0010
0100
1000
,
0001
0010
0001
1000
0100
0010
0001
1000
,
0010
0100
0001
0010
0100
1000
0100
0010
,
0001
0100
0010
1000
0100
0010
0001
0010
,
0100
1000
0001
0100
0010
1000
0010
0100
,
0001
0010
0100
1000
0100
0010
0001
0100
,
0010
1000
0001
0010
0100
1000
0100
0010
,
1111
0000
0000
0000
;
