#TITLE:DVNO;
#SUBTITLE:;
#ARTIST:Justice;
#TITLETRANSLIT:;
#SUBTITLETRANSLIT:;
#ARTISTTRANSLIT:;
#CRChallenge:;
#BANNER:dvno-banner.avi;
#BACKGROUND:dvno-bg.png;
#LYRICSPATH:;
#CDTITLE:;
#MUSIC:dvno.ogg;
#OFFSET:0.000;
#SAMPLESTART:52.007;
#SAMPLELENGTH:12.000;
#SELECTABLE:YES;
#BPMS:0.000=119.985;
#STOPS:;
#BGCHANGES:;
#NOTES:
     dance-single:
     JS:
     Hard:
     10:
     0.727,0.665,0.692,0.767,0.261:
0000
0000
0000
0000
,
0000
0000
0000
0000
,
2000
3002
0103
0000
0010
0000
2010
3200
,
0320
0032
1003
0000
0010
0000
0210
0302
,
0023
0230
1300
0000
0001
0000
0201
0320
,
2030
3200
0310
0000
0001
0000
0021
0230
,
2300
3020
0130
0000
0001
0000
1200
0320
,
0032
0203
0310
0000
0100
0000
0012
0203
,
0320
2030
3001
0000
0100
0000
2010
3200
,
0320
0032
0103
0000
0010
1000
1010
0000
,
0002
0203
0310
1000
1001
0000
0201
0320
,
2030
3002
0013
0100
1100
0000
0120
0032
,
2003
3020
0130
0001
1001
0000
1200
0320
,
0032
2003
3010
0100
0101
0000
0120
2030
,
3002
0023
0130
1000
1001
0000
1020
0230
,
0302
2003
3100
0010
0011
0000
0210
2300
,
3002
0203
0310
1000
1001
0000
0021
0230
,
2300
3002
0103
0010
1010
0000
0210
0302
,
1003
0100
1000
0100
1000
0100
1000
0100
,
0010
0001
0010
0001
0010
0001
0010
0001
,
0100
0010
0100
0010
0100
0010
0100
0010
,
1000
0001
1000
0001
1000
0001
1000
0001
,
1000
0010
1000
0010
1000
0010
1000
0010
,
0100
0001
0100
0001
0100
0001
0100
0001
,
0010
0100
0010
0100
0010
0100
0010
0100
,
1000
0010
0100
0001
0010
0100
1001
0000
,
1100
0001
1100
0010
1001
0100
1001
0000
,
0101
1000
0101
0010
1001
0100
1001
0000
,
1010
0001
1010
0001
0110
1000
0101
0000
,
0011
1000
0011
1000
0110
0001
1100
0000
,
1010
0100
1010
0100
1001
0010
1001
0000
,
0011
0100
0011
0100
2002
0010
0010
3003
,
0101
1000
1100
0001
0101
0010
1000
0000
,
0101
1000
1100
0002
0000
0000
1003
0000
,
1100
2001
0010
3000
0101
1002
0010
0003
,
0011
0100
0011
0100
2200
0010
0010
3300
,
0101
1000
0010
0101
0000
1000
0110
0000
,
1100
0000
0001
0000
0010
0000
1100
0000
0000
0000
0001
0000
0100
0001
0000
0000
,
1000
0100
1000
0100
0000
0010
0001
0010
0000
0100
1000
0000
0010
0100
0010
0100
,
0001
0100
0001
0100
0000
0010
1000
0000
0000
0001
0000
0001
0000
0010
0100
0000
,
1000
0000
0010
0000
1000
0100
1000
0000
0010
0000
0100
0000
0001
1000
0001
1000
,
0001
0010
0001
0010
0000
0100
0010
0100
0000
1000
0010
1000
0100
0000
0010
0000
,
0001
0100
0001
0100
0000
0010
1000
0010
0000
0100
0001
0100
0000
0010
1000
0100
,
1000
0010
1000
0010
0000
0100
0001
0200
0002
0000
1000
0000
1000
0000
0303
0000
,
0001
0010
0100
1000
0000
1000
0000
0001
0000
0001
0000
0010
0000
0100
0010
0000
,
0001
0100
0010
1000
0000
0010
1000
0000
0001
1000
0001
1000
0010
0100
0010
0100
,
0002
0003
0000
0000
;
#NOTES:
     dance-single:
     Renard:
     Medium:
     8:
     0.551,0.539,0.511,0.192,0.181:
0000
0000
0000
0000
,
0000
0000
0000
0000
,
0001
0000
0010
0001
0010
0000
0001
0000
0000
0000
0100
0000
0010
0000
1000
0000
,
0100
0000
0001
0000
0000
0000
0100
0010
0100
0000
0010
0000
0001
0000
0100
0000
,
0010
0100
1000
0100
0010
0000
1000
0100
,
0010
0000
0001
0010
0001
0000
0010
0000
0100
0000
1000
0000
0010
0000
0100
0001
,
0000
0010
0000
0100
0000
1000
0000
0010
0000
0100
0000
0001
0000
1000
0000
0100
,
0000
0010
0000
0001
0000
1000
0000
0010
0000
0100
0000
0001
0000
0010
0100
0000
,
1000
0010
0100
0000
0001
0100
0010
1000
,
0100
0000
1000
0100
1000
0000
0000
0000
0001
0000
0100
0000
1001
0000
0000
0000
,
0001
0100
0110
0000
0010
1000
1100
0000
,
0010
0001
1001
0000
0001
0100
0110
0000
,
1010
0100
1001
0000
0101
1000
0110
0000
,
2002
0000
3013
0000
0001
0100
1000
0100
,
0001
0000
0011
0000
0010
0100
1100
0000
,
1000
0000
1001
0000
0001
0100
1001
0010
,
1001
0000
1100
0000
1000
0100
0011
0000
,
0010
0000
1001
0000
0001
0100
0010
1000
,
0100
0100
0010
0020
0000
0000
0032
0000
,
0103
1000
0200
0000
0310
2000
0000
0000
,
3100
0001
0100
0020
0000
0031
0010
2000
,
0000
3020
0000
0130
2000
0000
3020
0000
,
0130
0001
0010
0000
0010
0100
1000
0010
,
0100
0001
0010
0001
1000
0000
1000
0000
,
0001
0001
0100
0100
0010
0000
0010
1000
,
0100
0100
0010
0010
0001
0001
1001
0000
,
0101
1000
0101
1000
0000
0000
0101
0000
,
0010
1000
0100
0000
0010
0001
0011
0000
,
1100
0001
1100
0001
0000
0100
1000
0010
,
0000
0101
0000
0010
1000
0100
0010
0000
,
0001
0010
0100
0000
1000
0001
0100
0010
,
1000
0100
2000
0200
0000
0011
3311
0000
,
0100
1000
1100
1100
0011
0000
0001
0100
,
0010
1000
0001
0100
0101
0101
1010
0000
,
1010
0000
0000
0000
0101
0000
0000
0000
0001
0000
0100
0000
0010
1000
0000
0000
,
1100
0200
1000
2000
0000
0011
3311
0000
,
0100
1000
0010
1001
0000
0010
0100
0000
,
0001
0010
0100
1001
0000
0001
0100
0000
,
0001
0000
1000
0000
0100
0000
0010
0001
0000
0001
0010
0000
0100
0000
1000
0000
,
0010
0000
0100
0000
0001
0000
1000
0000
0010
0100
0000
0100
0010
0000
0100
0000
,
0010
0000
1000
0000
0001
0100
0001
0000
1000
0000
0100
1000
0001
0010
0000
0100
,
1000
0000
0001
0100
0001
0000
1000
0000
0100
0000
0000
0000
2001
0000
0000
0000
,
3001
0000
0110
0000
0010
1000
0101
0000
,
0010
1000
0002
0000
0200
0010
1303
0000
,
1001
0010
0100
1001
0000
0000
0100
0000
,
1001
0000
0100
0000
0010
0000
1001
0000
0001
0010
0100
1000
0001
0010
0100
1000
,
0001
0000
0000
0000
;
#NOTES:
     dance-single:
     Renard:
     Easy:
     6:
     0.338,0.343,0.245,0.043,0.000:
0000
0000
0000
0000
,
0000
0000
0000
0000
,
0100
1001
0010
1001
,
0100
1001
0010
1001
,
0100
1001
0010
1001
,
0100
1001
0010
1001
,
1000
0110
0001
0110
,
1000
0110
0001
0110
,
1000
0110
0001
0110
,
1000
0001
1000
0010
,
0001
0000
0100
0000
0001
0000
0100
0010
,
0100
0000
0010
0000
1000
0000
0100
1000
,
0100
0000
2000
0002
,
0000
3013
0000
0001
,
1000
0000
0100
0000
1000
0000
0001
0100
,
0001
0100
0010
1000
,
1010
0000
0100
0001
,
0010
0000
0100
0000
,
1000
0100
1000
0100
0000
0000
1100
0000
,
0011
1100
0011
0000
,
0001
0100
0001
0100
0000
0000
0010
1000
,
0000
0100
0000
0010
0001
0000
0010
0000
,
0100
1000
0010
0000
0000
1000
0000
0010
,
1000
0100
0010
0001
0000
0000
0000
0001
,
1000
0001
1000
0001
1000
0000
0000
0010
,
0100
0010
0100
0010
0100
0000
0010
0000
,
1000
0010
1000
0010
0000
0000
0100
0000
,
0001
0010
0100
0000
0010
0001
0000
0000
,
0010
0100
1000
0100
0000
1000
0001
1000
,
0000
0001
0000
0100
0010
0000
1000
0000
,
0010
1000
0001
0000
0100
0000
0001
0000
,
1000
0100
0010
0001
0000
1001
1001
0000
,
0001
0100
0001
0100
0001
0000
0000
0000
,
1000
0100
1000
0000
0100
0000
1000
0000
,
0001
0100
0010
1000
,
0010
0100
0001
0000
,
0001
0100
0010
1000
,
0100
0010
0001
0000
,
0010
0000
1000
0000
0010
1000
0010
0000
,
0100
0001
0010
0010
,
0001
0000
1000
0000
0100
1000
0100
0000
,
1000
0000
0010
0000
0100
0001
0100
0000
,
0001
0000
1000
0000
0100
0010
0100
0000
,
0010
0000
0001
0000
0000
1001
1001
0000
,
0002
0000
0000
1003
0000
0000
0010
0100
,
0002
0000
0000
0013
0000
0001
0010
0100
,
1000
0000
0000
0000
;
#NOTES:
     dance-single:
     Renard:
     Beginner:
     3:
     0.318,0.392,0.256,0.213,0.000:
0000
0000
0000
0000
,
0000
0000
0000
0000
,
1000
1000
0100
0100
,
0010
0010
0001
0001
,
1000
1000
0100
0100
,
0010
0010
0001
0001
,
1000
1000
0100
0100
,
0010
0010
0001
0001
,
1000
1000
0100
0100
,
0010
0010
0001
0000
,
1000
0001
1000
0001
,
1000
0001
1000
0001
,
1000
0001
2000
0002
,
0000
3013
0000
1000
,
0001
0001
1000
1000
,
0001
0001
1000
1000
,
0001
1000
0001
1000
,
0001
0001
1000
1000
,
0002
1000
1000
1000
,
2003
0001
0001
0001
,
3002
1000
1000
1000
,
2003
0001
0001
0001
,
3002
1000
1000
1000
,
2003
0001
0001
0001
,
3002
1000
1000
1000
,
2003
0002
0000
3013
,
1000
0101
0000
0101
,
0010
1100
0000
1100
,
0010
0101
0010
1100
,
1001
0000
0110
0000
,
0001
1000
0000
1000
,
0001
2000
0002
3013
,
1000
1000
0001
0000
,
0001
0100
0010
1000
,
1000
1000
1000
1000
,
2000
0002
0000
3013
,
0001
0001
1000
1000
,
0001
1000
0001
0000
,
1000
1100
0001
0101
,
1000
1100
0001
0101
,
1000
1100
0001
0101
,
1000
1100
0101
1001
,
0001
0011
1000
1010
,
1001
0110
2002
3013
,
2000
3001
0002
1003
,
2000
3001
0100
1001
,
0110
0000
0000
0000
;
#NOTES:
     dance-single:
     Renard:
     Challenge:
     10:
     0.712,0.788,0.990,0.724,0.282:
0000
0000
0000
0000
,
0000
0000
0000
1111
,
0011
1000
0101
1000
0011
1000
0101
0000
,
1100
0001
1010
0001
1100
0001
1010
0000
,
1001
0100
1010
0100
1001
0100
1010
0000
,
0011
0000
0100
0000
1001
0000
0100
0000
0011
0000
0100
0000
1001
0000
0000
0101
,
0000
0110
0000
1100
0000
0110
0000
0101
0000
0011
0000
0110
0000
1010
0000
0110
,
0000
0011
0000
0110
0000
1100
0000
0110
0000
0011
0000
0110
0000
0010
0100
1000
,
0100
0000
0010
0000
0011
0000
0000
0000
0010
0000
0000
0100
1000
0001
0100
0000
,
0010
0000
1010
0000
0200
0002
1313
0000
,
1101
0000
1011
0000
1000
0100
0010
0000
,
1011
0000
1101
0000
0001
0100
0010
0000
,
1101
0000
1011
0000
1000
0100
0010
0000
,
2002
3013
1101
1011
,
1101
0000
1011
0000
1000
0100
0010
0000
,
1011
0000
1101
0000
1000
0010
0100
0000
,
1101
0000
1011
0000
1000
0010
0100
0000
,
1011
1101
1011
1101
,
2000
0200
0010
3301
0000
0000
2200
0000
,
0010
0010
0001
0000
0010
3301
0000
0000
,
0002
0200
0010
1303
0000
0200
0002
1000
,
0000
1000
0000
0010
1000
0000
1313
0000
,
2000
0200
3310
0000
0000
0002
0000
0200
,
0010
1000
0010
1303
0000
0000
0000
1000
,
2000
0100
0200
0010
0020
0000
0000
0001
,
0032
0010
0023
0001
0032
0010
3313
0000
,
2000
3111
0002
1113
,
2000
3111
0002
1113
,
2000
3111
0002
1113
,
2000
3110
0002
1113
,
2000
3110
0002
0113
,
2000
0000
3110
0000
0000
1011
1011
0000
,
0002
1113
2000
3111
,
0002
1113
2000
3111
,
0002
0200
0010
1000
0313
0000
0000
0000
0101
0000
0000
0000
1010
0000
0000
0000
,
2000
0200
0010
0001
3310
0000
0000
0000
0000
0000
1011
0000
1011
0000
0000
0000
,
0002
0200
0010
1000
0313
0000
0000
0000
0101
0000
0000
0000
1010
0000
0000
0000
,
2000
0200
0010
0001
3310
0000
1100
0000
0000
0000
0000
0000
0000
0000
0000
0000
,
1000
0000
2000
0200
3310
0000
2000
0200
3310
0000
0000
0000
0011
0000
0000
0000
,
0001
0000
0002
0200
0313
0000
0002
0200
0313
0000
0000
0000
1010
0000
0000
0000
,
1000
0000
2000
0200
3310
0000
2000
0200
3310
0000
0000
0000
0011
0000
0000
0000
,
0001
0000
0002
0200
0313
0000
0002
0200
0313
0000
0000
0000
1010
0000
0000
0000
,
0001
0000
0002
0200
0020
0000
0003
0300
0030
0000
0000
0000
1001
0000
0000
0000
,
1000
0000
2000
0200
0020
0000
3000
0300
0030
0000
1110
0000
1110
0000
0000
0000
,
0000
1100
0000
1001
0000
1010
0000
1100
0000
1001
0000
1010
0000
1000
0100
0010
,
0001
0010
0100
1000
0001
0100
0010
1000
0001
0001
0001
0001
1000
1000
1000
1000
,
0002
0003
0000
0000
;
