#TITLE:DJ Ludwig NES Supercorn;
#SUBTITLE:;
#ARTIST:Flexe;
#TITLETRANSLIT:;
#SUBTITLETRANSLIT:;
#ARTISTTRANSLIT:;
#CRChallenge:;
#BANNER:nes-banner.avi;
#BACKGROUND:nes-bg.png;
#LYRICSPATH:;
#CDTITLE:!cdtitle.png;
#MUSIC:nes.ogg;
#OFFSET:0.000;
#SAMPLESTART:7.253;
#SAMPLELENGTH:12.000;
#SELECTABLE:YES;
#BPMS:0.000=132.000;
#STOPS:;
#BGCHANGES:;
#NOTES:
     dance-single:
     Renard:
     Hard:
     12:
     0.980,0.900,0.021,0.000,1.000:
0000
0000
0000
0000
,
0000
0000
0000
0000
,
0000
0000
0000
0000
,
0000
0000
0000
0000
,
0001
0010
0100
1000
0001
0100
0010
1000
0100
0010
0100
1000
0001
0010
0100
0010
,
0001
1000
0010
0100
0001
0010
0100
1000
0100
0010
0001
0100
0010
1000
0100
0010
,
0100
1000
0001
0010
0100
0010
0001
1000
0100
0010
0001
0010
0100
1000
0001
0100
,
0010
1000
0100
0010
0001
0010
0100
1000
0001
0100
0010
1000
0010
0000
0000
0000
,
1000
0010
0100
0001
0010
0100
1000
0100
0010
0001
0100
0010
1000
0100
0010
0100
,
1000
0001
0010
0100
0010
0001
0010
0100
1000
0001
0010
0100
1000
0001
0100
0010
,
1000
0100
0010
0001
0010
0100
1000
0001
0100
0010
1000
0100
0010
0100
1000
0001
,
0010
0100
1000
0001
0100
0010
1000
0100
0010
0001
0010
0100
0010
0000
0000
0000
,
0001
0010
0100
1000
0001
0100
0010
1000
0100
0010
0100
1000
0001
0010
0100
0010
,
0001
1000
0100
0010
0100
1000
0001
0010
0100
0010
0001
1000
0010
1000
0001
0100
,
0001
1000
0100
1000
0001
0010
0001
1000
0100
0010
0001
0010
0100
1000
0001
0100
,
0010
1000
0100
0010
0001
0010
0100
1000
0001
0100
0010
1000
0100
0000
0000
0000
,
1000
0100
1000
0100
1000
0001
1000
0001
0100
0001
0100
0001
0010
0001
0010
0001
,
1000
0010
1000
0010
1000
0100
1000
0100
1000
0001
0100
0001
0100
0001
0010
0001
,
0010
0100
0010
0100
1000
0100
1000
0100
1000
0001
1000
0001
0100
0001
0100
0001
,
0010
0001
0010
0001
0010
0100
0010
0100
0010
0100
1000
0100
1000
0001
1000
0000
,
0001
0010
0000
0010
0100
1000
0010
0100
0001
0010
0000
0010
0100
1000
0001
0100
,
0010
1000
0000
1000
0010
0100
0001
0010
0100
1000
0100
0010
0001
0100
0010
1000
,
0100
0010
0000
0010
0001
0010
0100
1000
0001
0100
0000
0100
0010
1000
0100
0010
,
0001
0010
0100
1000
0001
0100
0010
1000
0001
0000
0000
0000
0101
0000
0000
0000
,
0001
0100
0000
0100
0010
1000
0100
0010
0001
0010
0000
0010
0001
0010
0100
1000
,
0001
0100
0000
0100
0010
1000
0100
0010
0001
0010
0100
1000
0001
0100
0010
1000
,
0100
0010
0000
0010
0100
1000
0010
0100
0001
0010
0000
0010
0001
0010
0100
1000
,
0001
0100
0000
0100
0010
1000
0100
0010
0001
0000
0000
0000
0011
0000
0000
0000
,
0001
0100
0001
0100
0010
0100
0010
0100
0010
1000
0010
1000
0100
1000
0100
1000
,
0001
0010
0001
0010
0100
0010
0100
0010
0100
1000
0100
1000
0001
0100
0001
0100
,
0010
1000
0010
1000
0100
1000
0100
1000
0001
0010
0001
0010
0001
0100
0001
0100
,
0010
1000
0100
0010
0001
0010
0100
1000
0001
0100
0010
1000
0100
0010
0001
0010
,
0100
1000
0100
1000
0001
0100
0001
0100
0010
1000
0010
1000
0001
0010
0001
0010
,
0100
1000
0100
0010
0001
0100
0010
1000
0100
0010
0001
0010
0100
1000
0001
0100
,
0010
0100
0010
0100
0010
1000
0010
1000
0001
0100
0001
0100
0001
0010
0001
0010
,
0100
1000
0100
0010
0001
0100
0010
1000
0100
0010
0001
0100
0010
1000
0100
0010
,
0001
0000
0000
0000
0010
0000
0000
0000
0100
0000
0000
0100
0000
0000
0100
0000
,
0000
1000
0010
0000
0100
0010
1000
0010
,
0100
0001
0000
0001
0100
0010
0000
1000
0010
0100
0000
0001
0100
0010
0000
1000
,
0100
0010
0000
0001
0010
0100
0000
1000
0001
0100
0010
1000
0100
0010
0001
0010
,
0100
1000
0000
0001
0100
0010
0000
1000
0100
0010
0000
0001
0010
0100
0000
1000
,
0001
0100
0000
0010
1000
0100
0000
0010
0001
0010
0000
0100
1000
0001
0000
0100
,
0010
1000
0100
0010
0001
0010
0100
1000
0001
0100
0010
1000
0100
0010
0001
0010
,
0100
1000
0000
0001
0100
0010
0000
1000
0100
0010
0000
0001
0010
0100
0000
1000
,
0001
0100
0010
1000
0100
0010
0100
1000
0001
0010
0100
0010
0001
1000
0010
0100
,
0001
0010
0000
0010
0100
1000
0000
1000
0001
0100
0000
0100
0010
1000
0000
1000
,
0100
0010
0001
0010
0100
1000
0001
0100
0010
1000
0000
1000
0010
0100
0000
0100
,
0001
0010
0100
1000
0100
0010
0001
0100
0010
1000
0000
1000
0001
0100
0000
0100
,
0010
0000
1000
0010
0100
0100
0001
0000
,
0010
0001
1000
0100
0010
0001
1000
0000
,
0001
0000
0100
0000
0010
1000
0010
0000
,
0100
0010
1000
0100
0010
0001
0010
0000
;
#NOTES:
     dance-single:
     Renard:
     Medium:
     9:
     0.616,0.627,0.211,0.000,0.353:
0000
0000
0000
0000
,
0000
0000
0000
0000
,
0000
0000
0000
0000
,
0000
0000
0000
0000
,
1000
0000
0100
1000
0100
0000
1000
0000
0001
0000
0100
0001
0100
0000
0001
0000
,
1000
0000
0010
1000
0010
0000
1000
0000
0001
0000
0010
0001
0010
0000
0001
0000
,
1000
0000
0100
1000
0100
0000
1000
0000
0001
0000
0100
0001
0100
0000
0001
0000
,
1000
0000
0010
1000
0010
0000
1000
0000
0001
0000
0010
0001
0010
0000
0001
0000
,
1000
0000
0000
1000
0100
0000
0000
0100
0010
0000
0000
0010
0001
0000
0000
0001
,
1000
0000
0000
1000
0010
0000
0000
0010
0100
0000
0000
0100
0001
0000
0000
0001
,
1000
0000
0000
1000
0100
0000
0000
0100
0001
0000
0000
0001
0100
0000
0000
0100
,
1000
0000
0000
1000
0010
0000
0000
0010
0100
0000
0000
0100
0001
0000
0000
0001
,
0010
0000
0001
0000
0010
0000
0001
0010
0001
0000
0010
0000
0001
0000
0010
0000
,
0100
0000
1000
0000
0100
0000
1000
0100
1000
0000
0100
0000
1000
0000
0100
0000
,
1000
0000
0010
0000
1000
0000
0010
1000
0010
0000
1000
0000
0010
0000
1000
0000
,
0001
0000
0100
0000
0001
0000
0100
0001
0100
0000
0001
0000
0100
0000
0001
0000
,
0100
1000
0100
1000
0100
0010
0100
0010
,
0100
0001
0100
0001
0010
0001
0010
0001
,
0010
0100
0010
0100
0010
1000
0010
0100
,
0010
0001
0010
0100
1000
0100
0010
0001
,
0010
0001
0000
0000
0001
0010
0000
0000
0100
1000
0000
0000
1000
0010
0000
0000
,
0010
0100
0000
0000
0100
0001
0000
0000
0100
0000
0010
0000
1000
0000
0100
0000
,
0010
0001
0000
0000
1000
0100
0000
0000
0010
0001
0000
0000
1000
0010
0000
0000
,
0100
0001
0000
0000
1000
0010
0000
0000
1000
0100
0000
0000
0010
0001
0000
0000
,
0010
0001
0000
0000
1000
0100
0010
0000
0001
0010
0000
0000
0100
1000
0001
0000
,
0010
0001
0000
0000
1000
0100
0010
0000
0001
0000
0010
0000
0100
0000
0000
0000
,
1000
0010
0000
0000
0100
0001
0100
0000
0010
1000
0000
0000
0100
1000
0100
0000
,
1000
0001
0000
0000
0010
0001
0010
0000
0001
0010
0001
0000
0010
0001
0010
0000
,
0100
1000
0001
0100
0010
0010
0100
0100
,
0001
0001
1000
1000
0100
0100
0010
0010
,
0001
0001
1000
1000
0010
0010
0100
0100
,
0010
0100
0001
0100
1000
0100
0001
0100
,
0001
0001
0010
0010
0100
1000
0010
0100
,
0010
0010
1000
0100
0010
0001
1000
0010
,
0100
0100
0010
1000
0100
0100
0010
0001
,
0100
0100
0001
0001
0010
0010
0100
0100
,
1000
0000
1100
0000
0100
0100
0010
0000
,
0001
0000
0101
0000
0001
1000
0100
0000
,
1000
0000
0000
0000
0001
0100
0000
0000
0010
1000
0000
0000
0100
0010
0000
0000
,
0001
0010
0000
0000
0100
1000
0000
0000
0001
0000
0000
0000
1001
0000
0000
0000
,
0001
0100
0001
0000
0100
0000
0001
0000
1000
0000
0001
0000
1000
0000
0001
0000
,
1000
0100
1000
0000
0100
0000
1000
0000
0001
0000
1000
0000
0001
0000
1000
0000
,
0001
0010
0001
0000
0010
0000
0001
0000
1000
0000
0001
0000
1000
0000
0001
0000
,
1000
0010
1000
0000
0010
0000
1000
0000
0001
0000
1000
0000
0001
0000
1000
0000
,
0001
0100
0010
0100
1000
0100
0010
0100
,
0001
0010
0100
0010
1000
0010
0100
0010
,
0001
0001
0010
0010
0100
0100
1000
1000
,
0010
0000
0010
0000
0100
0000
0100
0000
0001
1000
0001
0000
1000
0001
1000
0000
,
0001
0000
0101
0000
1001
1001
1100
0000
,
1001
0000
0101
0101
1001
1001
1010
0000
,
1001
0000
0011
0000
1001
1001
0101
0000
,
1001
0000
1100
0000
0010
1000
0100
0000
;
#NOTES:
     dance-single:
     Renard:
     Easy:
     7:
     0.355,0.354,0.011,0.000,0.000:
0000
0000
0000
0000
,
0000
0000
0000
0000
,
0000
0000
0000
0000
,
0000
0000
0000
0000
,
1000
0000
0100
0010
0001
0000
0001
0010
,
0100
0000
0100
1000
0010
0000
0010
0100
,
0001
0000
0001
0010
0100
0000
0100
1000
,
0010
0100
0001
1000
,
0001
0000
0001
0010
0100
0000
0100
1000
,
0010
0000
0010
0100
0001
0000
0001
0010
,
0100
0000
0100
1000
0010
0000
0010
0100
,
0001
1000
0001
1000
,
0010
0000
0010
1000
0100
0000
0100
1000
,
0010
0000
0010
1000
0100
0000
0100
1000
,
0010
0000
0010
0100
0001
0000
0001
0010
,
0100
0000
0100
1000
0010
0000
0100
0000
,
0001
0010
0100
1000
,
0100
0010
0001
1000
,
0100
0010
0001
1000
,
0100
0100
0010
0010
,
0001
0000
0010
0100
1000
0000
0001
0010
,
0100
0100
1000
1000
,
0100
0000
1000
0001
0010
0000
0100
1000
,
0001
0000
0010
0001
1000
0000
0100
0000
,
1000
0000
0001
1000
0010
0000
1000
0100
,
1000
0001
1000
0010
,
1000
0000
0100
1000
0001
0000
1000
0000
,
0010
0000
1000
0000
0001
0100
0010
0000
,
1000
1000
0010
0100
,
0001
0001
0010
0100
,
1000
1000
0010
0100
,
0001
0001
0010
0100
,
1000
1000
0010
0100
,
0001
0001
0010
0100
,
1000
1000
0010
0100
,
0001
0001
0010
0100
,
1000
0000
0100
0000
1000
1000
0100
0000
,
1000
0000
0100
0000
1000
0100
1000
0000
,
0001
0000
0010
0100
1000
0000
1000
0100
,
0010
0000
0010
0001
0010
0000
0100
0000
,
1000
0010
0100
0001
,
0100
0010
1000
0010
,
0100
0001
0100
0010
,
1000
0100
0010
0001
,
0010
0000
0010
0100
1000
0000
1000
0100
,
0010
0000
0010
0001
0010
0000
0001
0010
,
0100
0000
0100
0010
0001
0000
0001
1000
,
0010
0000
0100
0001
0100
0000
0010
0000
,
1000
0000
0010
0000
0100
0001
0100
0000
,
0010
0000
1000
0000
0100
0010
0001
0000
,
0010
0000
0100
0000
1000
0001
1000
0000
,
0001
0010
0100
1001
;
#NOTES:
     dance-single:
     Renard:
     Beginner:
     3:
     0.304,0.354,0.211,0.126,0.000:
0000
0000
0000
0000
,
0000
0000
0000
0000
,
0000
0000
0000
0000
,
0000
0000
0000
0000
,
1000
0001
0100
0010
,
1000
1000
0010
0010
,
0100
0001
0010
0100
,
1000
0100
0010
0001
,
1000
1000
0001
0001
,
0010
0010
0100
0100
,
1000
0001
1000
0010
,
1000
0001
0100
0001
,
1000
0100
1000
0010
,
1000
0001
1000
0010
,
1000
0001
0100
0001
,
0010
0001
1000
0001
,
0100
0100
0010
0000
,
1000
1000
0010
0000
,
0100
0100
0001
0000
,
0010
0010
0100
0000
,
1000
0100
1000
0010
,
1000
0001
1001
0000
,
0001
0010
0001
1000
,
0001
0100
0101
0000
,
0001
1000
0100
1000
,
0001
1000
1010
0000
,
1000
0001
0100
0001
,
1000
0001
0011
0000
,
0002
0013
0010
0000
,
0200
1300
1000
0000
,
0020
0130
0100
0000
,
0002
1003
1000
0000
,
0200
1300
0002
0013
,
0001
0000
1000
0000
,
0002
0013
0200
1300
,
0010
1000
0001
0100
,
0020
1030
0020
1030
,
0020
1030
0020
1030
,
0010
0000
1000
0000
,
0100
0000
0010
0000
,
0001
0011
0010
0011
,
0001
0011
0010
0011
,
1000
1100
0100
1100
,
1000
1100
0100
1100
,
0001
0101
0100
0101
,
0001
0101
0100
0101
,
1000
1010
0010
1010
,
1000
1010
0010
1010
,
1000
0000
0001
0100
,
0010
0000
1000
0100
,
0010
0000
0001
1000
,
0010
0000
0100
0001
;
