#TITLE:D.A.N.C.E;
#SUBTITLE:;
#ARTIST:Justice;
#TITLETRANSLIT:;
#SUBTITLETRANSLIT:;
#ARTISTTRANSLIT:;
#CRChallenge:;
#BANNER:dance.png;
#BACKGROUND:dance-bg.png;
#LYRICSPATH:;
#CDTITLE:;
#MUSIC:dance.ogg;
#OFFSET:0.000;
#SAMPLESTART:16.791;
#SAMPLELENGTH:12.000;
#SELECTABLE:YES;
#BPMS:0.000=113.000;
#STOPS:;
#BGCHANGES:;
#NOTES:
     dance-single:
     Renard:
     Hard:
     10:
     0.534,0.584,0.557,0.139,0.42:
0000
0000
0000
0000
,
0000
0000
0000
0000
,
0000
0000
0000
0000
,
0000
0000
0000
0000
,
1011
0000
0000
0000
0100
0000
0000
0001
0000
0000
0000
0001
0100
0001
0010
0001
,
0010
0000
0100
0000
0000
0000
0000
0100
1000
0001
0100
0010
1000
0000
0001
0100
,
0010
0000
1000
0001
0100
0001
1000
0000
0100
0000
1000
0001
0100
0001
1000
0000
,
0220
0000
0000
0000
0000
0000
0000
0000
0000
0000
0000
0000
0330
0000
0000
0010
,
1010
0000
0100
0000
0011
0000
0000
0000
1001
0000
0100
0000
1000
0100
0000
0011
,
0000
0000
0100
1000
0010
0000
0100
0001
0010
0000
0100
0000
1000
0001
0100
0000
,
0101
0000
0010
0000
1000
0000
0100
0000
0010
0000
0001
0000
0010
0100
0000
0110
,
0000
0000
0100
1000
0001
0010
0001
1000
0100
0100
1000
1000
0001
0011
0000
0000
,
0101
0000
0010
0000
1100
0000
0000
0000
1001
0000
0010
0000
0011
0000
0000
1100
,
0000
0000
0010
0001
0100
0000
0010
1000
0100
0000
0010
0000
0001
1000
0010
0000
,
1010
0000
0100
0000
0001
0000
0010
0000
0100
0000
1000
0000
0100
0010
0000
0110
,
0000
0000
0010
0001
1000
0100
1000
0001
0010
0010
0001
0001
1000
1100
0000
0000
,
2002
0000
0000
0000
0000
0000
0000
0000
0000
0000
0000
0000
0020
0000
0000
3133
,
0000
0000
0000
0000
0101
0000
0000
0010
0010
0000
1000
0010
0100
0000
0000
0000
,
1001
0000
0000
0000
0010
0000
0000
0000
0101
0000
0000
0000
0010
0000
0000
1010
,
0100
0000
0000
0000
0000
0000
0000
0101
0010
0000
0000
0000
1001
0000
0000
0000
,
0101
0000
0000
0000
0010
0000
0000
0000
1000
0000
0001
0100
0010
1000
0100
0110
,
0000
0000
0000
0000
0001
0000
0000
0000
0110
0000
0100
1000
0010
0000
0000
0000
,
0110
0000
0000
0000
0001
0000
0000
0000
0110
0000
0000
0000
1000
0000
0000
2012
,
0000
0000
0000
3003
,
1001
0000
0001
0000
0000
0100
0000
0000
0010
0000
0000
1000
0000
0000
0100
0011
,
0000
0000
0001
0000
0000
1000
0000
0000
0010
0000
0000
0100
0000
0000
0001
0000
,
1001
0000
0100
0000
0000
0010
0000
0000
0001
0000
0000
1000
0000
0000
0010
0101
,
0000
0000
0001
0000
1000
0000
0000
1001
0100
0000
0000
0000
0001
0000
0000
0000
,
1100
0000
0010
0000
0101
0000
0010
0000
1001
0000
0100
0000
1010
0100
0001
0011
,
0000
0000
0001
1000
0100
0000
1000
0001
0100
0000
0001
0000
1000
0000
0100
0000
,
1000
0100
0010
0000
0011
0000
0100
0000
1000
0000
0000
0000
0001
0100
0010
0110
,
0010
1000
0010
0000
0100
0001
0100
0000
0001
1000
0100
0000
0000
0011
0000
0000
,
0200
0000
2300
0000
,
3010
1000
0010
0000
0100
0001
0100
0000
0010
0000
0000
0000
1000
0010
1000
0000
,
0001
0000
0100
0010
1000
0000
0100
0000
0100
0000
0000
0000
1001
0000
0000
0000
,
1000
0000
0100
0010
0001
0000
0100
0000
0100
0000
0010
0000
0110
0000
2000
0000
,
0010
3001
0200
0010
0301
0000
1001
0000
,
1000
0100
0010
0001
1000
0000
0001
0000
0001
0000
0000
0000
0110
0000
0000
0000
,
1000
0000
0010
0100
0001
0000
0010
0000
0010
0000
0000
0000
1001
0000
0000
0000
,
0001
0000
0010
0100
1000
0000
0010
0000
0010
0000
0100
0000
0110
0000
0002
0000
,
0100
1003
0020
0100
1030
0000
1001
0000
,
0001
0010
0100
1000
0001
0000
1000
0000
1000
0000
0000
0000
0110
0000
0000
0000
,
1001
0000
0000
0000
;
#NOTES:
     dance-single:
     Renard:
     Medium:
     7:
     0.411,0.382,0.342,0.054,0.000:
0000
0000
0000
0000
,
0000
0000
0000
0000
,
0000
0000
0000
0000
,
0000
0000
0000
0000
,
1000
0100
0001
0100
1000
0100
0001
0100
,
1000
0010
0001
0010
1000
0010
0001
0010
,
1000
0100
0010
0001
0100
0010
1000
0100
,
0010
0010
0001
0000
1000
0000
1001
0000
,
0001
0100
0010
0000
0010
1000
0100
0000
,
1100
0000
1000
0010
0100
0001
0010
0001
,
0000
0010
0010
0000
0100
1000
0001
0100
,
0010
1000
1000
0001
0001
1000
1000
0001
,
1000
0100
0010
0000
0001
0010
0100
0000
,
1000
0010
0100
0001
0010
0100
1000
0001
,
0100
0000
0101
0000
0100
0010
1000
0100
,
0010
0001
0001
1000
1000
0001
0001
0000
,
1000
0100
0001
0010
1000
0100
0001
0000
,
0100
0100
0100
0100
0100
0000
1100
0000
,
1100
1001
1010
1001
,
0001
0100
1000
0100
0001
0000
0101
0000
,
0001
0001
1000
1000
0001
1000
0010
0000
,
0100
0100
0100
0100
0100
0000
0101
0000
,
0101
1001
0011
1001
,
0001
0100
0010
1000
0001
0000
0000
0000
,
1000
0100
1000
0100
1000
0100
1000
0100
,
0001
0100
0001
0100
0001
0100
0001
0100
,
1000
0100
1000
0100
1000
0100
1000
0100
,
0001
0100
1000
0100
0001
0100
1000
0100
,
1000
0010
0001
0000
1000
0100
0001
0000
,
1000
0010
0001
0000
1000
0100
0001
0000
,
1000
0010
0001
0010
0100
1000
0100
0010
,
1000
0100
0001
0100
1000
0001
0010
0000
,
2002
3000
0200
0300
,
0020
0030
2000
3003
,
1100
0000
1000
0100
0010
0000
0011
0000
,
0101
0000
0001
0100
0010
0000
0110
0000
,
1010
0000
1000
0100
0010
0000
0110
0000
,
0011
0000
0001
1000
0010
0000
1010
0000
,
0110
0000
0010
0100
0001
0000
0101
0000
,
1001
0000
0001
1000
0100
0000
1100
0000
,
0110
0000
0100
0010
0001
0000
0011
0000
,
1001
0000
0001
1000
0010
0000
0110
0000
,
1001
0000
0000
0000
;
#NOTES:
     dance-single:
     Renard:
     Easy:
     5:
     0.306,0.337,0.268,0.086,0.000:
0000
0000
0000
0000
,
0000
0000
0000
0000
,
0000
0000
0000
0000
,
0000
0000
0000
0000
,
1000
0100
0001
0100
1000
0100
1000
0000
,
1000
0010
0001
0010
1000
0010
1000
0000
,
1000
0100
0001
0100
1000
0100
1000
0000
,
0001
0000
1000
0000
,
0001
0101
0001
0011
,
0001
0101
0001
0011
,
1000
1100
1000
1010
,
1000
1100
1000
1010
,
0001
0011
0001
0101
,
1000
1010
1000
1100
,
0001
0011
1000
1100
,
0001
0101
1000
1010
,
1000
0010
0001
0010
1000
0010
0001
0000
,
1000
0010
0001
0010
1000
0000
0000
0000
,
0001
0100
1000
0100
0001
0100
1000
0000
,
0001
0100
1000
0100
0001
0000
0000
0000
,
1000
0010
0001
0010
1000
0010
0001
0000
,
1000
0010
0001
0010
1000
0000
0000
0000
,
0001
0100
1000
0100
0001
0100
1000
0000
,
0001
0100
1000
0100
0001
0000
0000
0000
,
2000
0000
0000
0000
,
3200
0000
0000
0000
,
0320
0000
0000
0000
,
0032
0000
2003
0000
,
3020
0100
1000
0001
,
0130
0000
0001
0100
0010
0000
1000
0000
,
0010
0010
1000
0100
,
0010
0001
1000
0001
1000
0001
1000
0000
,
0020
0000
0230
0000
,
0010
0001
0010
0001
,
0301
0000
0000
0001
1000
0000
1001
0000
,
1000
0000
0000
0010
1000
0000
1010
0000
,
0100
0000
0000
0001
0010
0000
0011
0000
,
0100
0000
0000
1000
0010
0000
1010
0000
,
0100
0000
0000
0001
1000
0000
1001
0000
,
0100
0000
0000
1000
0001
0000
0011
0000
,
0010
0000
0000
0100
1000
0000
1100
0000
,
0010
0000
0000
0100
0001
0000
1001
0000
,
0110
0000
0000
0000
;
#NOTES:
     dance-single:
     Renard:
     Beginner:
     2:
     0.248,0.289,0.375,0.128,0.000:
0000
0000
0000
0000
,
0000
0000
0000
0000
,
0000
0000
0000
0000
,
0000
0000
0000
0000
,
1000
1000
1000
1000
,
1000
1000
1000
1000
,
1000
1000
1000
2000
,
0002
0000
0000
3003
,
1000
1001
0001
1001
,
1000
1001
0001
1001
,
1000
1001
0001
1001
,
0100
0000
0100
0000
,
1000
1001
0001
1001
,
1000
1001
0001
1001
,
1000
1001
0001
1001
,
2000
0000
0000
0000
,
3001
0000
0000
1001
,
0001
0101
1000
1100
,
0001
0101
1000
1100
,
0001
0101
1001
0000
,
1000
1100
0001
0101
,
1000
1100
0001
0101
,
1000
1100
0001
0101
,
1001
0000
0000
0000
,
2000
0000
0000
0000
,
3002
0000
0000
0000
,
0203
0000
0000
0000
,
0302
0000
2003
0000
,
3100
1100
1001
0101
,
1001
1000
0001
1000
,
0001
0101
1001
1100
,
1001
0001
0100
0001
,
2000
0000
3002
0000
,
0203
0000
0302
0000
,
1003
1000
0001
0000
,
0001
0100
1000
0000
,
1000
1000
0001
0000
,
0001
0100
1000
0000
,
1000
1000
0001
0000
,
0001
0100
1000
0000
,
1000
1000
1001
0000
,
0001
0100
1000
0000
;
