#TITLE:Cybernetics;
#SUBTITLE:;
#ARTIST:Current Value;
#TITLETRANSLIT:;
#SUBTITLETRANSLIT:;
#ARTISTTRANSLIT:;
#CRChallenge:;
#BANNER:cybernetics.png;
#BACKGROUND:cybernetics-bg.png;
#LYRICSPATH:;
#CDTITLE:;
#MUSIC:cybernetics.ogg;
#OFFSET:0.000;
#SAMPLESTART:1.038;
#SAMPLELENGTH:12.000;
#SELECTABLE:YES;
#BPMS:0.000=88.355,34.000=176.710,66.000=88.355,67.000=176.710,160.000=88.355,161.000=176.710,221.000=88.355,228.000=176.710;
#STOPS:66.000=0.340
,160.000=0.679
,221.000=0.679
;
#BGCHANGES:;
#NOTES:
     dance-single:
     Renard:
     Challenge:
     10:
     0.689,0.670,0.778,0.020,0.793:
0000
0000
0000
0000
,
0000
0000
0000
0000
,
0000
0000
0000
0000
,
0000
0000
0000
0000
,
0000
0000
0000
0000
0000
0000
0001
0010
0100
0000
0100
1000
0010
0000
0010
0100
,
0001
0000
0001
0100
0010
0000
0010
1000
0100
0000
0100
0010
0001
0000
0001
1000
,
0010
0000
0010
0100
0001
0000
0001
1000
0100
0000
2000
0002
0000
0000
0000
0000
,
0000
0000
0000
0000
,
0000
0000
0000
0000
0000
0000
3003
0000
0110
0000
0000
1001
0000
0000
0101
0000
,
0000
1100
0000
0000
1001
0000
0000
0000
1100
0000
0000
0011
0000
0000
1100
0000
,
0000
0011
0000
0000
0001
0010
0100
1000
0100
0000
0000
0011
0000
0000
1100
0000
,
0000
0011
0000
0000
1000
0100
0010
0001
0010
0000
0000
1100
0000
0000
0011
0000
,
0000
1100
0000
0000
0001
0010
0100
0000
1100
0000
0000
0011
0000
0000
1100
0000
,
0000
0011
0000
0000
1000
0100
0010
0001
1000
0000
0000
0101
0000
0000
1010
0000
,
0000
0101
0000
0000
1000
0010
0100
0001
0100
0000
0000
1010
0000
0000
0101
0000
,
0000
1010
0000
0000
0001
0100
0010
1000
0001
0000
0000
0101
0000
0000
1010
0000
,
0000
0101
0000
0000
1000
0010
0100
0001
0100
0000
0000
0000
0010
0000
0100
0000
,
1001
0000
0000
0110
0000
0000
1001
0000
0000
0110
0000
0000
0001
0000
1000
0000
,
0110
0000
0000
1001
0000
0000
0110
0000
0000
1001
0000
0000
0010
0000
0100
0000
,
1001
0000
0000
0100
0000
0000
1010
0000
0000
0100
0000
0000
1001
0000
0010
0000
,
0101
0000
0000
0010
0000
0000
1000
0000
0001
0100
0000
0100
0010
0000
1000
0000
,
0101
0000
0000
0010
0000
0000
1100
0000
0000
0010
0000
0000
1001
0000
0100
0000
,
1010
0000
0000
0100
0000
0000
0010
0000
0000
0101
0000
0000
0010
0000
1000
0000
,
0101
0000
0000
0010
0000
0000
1100
0000
0000
0010
0000
0000
1001
0000
0010
0000
,
0101
0000
0000
1000
0001
0000
1000
0001
0000
1000
0001
0000
1000
0001
1000
0001
,
0100
0000
0000
0001
1000
0000
0001
1000
0000
0001
1000
0000
0001
0000
1000
0000
,
0010
0000
0000
1000
0001
0000
1000
0001
0000
1000
0001
0000
1000
0000
0001
0000
,
0010
0000
0000
0001
1000
0000
0001
1000
0000
0001
1000
0000
0001
0000
1000
0000
,
0100
0000
0000
1000
0001
0000
1000
0001
0000
1000
0001
0000
1000
0000
0001
0000
,
0100
0000
0000
0001
1000
0000
0001
1000
0000
0001
1000
0000
0001
0000
1000
0000
,
0110
0000
0000
1000
0001
0000
1000
0001
0000
1000
0001
0000
1000
0000
0001
0000
,
0110
0000
0000
0001
1000
0000
0001
1000
0000
0001
1000
0000
0001
0000
1000
0000
,
0001
0000
0000
0001
0000
0000
0001
0000
0000
0001
0000
0000
0001
0000
0001
0000
,
1000
0000
0000
1000
0000
0000
1000
0000
0000
1000
0000
0000
1000
0000
1000
0000
,
0000
0000
0000
0001
0000
0000
0001
0000
0000
0001
0000
0000
0001
0000
0001
0000
,
0000
0000
0000
0100
0000
0000
0100
0000
0000
0100
0000
0000
0100
0000
0100
0000
,
0000
0000
0000
0010
0000
0000
0010
0000
0000
0010
0000
0000
0010
0000
0010
0000
,
0000
0000
0000
1000
0000
0000
1000
0000
0000
1000
0000
0000
1000
0000
1000
0000
,
0000
0000
0000
0001
0000
0000
0001
0000
0000
0001
0000
0000
0001
0000
0001
0000
,
0000
0000
0000
1000
0000
0000
1000
0000
0000
1000
0000
0000
1000
0000
1000
0000
,
0000
0000
0000
0000
1001
0000
0000
0110
0000
0000
1001
0000
0000
0110
0000
0000
,
1000
0000
0001
0000
0101
0000
0000
1010
0000
0000
0101
0000
0000
1010
0000
0000
,
0010
1000
0001
0100
0001
0000
0000
1010
0000
0000
0101
0000
0000
1010
0000
0000
,
0100
0001
1000
0010
1000
0000
0000
0101
0000
0000
1010
0000
0000
0101
0000
0000
,
0010
1000
0001
0100
0001
0000
0000
1010
0000
0000
0101
0000
0000
1010
0000
0000
,
0100
0001
1000
0010
0100
0000
0000
0011
0000
0000
1100
0000
0000
0011
0000
0000
,
0100
1000
0001
0010
0001
0000
0000
1100
0000
0000
0011
0000
0000
1100
0000
0000
,
0010
0001
1000
0100
0010
0000
0000
0001
0010
0000
0100
1000
0000
0001
0010
0000
,
0100
1000
0001
0010
0100
0000
0000
0100
0010
0000
0010
0001
0000
0100
1000
0000
,
0100
0000
0001
0000
0100
0000
0000
0010
1000
0000
1000
0100
0000
0010
0001
0000
,
0100
0000
1000
0000
0100
0000
0000
1000
0100
0000
0001
0100
0000
0100
0010
0000
,
0010
0000
1000
0000
0100
0000
0000
0100
0010
0000
0010
0100
0000
1000
0010
0000
,
1000
0000
1000
0000
0100
0000
0000
0100
0001
0000
0100
1000
0000
0010
1000
0000
,
0001
0000
0010
0000
1001
0000
0000
1000
0010
0000
0010
0001
0000
0001
0010
0000
,
0010
0000
1000
0000
1100
0000
0000
0100
0010
0000
1000
0010
0000
0001
1000
0000
,
0010
0000
1000
0000
0000
0000
0000
1000
0100
0000
0000
0010
0001
0000
0000
1000
,
0010
0000
0000
0100
0001
0000
0000
1000
0100
0000
0000
0010
0001
0000
0000
1000
;
