#TITLE:Cubed;
#SUBTITLE:;
#ARTIST:Nonstop;
#TITLETRANSLIT:;
#SUBTITLETRANSLIT:;
#ARTISTTRANSLIT:;
#CRChallenge:;
#BANNER:Cubed.png;
#BACKGROUND:Cubed-bg.png;
#LYRICSPATH:;
#CDTITLE:;
#MUSIC:cubed.ogg;
#OFFSET:0.000;
#SAMPLESTART:146.823;
#SAMPLELENGTH:12.000;
#SELECTABLE:YES;
#BPMS:0.000=170.000;
#STOPS:;
#BGCHANGES:;
#NOTES:
     dance-single:
     Nonstop:
     Challenge:
     10:
     0.560,0.663,0.359,0.027,0.151:
0000
0000
0000
0000
,
0000
0000
0000
0000
,
0000
0000
0000
0000
,
0000
0000
0000
0000
,
0100
1000
0010
1000
0100
1000
0010
1000
,
0100
1000
0010
1000
0100
1000
0010
1000
,
0010
0010
0010
0010
0010
0010
0010
0010
,
0100
0000
0000
0001
1000
0000
0100
0000
,
0110
0000
0000
0001
0001
0000
0000
0000
,
0110
0000
0000
1000
1000
0000
1000
0000
,
0110
0000
0000
0001
0001
0000
0000
0000
,
0110
0000
0000
1000
1000
0000
1000
0000
,
1001
0000
0000
0010
0010
0000
0000
0000
,
1001
0000
0000
0100
0100
0000
0100
0000
,
1001
0000
0000
0010
0010
0000
0000
0000
,
1001
0000
0000
0100
0100
0000
0100
0000
,
0101
0000
0000
0010
0010
0000
0000
0000
,
0101
0000
0000
1000
1000
0000
1000
0000
,
0101
0000
0000
0010
0010
0000
0000
0000
,
0101
0000
0000
1000
1000
0000
1000
0000
,
1100
0000
0000
0010
0010
0000
0000
0000
,
1100
0000
0000
0001
0001
0000
0001
0000
,
1100
0000
0000
0010
0010
0000
0000
0000
,
1100
0000
0000
0001
0001
0000
0001
0000
,
0011
0000
0000
0100
0100
0000
0000
0000
,
0011
0000
0000
1000
1000
0000
1000
0000
,
0011
0000
0000
0100
0100
0000
0000
0000
,
0011
0000
0000
1000
1000
0000
1000
0000
,
1010
0000
0000
0100
0100
0000
0000
0000
,
1010
0000
0000
0001
0001
0000
0001
0000
,
1010
0000
0000
0001
0001
0000
0000
0000
,
1010
0000
0000
0100
0100
0000
0010
0000
,
1000
0000
0000
0010
1000
0100
0010
0000
,
0000
0000
0001
0010
0100
1000
0010
0000
,
0000
0000
0000
0000
0100
0001
0000
1000
,
0000
0100
0000
0010
0000
0001
0000
0010
,
0000
0001
0000
0010
,
0000
0000
0000
0000
,
0100
0000
0000
0000
,
0000
0000
0000
0000
,
0000
0000
0110
0000
0100
1000
0010
0100
,
0000
0001
0000
0010
0000
0100
0000
1000
,
0000
0000
0110
0000
0010
1000
0100
0010
,
0000
0001
0000
0010
0000
0100
0000
1000
,
0010
0000
0000
0000
0110
0000
0001
0100
,
0000
0010
0000
0000
0110
0000
0010
1000
,
0000
0100
0000
0000
0110
0000
0010
1000
,
0000
0100
0000
0010
0000
0001
0000
0010
,
0100
0000
1100
0000
1000
0010
0100
0001
,
0000
0010
0000
0100
0000
1000
0000
0001
,
0100
0000
0110
0000
0010
1000
0100
0010
,
0000
0001
0000
0010
0000
0100
1000
0000
,
0001
0000
0101
0000
0100
0010
1000
0100
,
0000
1100
0000
1010
0000
1001
0000
1100
,
0000
0000
0000
0000
1000
0100
0000
0010
,
0000
0001
0000
1000
0000
0001
0000
0000
,
1000
0001
0100
0010
1000
0100
0010
0001
,
0010
0100
1000
0001
0100
0010
1000
1000
,
0010
1000
0100
0010
0001
0100
0010
1000
,
0100
0010
0100
1000
0010
0100
0001
0001
,
0100
0010
1000
0100
0010
0001
0010
0100
,
1000
0001
0100
0010
1000
0100
0010
0010
,
0100
1000
0010
0100
0001
0010
0100
1000
,
1000
1000
0001
0001
1000
1000
0001
0001
,
1000
0010
0100
0001
0010
0100
1000
0010
,
0100
0001
0010
0100
1000
0100
0010
0010
,
0100
1000
0010
0100
0001
0010
0100
1000
,
0100
0010
0001
0100
0010
1000
0001
0001
,
1000
0100
0010
0001
0100
0010
1000
0100
,
0010
0100
1000
0010
0100
0001
0010
0010
,
0001
0010
0100
1000
0001
0100
0010
1000
,
1000
0000
0000
0001
0001
0000
1000
0000
,
1001
0000
0000
0000
,
0000
0000
0000
0000
,
0010
0000
0000
0000
,
0000
0000
0000
0000
,
0010
0000
0000
0000
,
0000
0000
0000
0000
,
0010
0000
0000
0000
,
0000
0000
0000
0000
,
0001
0100
0001
0100
0010
0000
0010
0000
,
0100
0001
0100
0001
0100
0000
0100
0000
,
0001
0100
0001
0100
0010
0000
0010
0000
,
0100
0001
0100
0001
0100
0000
0100
0000
,
0001
0100
0001
0100
0010
0000
0010
0000
,
0100
0001
0100
0001
0100
0000
0100
0000
,
0001
0100
0010
0000
0100
0001
0100
0000
,
0010
1000
0100
0010
0001
0000
1001
0000
,
0001
0100
0010
0100
0010
0100
0010
0000
,
1000
0010
0100
0010
0100
0010
0100
0000
,
0010
1000
0100
0010
0100
0010
0100
0000
,
0010
0001
0100
0010
0100
0010
0100
0000
,
0010
1000
0100
0000
0010
0001
0100
0000
,
0010
1000
0100
0000
0010
0001
0010
0000
,
0100
1000
0001
0100
0010
1000
0100
0010
,
0001
0010
0100
1000
,
0001
0100
0001
0100
0010
1000
0010
1000
,
0100
1000
0100
1000
0001
0010
0001
0010
,
0100
1000
0100
1000
0001
0100
0001
0100
,
0010
1000
0100
0010
0001
0010
0100
1000
,
0001
0000
0010
0000
0100
0000
0000
1000
0000
0000
0010
0000
0000
0100
0000
0000
,
0001
0000
1000
0000
0100
0000
0000
0010
0000
0000
0001
0000
0000
1000
0000
0000
,
0010
0000
0100
0000
0001
0000
0000
0100
0000
0000
0010
0000
0000
1000
0000
0000
,
0100
0010
0001
0000
0010
0100
1000
0000
,
0001
0000
0100
0000
0010
0000
0000
0110
0000
0000
0101
0000
0000
0110
0000
0000
,
0010
0000
1000
0000
0100
0000
0000
1100
0000
0000
0110
0000
0000
1100
0000
0000
,
1000
0000
0100
0000
0010
0000
0000
0011
0000
0000
0110
0000
0000
0011
0000
0000
,
0010
0000
0100
0000
1000
0000
0000
1100
0000
0000
0110
0000
0000
1100
0000
0000
,
1000
0000
0010
0000
0100
0000
0000
0101
0000
0000
0110
0000
0000
0101
0000
0000
,
0100
0000
0010
0000
1000
0000
0000
1100
0000
0000
0110
0000
0000
1100
0000
0000
,
0100
0000
1000
0000
0010
0000
0000
0110
0000
0000
0101
0000
0000
0110
0000
0000
,
0010
0000
0100
0000
0001
0000
0000
1001
0000
0000
1010
0000
0000
1001
0000
0000
,
1000
0000
0100
0000
0010
0000
0000
0011
0000
0000
1001
0000
0000
0101
0000
0000
,
0001
0000
0100
0000
0010
0000
0000
0110
0000
0000
1010
0000
0000
1100
0000
0000
,
1000
0000
0100
0000
0010
0000
0000
0011
0000
0000
1001
0000
0000
0101
0000
0000
,
0001
0000
0100
0000
0010
0000
0000
1010
0000
0000
1001
0000
0000
1100
0000
0000
,
1000
0010
0100
0001
0010
0100
1000
0010
,
0100
0001
0010
0100
1000
0100
0010
0001
,
0100
0010
1000
0100
0010
0001
0010
0100
,
1000
0000
1000
0000
0001
0100
0010
0000
,
1000
0000
0100
0000
0010
0001
0000
0000
0010
0000
0100
0000
1000
0100
0000
0000
,
0010
0000
0001
0000
0010
0100
0000
0000
1000
0000
0001
0000
0010
0100
0000
0000
,
1000
0000
0001
0000
0100
0010
0000
0000
1000
0000
0010
0000
0100
0001
0000
0000
,
0100
0000
0010
0000
1000
0100
0000
0000
1000
0000
0100
0000
0010
0001
0000
0000
,
0010
0100
1000
0001
0100
0010
1000
0000
,
0010
0100
0001
0010
0100
1000
0001
0000
,
0010
0100
1000
0000
0001
0100
0010
1000
,
0100
0010
0001
0010
0100
0000
1000
0000
,
0001
0000
0000
0000
1000
0001
1000
0001
1000
0000
0000
0000
0001
0000
0000
0000
,
0100
0010
1000
0100
,
0010
0001
0010
0000
0100
1000
0100
0000
,
1000
0010
1000
0000
0001
0100
0001
0000
,
0100
0000
0010
0000
1000
0100
0010
0000
,
0001
0010
0100
1000
,
0001
0100
0010
0000
1000
0100
0010
0000
,
0001
0010
0100
1000
0001
0000
1001
0000
,
0001
0000
0000
0000
,
0100
0000
0000
0000
,
0010
0000
0000
0000
,
1000
0000
0000
0000
,
0100
0100
0010
0010
,
0001
0001
1000
1000
,
0001
0100
0010
0010
,
1000
0100
0010
0010
,
0001
0000
1000
0000
,
0010
0000
0100
0000
,
0001
0000
1000
0100
,
0000
0000
0000
0000
,
0010
0000
0001
0000
,
1000
0000
0010
0000
,
0100
0000
0001
1000
,
0101
0000
0000
0101
0000
0000
1010
0000
0000
1010
0000
0000
1001
0000
0000
0000
,
1000
0000
0001
0100
0000
0010
1000
0000
0100
0000
0010
0000
0001
0000
0010
0000
,
0100
0000
1000
0100
0000
0010
0001
0000
0010
0000
0100
0000
1000
0000
0001
0000
,
0100
0000
0010
1000
0000
0001
0100
0000
0010
0000
1000
0000
0100
0000
0010
0000
,
0001
0000
0010
0100
0000
1000
0100
0000
0010
0000
0001
0000
0010
0000
0100
0000
,
1000
0000
0001
0100
0000
0010
1000
0000
0001
0000
1000
0000
0100
0000
0010
0000
,
0001
0000
0010
0100
0000
1000
0001
0000
0010
0000
0100
0000
1000
0000
0001
0000
,
0100
0000
0010
1000
0000
0001
0100
0000
0010
0000
1000
0000
0100
0000
0000
0000
,
1100
0000
0000
0110
0000
0000
0011
0000
0000
1001
0000
0000
0110
0000
0000
0000
,
1000
0000
0101
0000
0010
1000
0100
0000
,
0010
0000
0011
0000
0010
0100
1000
0000
,
0001
0100
1001
0010
,
0001
0100
0010
0000
1000
0000
0101
0000
,
0010
0000
1001
0000
1000
0100
0010
0001
,
1000
0000
0101
0000
0010
1000
0100
0010
,
0001
0000
1100
0000
1000
0010
0100
0001
,
0010
0000
1100
0000
1000
0100
0010
0001
,
0100
0000
1010
0000
0100
0001
0010
0100
,
1000
0000
0011
0000
0100
1000
0001
0100
,
0010
0000
1010
0000
1000
0010
0100
0001
,
0010
0000
0011
0000
0010
0100
1000
0001
,
0100
0000
0110
0000
0010
1000
0100
0010
,
0001
0000
0011
0000
0010
0100
1000
0001
,
0100
0000
0110
0000
0010
1000
0100
0000
,
1100
0000
0000
0011
0000
0000
1100
0000
0000
0011
0000
0000
1001
0000
0000
0000
,
1000
0000
0001
0000
,
0100
0000
0010
0000
,
1000
0000
1000
0100
,
0000
0000
0000
0000
,
0001
0000
0100
0000
0001
0100
0001
0000
,
1000
0000
0100
0000
1000
0100
1000
0000
,
0001
0100
0010
0000
1000
0100
0010
0000
,
0001
1001
0100
1001
,
0001
0000
0100
0001
0000
0100
0001
0000
0000
0000
0100
0000
0010
0000
1000
0000
,
0100
0000
0010
0100
0000
0010
0100
0000
0000
0000
0010
0000
0100
0000
1000
0000
,
0010
0000
0100
0001
0000
0100
0001
0000
0000
0000
0100
0000
0010
0000
1000
0000
,
0100
0000
0010
0001
0000
0010
0001
0000
0000
0000
0010
0000
0100
0000
1000
0000
,
0001
0000
0100
0010
0000
0100
0010
0000
0000
0000
1000
0000
0010
0000
0100
0000
,
0001
0000
0010
0001
0000
0010
0001
0000
0000
0000
0010
0000
0100
0000
1000
0000
,
0001
0000
0100
0010
0000
0100
0010
0000
0000
0000
1000
0000
0010
0000
0100
0000
,
0001
0010
0100
1000
0001
0100
0010
0000
,
1000
0000
0010
0000
0100
0000
0001
0100
0000
0001
0100
0000
0010
0000
1000
0000
,
0100
0000
0010
0000
0001
0000
0010
0100
0000
0010
0100
0000
0010
0000
0100
0000
,
1000
0000
0010
0000
0100
0000
0001
0100
0000
0001
0100
0000
0010
0000
1000
0000
,
0100
0000
0010
0000
0001
0000
1000
0100
0000
1000
0100
0000
1000
0000
0010
0000
,
0100
0000
0001
0000
0010
0000
0100
1000
0000
0100
1000
0000
0001
0000
0100
0000
,
0010
0000
1000
0000
0100
0000
0010
0001
0000
0010
0001
0000
0010
0000
0001
0000
,
0100
0000
0010
0000
1000
0000
0100
0010
0000
0001
0010
0000
0100
0000
1000
0001
,
0000
0000
0100
0000
0010
0000
1000
0100
0000
0000
0010
0000
0001
0000
0000
0000
,
2000
0000
0000
0000
,
3200
0000
0000
0000
,
0320
0000
0000
0000
,
0032
0000
0000
0000
,
0203
0000
0000
0000
,
0320
0000
0000
0000
,
2030
0000
0000
0000
,
3200
0000
0000
0000
,
0300
0000
0000
0000
;
