#TITLE:Cream;
#SUBTITLE:;
#ARTIST:Infected Mushroom;
#TITLETRANSLIT:;
#SUBTITLETRANSLIT:;
#ARTISTTRANSLIT:;
#CRChallenge:;
#BANNER:cream.png;
#BACKGROUND:cream-bg.png;
#LYRICSPATH:;
#CDTITLE:;
#MUSIC:cream.ogg;
#OFFSET:0.000;
#SAMPLESTART:49.495;
#SAMPLELENGTH:12.000;
#SELECTABLE:YES;
#BPMS:0.000=145.000;
#STOPS:;
#BGCHANGES:;
#NOTES:
     dance-single:
     Renard:
     Hard:
     11:
     0.824,1.000,0.109,0.445,0.701:
0000
0000
0000
0000
,
0000
0000
0000
0000
,
0000
0000
0000
0000
,
0000
0000
0000
0000
,
0000
0000
0000
0000
,
0000
0000
0000
0000
,
0001
0000
1000
0000
0200
0000
0310
0000
0000
0001
0000
0000
0010
0000
0100
0000
,
0000
0000
1000
0000
0020
0000
0130
0000
0002
0000
1003
0000
0001
0010
0100
1000
,
0001
0000
0001
0000
1000
0000
1000
0000
0010
1000
0010
1000
0000
0000
0001
0000
,
0000
0100
0000
0000
0020
0000
1030
0000
0002
0000
0103
0000
0000
0000
0010
0000
,
2000
0000
0000
0000
3001
0000
0010
0000
0000
0001
0000
0000
0000
0000
1000
0000
,
0000
0000
0010
0000
0200
0000
0301
0000
2000
0000
3100
0000
0010
0001
0010
0100
,
1000
0000
2000
0000
0001
0000
3001
0000
1000
0001
1000
0001
0100
0000
0100
0000
,
0000
0100
0000
0000
0020
0000
0130
0000
0020
0000
0130
0000
0000
0000
0000
0000
,
0010
0100
1000
0100
0010
0100
0001
0100
,
0010
0100
1000
0100
0010
0100
0001
0100
,
0001
0010
1000
0010
0100
0010
0001
0010
,
0001
0010
1000
0010
0100
0010
0001
0010
,
0001
1000
0010
1000
0001
1000
0100
1000
,
0001
1000
0010
1000
0001
1000
0100
1000
,
0001
1000
0001
0010
0001
0100
0001
1000
,
0001
0010
0001
1000
0001
0100
0002
2000
,
0000
3013
0101
0110
,
0101
0000
0110
0000
0010
1000
0100
0010
,
0100
0110
1100
0110
,
0100
1000
0010
0100
0001
0010
0100
1000
,
0100
1100
0110
1100
,
0001
0010
0100
1000
0001
0100
0010
1000
,
0001
0101
0110
0101
,
0100
0010
1000
0100
0010
0001
0010
0100
,
1000
0000
0001
0000
0020
0000
0130
0000
0000
1000
0000
0000
0100
0000
0010
0000
,
0000
0000
0001
0000
0200
0000
0310
0000
2000
0000
3001
0000
1000
0100
0010
0001
,
1000
0000
1000
0000
0001
0000
0001
0000
0100
0001
0100
0001
0000
0000
1000
0000
,
0000
0010
0000
0000
0200
0000
0301
0000
2000
0000
3010
0000
0000
0000
0100
0000
,
0002
0000
0000
0000
1003
0000
0100
0000
0000
1000
0000
0000
0000
0000
0001
0000
,
0000
0000
0100
0000
0020
0000
1030
0000
0002
0000
0013
0000
0100
1000
0100
0010
,
0001
0000
0002
0000
1000
0000
1003
0000
0001
1000
0001
1000
0010
0000
0010
0000
,
0000
0010
0000
0000
0200
0000
0310
0000
0200
0000
0310
0000
1000
0000
0000
0000
,
0010
1000
0010
0001
0000
0001
0010
0100
,
1000
0100
0001
0100
0000
0100
0001
0100
,
0001
0010
1000
0010
0000
0010
1000
0010
,
0100
0001
0100
1000
0000
1000
0100
1000
,
0010
0001
0010
1000
0000
1000
0010
0001
,
0010
0100
1000
0100
0000
0100
0001
0100
,
0001
0010
1000
0010
0000
0010
0100
1000
,
0200
0300
2000
3000
0020
0030
0200
0300
0002
0003
0000
0000
0020
0030
0000
0000
0000
0000
0002
0003
0020
0030
0002
0003
0200
0300
0020
0030
2000
3000
0200
0300
,
1000
1000
0100
0100
1000
0010
0010
0100
,
0100
0000
0001
0000
0001
0000
0010
0000
0100
1000
0100
0000
1000
0000
1000
0000
,
0010
0010
0100
0100
0001
1000
1000
0100
,
0010
0000
0010
0000
0001
0000
0001
0000
1000
0001
0010
0100
1000
0001
0010
0100
,
1000
1000
0100
0100
1000
0010
0010
0100
,
0100
0000
0001
0000
0001
0000
0010
0000
0100
1000
0100
0000
1000
0000
1000
0000
,
0010
0010
0100
0100
0001
1000
1000
0100
,
0010
0000
0010
0000
0001
0000
0001
0000
1000
0001
0010
0100
1000
0001
0010
0000
,
0002
0013
0100
1000
0010
0100
0001
0010
0100
1000
0010
0100
0001
1000
0010
0100
,
0002
0013
0100
1000
0010
0100
0010
1000
0100
0010
0001
0100
0010
0100
0001
1000
,
0002
0013
0100
1000
0100
0010
0001
1000
0001
1000
0001
0010
0100
1000
0001
1000
,
0002
0103
0010
1000
0001
1000
0001
1000
0010
0100
0001
1000
0001
0100
0010
1000
,
0002
0013
0001
0100
0001
0100
0010
1000
0100
1000
0010
1000
0001
0010
0100
1000
,
0002
0013
0001
1000
0001
0100
0010
1000
0010
1000
0001
1000
0100
0010
0001
1000
,
0002
1003
0100
0010
0100
0010
0001
1000
0100
1000
0100
0010
0100
0010
0001
1000
,
0002
1003
0100
0010
0100
0010
0001
0010
0001
1000
0100
1000
0100
0010
0100
0010
,
0002
1003
0100
0010
0001
1000
0001
0010
0100
1000
0001
1000
0100
0010
0001
1000
,
0002
0013
0100
0010
0001
1000
0100
0010
0100
1000
0001
1000
0010
0100
0001
1000
,
0002
0013
0100
1000
0001
1000
0100
0010
0001
1000
0001
0010
0100
1000
0001
1000
,
0002
0103
0010
1000
0001
1000
0010
0100
0001
0100
0010
0100
0001
1000
0100
1000
,
0002
1003
0010
1000
0001
0100
0010
1000
0001
0100
0001
0010
0001
1000
0001
0100
,
0002
0013
0100
0010
0001
1000
0100
0010
0100
1000
0001
0010
0100
1000
0001
1000
,
0002
0103
0001
0010
0001
1000
0100
1000
0010
1000
0001
0010
0001
0100
0010
1000
,
0002
1003
0010
1000
0100
0010
0001
0010
0100
1000
0100
0010
0001
1000
0100
0010
;
#NOTES:
     dance-single:
     Renard:
     Medium:
     9:
     0.615,0.557,0.159,0.034,0.151:
0000
0000
0000
0000
,
0000
0000
0000
0000
,
0000
0000
0000
0000
,
0000
0000
0000
0000
,
0000
0000
0000
0000
,
0000
0000
0000
0000
,
0001
0100
1000
0100
0001
0100
1000
0100
,
0001
0100
1000
0100
0001
0100
1000
0100
,
0001
0100
1000
0100
0001
0100
1000
0100
,
0001
0100
1000
0100
0001
0100
1000
0100
,
0001
0010
1000
0010
0001
0010
1000
0010
,
0001
0010
1000
0010
0001
0010
1000
0010
,
0001
0100
1000
0100
0001
0010
1000
0010
,
0100
1000
0001
1000
0002
2000
0000
3003
,
0001
0001
0100
0100
0010
1000
0100
0010
,
0000
0010
0010
0001
0001
1000
1000
0010
,
1000
1000
0100
0100
0010
0010
0001
1000
,
0000
0001
0001
0100
0100
0010
0010
1000
,
0001
0001
0010
0010
0100
0100
1000
0001
,
0000
0001
0001
0100
0100
0010
0010
1000
,
0100
0010
0001
0001
0010
0100
0100
1000
,
0000
1000
0010
0010
0100
0100
0001
0001
,
1000
0000
1100
0100
0010
0001
0101
0001
,
0100
0000
0110
0010
1000
0100
1100
0100
,
0010
0001
0011
0001
1000
0010
0110
0010
,
0000
0100
0001
1000
0100
0010
0001
0010
,
0100
1000
1100
0100
0010
0001
0011
0001
,
0000
0100
0010
1000
0100
0010
0001
0010
,
0100
1000
1100
0100
0010
0001
0011
0001
,
0100
0010
0110
0010
1000
0001
1000
0000
,
0001
0100
1000
0100
0001
0100
1000
0100
,
0001
0010
1000
0010
0001
0010
1000
0010
,
0001
0100
1000
0100
0001
0100
1000
0100
,
0001
0010
1000
0010
0100
0000
1000
0000
,
1000
0100
0001
0100
1000
0100
0001
0100
,
1000
0100
0001
0100
1000
0100
0001
0100
,
1000
0010
0001
0010
1000
0100
0001
0100
,
1000
0010
0001
0010
1000
0100
0010
0001
,
1000
0100
0010
0011
0000
0010
0100
1000
,
0001
0100
0010
1010
0000
1000
0100
0010
,
0001
1000
0100
1100
0000
1000
0010
0100
,
0001
0010
0100
0110
0000
0010
0001
0100
,
0010
1000
0100
1100
0000
1000
0100
0010
,
0001
0100
0010
1010
0000
1000
0010
0100
,
0001
0010
0100
0110
0000
0010
0100
1000
,
0010
0100
0001
0202
0000
0000
0313
0000
,
0001
0100
0001
0000
0100
0000
0010
0000
0000
0000
1000
0000
0100
0000
0010
0000
,
0001
0010
0001
0000
0010
0000
0100
0000
0000
0000
1000
0000
0010
0000
0100
0000
,
0001
0100
0001
0000
1000
0000
0010
0000
0000
0000
1000
0000
0100
0000
0010
0000
,
0001
0010
0001
0000
0010
0000
0100
0000
0000
0000
1000
0000
0010
0000
0100
0000
,
0010
1000
0010
0000
1000
0000
0100
0000
0000
0000
1000
0000
0010
0000
0100
0000
,
0010
1000
0010
0000
1000
0000
0100
0000
0000
0000
0010
0000
0100
0000
1000
0000
,
0001
1000
0001
0000
1000
0000
0100
0000
0000
0000
0010
0000
0100
0000
0010
0000
,
0001
0000
0010
0000
0100
0000
1000
0000
0001
1000
0001
0000
0100
0000
0010
0000
,
1000
0000
0001
0000
0100
0000
0010
0000
1000
0100
0000
0000
0010
0000
0001
0000
,
0010
0100
0000
0000
1000
0000
0001
0000
0100
0000
0010
0000
1000
0010
0000
0000
,
0100
0000
0001
0000
1000
0000
0100
0000
0010
0001
0000
0000
0010
0000
0100
0000
,
1000
0000
0001
0000
0100
0010
0000
0000
1000
0000
0100
0000
0010
0001
0000
0000
,
0010
0000
0100
0000
1000
0001
0000
0000
0100
0000
0010
0000
1000
0100
0000
0000
,
0010
0000
0001
0000
1000
0010
0000
0000
0100
0000
0001
0000
1000
0100
0000
0000
,
0010
0000
0001
0000
0010
0100
0000
0000
0010
0000
0001
0000
0010
0100
0000
0000
,
0010
0000
0001
0000
0010
0100
0000
0000
0010
0000
0001
0000
0010
0100
0000
0000
,
1000
0000
0001
0000
0100
0000
0010
0000
1000
0100
0000
0000
0010
0000
0001
0000
,
0010
0100
0000
0000
1000
0000
0001
0000
0100
0000
0010
0000
1000
0010
0000
0000
,
0100
0000
0001
0000
1000
0000
0100
0000
0010
0001
0000
0000
0010
0000
0100
0000
,
1000
0000
0001
0000
0100
0010
0000
0000
1000
0000
0100
0000
0010
0001
0000
0000
,
0010
0000
0100
0000
1000
0001
0000
0000
0100
0000
0010
0000
1000
0100
0000
0000
,
0010
0000
0001
0000
1000
0010
0000
0000
0100
0000
0001
0000
1000
0100
0000
0000
,
0010
0000
0001
0000
0010
0100
0000
0000
0010
0000
0001
0000
0010
0100
0000
0000
,
0010
0000
0001
0000
0010
0100
0000
0000
0010
0000
0001
0000
0010
0100
0000
0000
;
#NOTES:
     dance-single:
     Renard:
     Challenge:
     11:
     0.699,0.995,0.344,0.310,0.310:
0000
0000
0000
0000
,
0000
0000
0000
0000
,
0000
0000
0000
0000
,
0000
0000
0000
0000
,
0000
0000
0000
0000
,
0000
0000
0000
0000
,
0001
0000
1000
0000
0200
0000
0310
0000
0000
0001
0000
0000
0010
0000
0100
0000
,
0000
0000
1000
0000
0020
0000
0130
0000
0002
0000
1003
0000
0001
0010
0100
1000
,
0001
0000
0001
0000
1000
0000
1000
0000
0010
1000
0010
1000
0000
0000
0001
0000
,
0000
0100
0000
0000
0020
0000
1030
0000
0002
0000
0103
0000
0000
0000
0010
0000
,
2000
0000
0000
0000
3001
0000
0010
0000
0000
0001
0000
0000
0000
0000
1000
0000
,
0000
0000
0010
0000
0200
0000
0301
0000
2000
0000
3100
0000
0010
0001
0010
0100
,
1000
0000
2000
0000
0001
0000
3001
0000
1000
0001
1000
0001
0100
0000
0100
0000
,
0000
0100
0000
0000
0020
0000
0130
0000
0020
0000
0130
0000
0000
0000
0000
0000
,
0010
0100
1000
0100
0010
0100
0001
0100
,
0010
0100
1000
0100
0010
0100
0001
0100
,
0001
0010
1000
0010
0100
0010
0001
0010
,
0001
0010
1000
0010
0100
0010
0001
0010
,
0001
1000
0010
1000
0001
1000
0100
1000
,
0001
1000
0010
1000
0001
1000
0100
1000
,
0001
1000
0001
0010
0001
0100
0001
1000
,
0001
0010
0001
1000
0001
0100
0002
2000
,
0000
3013
0101
0110
,
0101
0000
0110
0000
0010
1000
0100
0010
,
0100
0110
1100
0110
,
0100
1000
0010
0100
0001
0010
0100
1000
,
0100
1100
0110
1100
,
0001
0010
0100
1000
0001
0100
0010
1000
,
0001
0101
0110
0101
,
0100
0010
1000
0100
0010
0001
0010
0100
,
1000
0000
0001
0000
0020
0000
0130
0000
0000
1000
0000
0000
0100
0000
0010
0000
,
0000
0000
0001
0000
0200
0000
0310
0000
2000
0000
3001
0000
1000
0100
0010
0001
,
1000
0000
1000
0000
0001
0000
0001
0000
0100
0001
0100
0001
0000
0000
1000
0000
,
0000
0010
0000
0000
0200
0000
0301
0000
2000
0000
3010
0000
0000
0000
0100
0000
,
0002
0000
0000
0000
1003
0000
0100
0000
0000
1000
0000
0000
0000
0000
0001
0000
,
0000
0000
0100
0000
0020
0000
1030
0000
0002
0000
0013
0000
0100
1000
0100
0010
,
0001
0000
0002
0000
1000
0000
1003
0000
0001
1000
0001
1000
0010
0000
0010
0000
,
0000
0010
0000
0000
0200
0000
0310
0000
0200
0000
0310
0000
1000
0000
0000
0000
,
0010
1000
0010
0001
0000
0001
0010
0100
,
1000
0100
0001
0100
0000
0100
0001
0100
,
0001
0010
1000
0010
0000
0010
1000
0010
,
0100
0001
0100
1000
0000
1000
0100
1000
,
0010
0001
0010
1000
0000
1000
0010
0001
,
0010
0100
1000
0100
0000
0100
0001
0100
,
0001
0010
1000
0010
0000
0010
0100
1000
,
0200
0300
2000
3000
0020
0030
0200
0300
0002
0003
0000
0000
0020
0030
0000
0000
0000
0000
0002
0003
0020
0030
0002
0003
0200
0300
0020
0030
2000
3000
0200
0300
,
1000
1000
0100
0100
1000
0010
0010
0100
,
0100
0000
0001
0000
0001
0000
0010
0000
0100
1000
0100
0000
1000
0000
1000
0000
,
0010
0010
0100
0100
0001
1000
1000
0100
,
0010
0000
0010
0000
0001
0000
0001
0000
1000
0001
0010
0100
1000
0001
0010
0100
,
1000
1000
0100
0100
1000
0010
0010
0100
,
0100
0000
0001
0000
0001
0000
0010
0000
0100
1000
0100
0000
1000
0000
1000
0000
,
0010
0010
0100
0100
0001
1000
1000
0100
,
0010
0000
0010
0000
0001
0000
0001
0000
1000
0001
0010
0100
1000
0000
0000
0000
,
0001
0100
0010
0000
0111
0000
0000
0000
1000
0100
0010
0000
1110
0000
0000
0000
,
1000
0001
0010
0000
1011
0000
0000
0000
0001
1000
0100
0000
1101
0000
0000
0000
,
1000
0100
0010
0000
1110
0000
0000
0000
0001
0010
0100
0000
0111
0000
0000
0000
,
0001
1000
0010
0000
1011
0000
0000
0000
1000
0001
0100
0000
1101
0000
0000
0000
,
0001
0100
1000
0000
1101
0000
0000
0000
0001
0010
1000
0000
1011
0000
0000
0000
,
1000
0010
0001
0000
1011
0000
0000
0000
0001
0100
1000
0000
1101
0000
0000
0000
,
0001
0010
0100
0000
0111
0000
0000
0000
1000
0100
0010
0000
1110
0000
0000
0000
,
0001
1000
0010
0000
1011
0000
0000
0000
1000
0001
0100
0000
1101
0000
0000
0000
,
0001
0100
1000
0100
0001
0000
0000
0000
0101
0000
0000
0000
1100
0000
0000
0000
,
1000
0100
0001
0100
1000
0000
0000
0000
1100
0000
0000
0000
0101
0000
0000
0000
,
0001
0010
1000
0010
0001
0000
0000
0000
0011
0000
0000
0000
1010
0000
0000
0000
,
1000
0010
0001
0010
1000
0000
0000
0000
1010
0000
0000
0000
0011
0000
0000
0000
,
0001
0100
0010
1000
0100
0000
0000
0000
1100
0000
0000
0000
0011
0000
0000
0000
,
0001
0010
0100
1000
0001
0000
0000
0000
0101
0000
0000
0000
1010
0000
0000
0000
,
1000
0100
0010
0001
0010
0000
0000
0000
0001
0010
0100
1000
0100
0000
0000
0000
,
1000
0010
0100
0001
0100
0000
0000
0000
0001
0100
0010
1000
0010
0000
0000
0000
;
#NOTES:
     dance-single:
     Renard:
     Easy:
     5:
     0.392,0.441,0.185,0.034,0.000:
0000
0000
0000
0000
,
0000
0000
0000
0000
,
0000
0000
0000
0000
,
0000
0000
0000
0000
,
0000
0000
0000
0000
,
0000
0000
0000
0000
,
1000
1000
0001
0001
,
1000
0000
0001
0100
0001
0100
0000
0000
,
0001
0001
1000
1000
,
0001
0000
1000
0100
1000
0100
0000
0000
,
1000
1000
0001
0001
,
1000
0000
0001
0010
0001
0010
0000
0000
,
0001
0001
1000
1000
,
0001
0000
1000
0010
1000
0010
0000
0000
,
1000
0000
1000
0010
0000
0000
0000
0000
,
0001
0000
0001
0100
0000
0000
0000
0000
,
1000
0000
1000
0010
0000
0000
0000
0000
,
0001
0000
0001
0100
0000
0000
0000
0000
,
0001
0000
0001
0010
0000
0000
0000
0000
,
1000
0000
1000
0100
0000
0000
0000
0000
,
0001
0000
0001
0010
0000
0000
0000
0000
,
1000
0000
1000
0100
0000
0000
0000
0000
,
1000
0101
0010
1100
,
0010
0101
0010
0000
,
0010
1100
0010
0101
,
0010
1100
0010
0000
,
0100
1010
0100
0011
,
0100
1010
0100
0000
,
0100
1010
0100
0011
,
0100
1010
0100
0000
,
0001
0000
1000
0000
0100
1000
0100
1000
,
0001
0001
1000
1000
,
1000
0000
0001
0000
0010
0001
1000
0001
,
0000
0100
0001
0000
1000
0000
0100
0000
,
0010
0000
0001
0000
1000
0010
1000
0010
,
1000
0001
0100
0010
,
0100
0000
0001
0000
0010
0001
1000
0100
,
0000
1000
0010
0000
1000
0000
0001
0000
,
0100
0000
0100
0010
0000
0010
0100
0010
,
0100
0000
0100
0010
0000
0010
0100
0010
,
0100
0000
0100
0010
0000
0010
0100
0010
,
0100
0000
0100
0010
0000
0010
0100
0001
,
1000
0000
1000
0001
0000
0001
1000
0001
,
1000
0000
1000
0001
0000
0001
1000
0001
,
1000
0000
1000
0001
0000
0001
1000
0000
,
1000
0100
0010
0001
0000
1000
0001
0000
,
1000
0000
1000
0100
0000
0100
1000
0000
,
0001
0000
0001
0010
0000
0010
0001
0000
,
1000
0000
1000
0010
0000
0010
1000
0000
,
0001
0000
0001
0100
0000
0100
0001
0000
,
1000
0000
0001
1000
0001
1000
0001
1000
,
0001
0000
0100
0001
0100
0001
0100
0001
,
0100
0000
0001
0010
0001
0010
0001
0010
,
0001
0010
0001
1000
0001
0100
0001
0000
,
1000
0101
1000
0101
,
0001
0100
0001
0100
0001
0100
0001
0000
,
0001
1100
0001
1100
,
0001
1000
0100
1000
0100
1000
0100
0000
,
1000
0101
1000
0101
,
1000
0010
1000
0010
1000
0010
1000
0000
,
1000
0101
0010
1100
,
0001
1010
0100
0011
,
1000
0000
0001
1000
0001
0000
1000
0000
,
0001
1000
0001
0000
1000
0000
0001
1000
,
0001
0000
1000
0000
0001
1000
0001
0000
,
1000
0000
0001
0000
1000
0001
1000
0000
,
0010
0100
0010
0000
0100
0010
0100
0000
,
0010
0100
0010
0000
0100
0010
0100
0000
,
0020
0000
2030
0000
,
3002
0000
0203
0000
,
0300
0000
0000
0000
;
#NOTES:
     dance-single:
     Renard:
     Beginner:
     4:
     0.265,0.441,0.134,0.101,0.000:
0000
0000
0000
0000
,
0000
0000
0000
0000
,
0000
0000
0000
0000
,
0000
0000
0000
0000
,
0000
0000
0000
0000
,
0000
0000
0000
0000
,
1000
0000
0001
0001
,
0100
0100
0100
0000
,
0001
0000
1000
1000
,
0100
0100
0100
0000
,
1000
0000
0001
0001
,
0010
0010
0010
0000
,
0001
0000
1000
0000
,
0020
0000
0000
0000
,
0130
0000
0000
0000
0001
0100
0001
0000
,
0100
0000
0000
0000
,
0010
0000
0000
0000
1000
0100
1000
0000
,
0010
0000
0000
0000
,
0100
0000
0000
0000
0001
0010
0001
0000
,
1000
0000
0000
0000
,
0010
0000
0000
0000
1000
0100
1000
0000
,
0001
0000
1000
0000
,
0000
1001
0000
0101
,
0000
1001
0000
1100
,
0000
1001
0000
0101
,
0000
1001
0000
1100
,
0000
1001
0000
0011
,
0000
1001
0000
1010
,
0000
1001
0000
0011
,
0000
1001
0000
1010
,
0100
0001
0100
0100
,
0010
0000
0010
0000
,
1000
0010
1000
1000
,
0010
0000
0100
0000
,
0001
1000
0001
0001
,
0010
0000
0001
0000
,
1000
0100
1000
1000
,
0001
0001
0100
0100
,
0010
0000
0000
1000
0000
0000
0000
0000
,
0001
0000
0000
0100
0000
0000
0000
0000
,
0001
0000
0000
0010
0000
0000
0000
0000
,
0100
0000
0000
1000
0000
0000
0000
0000
,
0001
0000
0000
0100
0000
0000
0000
0000
,
0010
0000
0000
1000
0000
0000
0000
0000
,
0100
0000
0000
1000
0000
0000
0000
0000
,
0001
0010
0001
0010
0000
0000
0000
0000
,
0001
0000
0000
1000
0000
0000
0010
0000
,
0100
0000
0000
0001
0000
0000
1000
0000
,
0100
0000
0000
0010
0000
0000
0001
0000
,
1000
0000
0000
0001
0000
0000
0100
0000
,
0010
0000
0000
1000
0000
0000
0010
0000
,
0100
0000
0000
0001
0000
0000
1000
0000
,
0001
0000
0000
0010
0000
0000
0100
0000
,
1000
1000
1000
1000
,
0002
0103
0002
0103
,
0010
0100
0010
0100
,
0020
1030
0020
1030
,
0100
1000
0100
1000
,
0200
0310
0200
0310
,
0001
0010
0001
0010
,
0002
0103
0020
1030
,
0002
0103
0020
1030
,
0001
0000
0001
0000
0100
0001
0100
0001
,
0100
0001
0100
0001
0100
0001
0100
0001
,
0100
0000
0100
0000
0001
0100
0001
0100
,
0001
0100
0001
0100
0001
0100
0001
0100
,
0002
0000
0000
0000
,
0000
0000
0000
0000
,
1000
0000
0100
0000
,
0010
0000
0100
0000
,
1003
0000
0000
0000
;
