#TITLE:Crazy;
#SUBTITLE:;
#ARTIST:Eiffel 65;
#TITLETRANSLIT:;
#SUBTITLETRANSLIT:;
#ARTISTTRANSLIT:;
#CRChallenge:;
#BANNER:crazy.png;
#BACKGROUND:crazy-bg.png;
#LYRICSPATH:;
#CDTITLE:!cdtitle.png;
#MUSIC:crazy.ogg;
#OFFSET:0.000;
#SAMPLESTART:10.667;
#SAMPLELENGTH:12.000;
#SELECTABLE:YES;
#BPMS:0.000=135.000;
#STOPS:;
#BGCHANGES:;
#NOTES:
     dance-single:
     Renard:
     Medium:
     8:
     0.524,0.471,0.062,0.150,0.000:
0000
0000
0000
0000
,
0000
0000
0000
0000
,
0000
0000
0000
0000
,
0000
0000
0000
0000
,
0000
0000
0000
0000
,
0000
0000
0000
0000
,
0001
0100
1000
0001
1000
0100
0001
1000
,
0100
0001
1000
0001
0100
1000
0001
0100
,
1000
0001
1000
0100
0001
1000
0100
0001
,
1000
0001
0100
1000
0001
0100
0001
1000
,
0001
0010
1000
0001
1000
0010
0001
1000
,
0010
0001
1000
0001
0010
1000
0001
0010
,
1000
0010
0100
0001
0100
1000
0010
0001
,
0020
0000
0130
0001
0020
0000
0230
0000
,
1300
0100
0010
1000
0010
0100
1000
0001
,
0010
0100
0001
0100
0010
0001
1000
0010
,
0100
1000
0100
0010
1000
0001
0010
0100
,
0001
0100
0010
0001
1000
1000
0001
1000
,
0001
0010
0100
0001
0100
0010
0001
1000
,
0100
0010
1000
0010
0100
1000
0001
0100
,
0010
0001
0010
0100
0001
1000
0100
0010
,
1000
0010
0100
1000
0001
0001
1000
0001
,
2000
0000
3100
0010
0002
0000
0013
0100
,
1000
0010
0100
0002
0000
0013
0100
1000
,
0020
0000
0130
0001
0020
0000
0031
1000
,
0010
0100
0001
0020
0000
0031
1000
0010
,
0200
0000
0301
0010
0200
0000
1300
0010
,
0100
0001
1000
0200
0000
1300
0001
0010
,
0200
0000
0310
0001
2000
0000
3010
0100
,
0001
0010
0001
1000
0010
1000
0100
0010
,
0001
0001
0010
0000
1000
0000
1010
0000
,
0010
0001
1000
0001
,
0100
0100
1000
0000
0100
0000
0101
0000
,
0001
1000
0100
1000
,
0001
0001
0010
0000
1000
0000
1010
0000
,
0010
0011
0001
0101
,
0100
1000
0100
0000
0010
1000
0010
0001
,
0010
0000
0100
0001
0010
0100
0001
0000
,
0100
0100
1000
0000
0100
0000
0001
0000
,
0100
1000
0010
0000
0001
0010
0100
0000
,
1000
1000
0100
0000
0001
0000
1000
0000
,
0100
0010
0001
2000
0000
3010
0100
0001
,
0010
0010
0100
0000
0010
0000
0001
0000
,
1000
0010
0100
0002
0000
0013
0001
1000
,
0010
0010
0100
0000
0010
0000
1000
0100
,
0010
0000
0010
0001
1001
0000
0110
0000
,
0001
0100
0001
0100
1000
0100
1000
0100
,
0010
0001
0010
0001
0010
1000
0010
1000
,
0100
1000
0100
1000
0100
0001
0100
0001
,
1000
0010
1000
0010
0001
0010
0001
0010
,
0001
0100
0001
0100
1000
0100
1000
0100
,
0010
0001
0010
1000
0100
0001
0100
0010
,
0001
0010
0001
0010
0100
1000
0100
1000
,
0010
1000
0010
1000
0001
0100
0001
0001
,
1000
0100
0001
1000
0001
0100
1000
0010
,
0001
1000
0001
0010
1000
0100
0001
0100
,
0010
0001
0010
1000
0001
1000
0010
0001
,
0100
1000
0001
1000
0100
0001
0010
1000
,
0001
1000
0010
0100
1000
0010
0100
1000
,
0001
1000
0100
0010
1000
0100
0010
1000
,
0001
1000
0010
0100
1000
0010
0100
0001
,
0010
0100
0001
0100
1000
0010
0100
0001
,
0020
0000
0000
0000
,
0030
0000
0000
0000
;
#NOTES:
     dance-single:
     Renard:
     Hard:
     9:
     0.485,0.464,0.413,0.000,0.070:
0000
0000
0000
0000
,
0000
0000
0000
0000
,
0000
0000
0000
0000
,
0000
0000
0000
0000
,
0000
0000
0000
0000
,
0000
0000
0000
0000
,
0000
0000
0001
0100
0010
0000
1000
0100
0010
0000
0000
0000
1001
0000
0000
0000
,
0001
0100
1000
0100
0001
0000
1001
0000
,
0000
0000
1000
0100
0010
0000
0001
0100
0010
0000
0000
0000
1001
0000
0000
0000
,
1000
0100
0001
0100
1000
0001
1000
0000
,
0000
0000
0001
0100
0010
0000
1000
0100
0010
0000
0000
0000
1001
0000
0000
0000
,
0001
0100
1000
0100
0001
0000
1001
0000
,
0000
0000
1000
0100
0010
0000
0001
0100
0010
0000
0000
0000
1001
0000
0000
0000
,
1000
0100
0001
0100
1000
0001
1000
0000
,
0000
1100
0010
0101
0010
0000
1001
0000
,
1000
0100
0001
0100
1000
0000
1001
0000
,
0000
0101
0010
1100
0010
0000
1001
0000
,
1000
0100
0010
0001
0010
0100
1000
0000
,
0000
0101
0010
1100
0010
0000
1001
0000
,
1000
0100
0010
0001
0100
0010
1000
0100
,
0010
0010
0001
0001
1000
0000
0001
0000
,
0010
0000
0001
0100
1000
0010
1001
0000
,
1001
0000
0000
0010
0010
0000
0000
0000
,
0100
0001
0100
0001
0000
1000
1000
0000
,
1100
0000
0101
0000
,
1000
0100
1000
0001
0000
0100
0001
0000
,
0101
1000
1100
0001
,
1000
0100
1000
0001
0000
1001
1001
0000
,
0001
0100
1000
0100
,
1000
1100
0001
0101
,
0001
0100
0001
0100
1000
0100
1000
0100
,
0001
0010
0001
0010
1000
0000
1010
0000
,
0010
1000
0010
1000
0010
0100
0010
0100
,
1000
0001
0100
0010
1000
0000
1001
0000
,
1000
0010
1000
0010
0001
0010
0001
0010
,
1000
0100
1000
0100
0001
0000
0101
0000
,
0100
0001
0100
0001
0100
0010
0100
0010
,
0001
1000
0010
0100
0001
0000
1001
0000
,
0001
0100
0010
0000
1000
0000
0100
0000
,
0010
0001
0100
0010
0000
0010
0100
0000
,
0010
0100
0001
0000
0010
0000
0001
0000
,
0100
0010
1000
0100
0000
0100
1000
0000
,
1000
0010
0100
0000
0001
0000
0010
0000
,
0100
1000
0010
0100
0000
0100
0010
0000
,
0100
0010
1000
0000
0100
0000
1000
0000
,
0100
0000
0100
0001
0010
0000
0010
0000
,
0000
0000
0001
0100
0010
0000
1000
0100
0010
0000
0000
0000
1001
0000
0000
0000
,
0001
0100
1000
0100
0001
0000
1001
0000
,
0000
0000
1000
0100
0010
0000
0001
0100
0010
0000
0000
0000
1001
0000
0000
0000
,
1000
0100
0001
0100
1000
0001
1000
0000
,
0000
0000
0001
0100
0010
0000
1000
0100
0010
0000
0000
0000
1001
0000
0000
0000
,
0001
0100
1000
0100
0001
0000
1001
0000
,
0000
0000
1000
0100
0010
0000
0001
0100
0010
0000
0000
0000
1001
0000
0000
0000
,
1000
0100
0001
0100
1000
0001
1000
0000
,
0000
1100
0010
0101
0010
0000
1001
0000
,
1000
0100
0001
0100
1000
0000
1001
0000
,
0000
0101
0010
1100
0010
0000
1001
0000
,
1000
0100
0010
0001
0010
0100
1000
0000
,
0000
0101
0010
1100
0010
0000
1001
0000
,
1000
0100
0010
0001
0100
0010
1000
0100
,
0010
0010
0001
0001
1000
0000
0001
0000
,
0010
0000
1000
0100
0001
0010
0100
0000
,
1001
0000
0000
0000
;
#NOTES:
     dance-single:
     Renard:
     Easy:
     6:
     0.303,0.354,0.018,0.000,0.000:
0000
0000
0000
0000
,
0000
0000
0000
0000
,
0000
0000
0000
0000
,
0000
0000
0000
0000
,
0000
0000
0000
0000
,
0000
0000
0000
0000
,
1000
0000
0001
0100
0001
0000
0100
0000
,
0010
0010
1000
0100
,
0010
0000
0001
0010
0001
0000
0010
0000
,
0100
0100
1000
0010
,
0100
0000
0001
0100
0001
0000
0100
0000
,
0010
1000
0100
0010
,
0001
0010
0001
0000
0010
0000
0100
0000
,
1000
1000
0001
0001
,
0100
0000
0010
1000
0010
0000
0100
0000
,
0001
0010
0100
1000
,
0001
0100
0001
0000
0100
0000
0010
0000
,
1000
0100
0010
0001
,
0010
0000
0100
1000
0100
0000
1000
0000
,
0010
0000
0100
0000
0001
0000
1000
0100
,
1000
0000
0001
0100
0001
0000
1000
0000
,
0001
0100
0010
0000
,
1000
0000
0010
0000
,
1000
0010
0100
0001
0000
0000
0100
0000
,
0010
0000
1000
0000
,
0100
1000
0100
1000
0000
0000
0001
0000
,
0010
0000
0100
0000
,
0010
0001
0010
0100
0000
0000
1000
0000
,
0010
0000
0100
0000
,
0001
0100
0010
1000
0010
0000
1000
0000
,
0010
0010
0010
0000
,
1000
0100
0010
0001
,
0010
0010
0010
0000
,
0001
0010
0100
1000
,
0001
0100
0001
0000
,
0100
0010
1000
0100
,
0010
0010
0001
0000
,
0010
0000
0100
0000
,
1000
0100
0010
0000
0001
0000
0000
0000
,
0010
0100
1000
0001
,
0100
0010
1000
0000
0001
0000
0000
0000
,
0100
0001
0100
0010
,
1000
0001
1000
0000
0100
0000
0000
0000
,
1000
0100
0010
0001
,
1000
0001
0100
0000
0010
0000
1000
0000
,
0100
0000
0010
1001
,
0001
0000
0100
0010
0100
0000
0010
0000
,
1000
0100
0000
1000
0000
0100
1000
0000
,
0001
0000
0010
0001
1000
0000
0001
0000
,
0100
0001
0000
0010
0000
0001
0100
0000
,
0010
0000
1000
0100
1000
0000
0010
0000
,
0100
0001
0000
0010
0000
0001
0100
0000
,
0010
1000
0100
0100
,
0010
0000
0000
0000
,
0001
1000
0001
1000
0001
1000
0001
1000
,
0010
0010
0010
0010
,
1000
0001
1000
0001
1000
0001
1000
0001
,
0100
0100
0010
0010
,
1000
0010
1000
0010
1000
0000
0010
0000
,
0100
0001
0010
0100
,
0010
0001
0010
0001
0010
0000
0100
0000
,
1000
1000
0001
0001
,
0110
0000
0000
0000
;
#NOTES:
     dance-single:
     Renard:
     Beginner:
     4:
     0.317,0.491,0.440,0.343,0.000:
0000
0000
0000
0000
,
0000
0000
0000
0000
,
0000
0000
0000
0000
,
0000
0000
0000
0000
,
0000
0000
0000
0000
,
0000
0000
0000
0000
,
0202
0000
0010
0000
,
1000
1000
0313
0000
,
2200
0000
0010
0000
,
0001
0001
3310
0000
,
2002
0000
0010
0000
,
0010
0000
3013
0000
,
0202
0000
0010
0010
,
0313
0000
0000
0000
,
2200
0000
0010
3301
,
0000
1000
0100
0000
,
0202
0000
0010
1303
,
0000
0001
0100
0000
,
2002
0000
0010
3013
,
0000
1001
1001
0000
,
2000
3200
0320
0032
,
2000
0000
3013
0000
,
1000
0001
0200
0000
,
0002
0000
0010
0313
,
0000
0001
1000
0000
,
0200
0000
2000
0010
,
3310
0000
0100
0000
,
2000
0002
0000
0010
,
3013
0000
1000
0000
,
0001
0001
0001
0000
,
1100
1100
1100
0000
,
0010
0000
0010
0000
,
0101
0101
0101
0000
,
0010
0000
0010
0000
,
1001
1001
1001
0000
,
0100
0000
0100
0000
,
1010
0011
1010
0000
,
0100
0000
0000
0001
,
1100
1000
0101
0001
,
1010
1000
0011
0001
,
1100
1000
0101
0001
,
1010
1000
0011
0001
,
1100
1000
0101
0001
,
1010
1000
0011
0001
,
1100
0101
1010
0011
,
1100
0011
1001
1001
,
2200
0000
0010
3301
,
1000
0100
0010
0002
,
0200
0000
0010
1303
,
0000
0001
0100
0020
,
2000
0030
0200
0000
,
0010
0010
0001
3301
,
1000
0100
1001
1001
,
1001
0000
0000
0000
,
0202
0000
0010
1303
,
0001
0010
0100
2000
,
0200
0000
0010
3301
,
0000
1000
0010
0200
,
0002
0300
0200
0000
,
0010
0010
1000
1303
,
0001
0010
1001
1001
,
1001
0000
0010
0000
,
1011
0000
0000
0000
;
#NOTES:
     dance-single:
     Renard:
     Challenge:
     10:
     0.584,0.573,0.413,0.695,0.070:
0000
0000
0000
0000
,
0000
0000
0000
0000
,
0000
0000
0000
0000
,
0000
0000
0000
0000
,
0000
0000
0000
0000
,
0000
0000
0000
0000
,
0000
0000
0002
0200
0313
0000
2000
0200
3310
0000
0000
0000
1001
0000
0000
0000
,
0001
0100
1000
0100
0001
0000
1001
0000
,
0000
0000
2000
0200
3310
0000
0002
0200
0313
0000
0000
0000
1001
0000
0000
0000
,
1000
0100
0001
0100
1000
0001
1000
0000
,
0000
0000
0002
0200
0313
0000
2000
0200
3310
0000
0000
0000
1001
0000
0000
0000
,
0001
0100
1000
0100
0001
0000
1001
0000
,
0000
0000
2000
0200
3310
0000
0002
0200
0313
0000
0000
0000
1001
0000
0000
0000
,
1000
0100
0001
0100
1000
0001
1000
0000
,
0000
2200
3310
0202
0313
0000
1001
0000
,
1000
0100
0001
0100
1000
0000
1001
0000
,
0000
0202
0313
2200
3310
0000
1001
0000
,
1000
0100
0010
0001
0010
0100
1000
0000
,
0000
0202
0313
2200
3310
0000
1001
0000
,
1000
0100
0010
0001
0100
0010
1000
0100
,
0010
0010
0001
0001
2000
0000
0002
0000
,
3013
0000
0001
0100
1000
0010
1001
0000
,
2002
0000
0000
0010
0020
0000
0000
3003
,
0100
0001
0100
0002
0000
1000
1003
0000
,
1100
0000
0101
0000
,
1000
0100
1000
0001
0000
0100
0001
0000
,
0102
1003
2100
3001
,
1000
0100
1000
0001
0000
1001
1001
0000
,
0002
0103
2000
3100
,
1000
1100
0001
0131
,
0001
0100
0001
0100
1000
0100
1000
0100
,
0001
0010
0001
0010
1000
0000
1010
0000
,
0010
1000
0010
1000
0010
0100
0010
0100
,
1000
0001
0100
0010
1000
0000
1001
0000
,
1000
0010
1000
0010
0001
0010
0001
0010
,
1000
0100
1000
0100
0001
0000
0101
0000
,
0100
0001
0100
0001
0100
0010
0100
0010
,
0001
1000
0010
0100
0001
0000
1001
0000
,
0001
0100
0020
0000
2030
0000
0100
0000
,
0010
0001
0100
0010
0000
0010
0100
0000
,
3010
0100
0002
0000
0023
0000
0032
0000
,
0100
0010
1000
0100
0000
0100
1003
0000
,
1000
0010
0200
0000
0302
0000
0010
0000
,
0100
1000
0010
0100
0000
0100
0010
0000
,
0103
0010
2000
0000
3200
0000
2300
0000
,
0100
0000
0100
0002
0010
0000
3013
0000
,
0000
0000
0002
0200
0313
0000
2000
0200
3310
0000
0000
0000
1001
0000
0000
0000
,
0001
0100
1000
0100
0001
0000
1001
0000
,
0000
0000
2000
0200
3310
0000
0002
0200
0313
0000
0000
0000
1001
0000
0000
0000
,
1000
0100
0001
0100
1000
0001
1000
0000
,
0000
0000
0002
0200
0313
0000
2000
0200
3310
0000
0000
0000
1001
0000
0000
0000
,
0001
0100
1000
0100
0001
0000
1001
0000
,
0000
0000
2000
0200
3310
0000
0002
0200
0313
0000
0000
0000
1001
0000
0000
0000
,
1000
0100
0001
0100
1000
0001
1000
0000
,
0000
2200
3310
0202
0313
0000
1001
0000
,
1000
0100
0001
0100
1000
0000
1001
0000
,
0000
0202
0313
2200
3310
0000
1001
0000
,
1000
0100
0010
0001
0010
0100
1000
0000
,
0000
0202
0313
2200
3310
0000
1001
0000
,
1000
0100
0010
0001
0100
0010
1000
0100
,
0010
0010
0001
0001
2000
0000
0002
0000
,
3013
0000
1000
0100
0001
0010
0100
0000
,
1001
0000
0000
0000
;
