#TITLE:Crank That Slam;
#SUBTITLE:;
#ARTIST:Pendulum vs Soulja Boy Tellem;
#TITLETRANSLIT:;
#SUBTITLETRANSLIT:;
#ARTISTTRANSLIT:;
#CRChallenge:;
#BANNER:slam.png;
#BACKGROUND:slam-bg.png;
#LYRICSPATH:;
#CDTITLE:;
#MUSIC:slam.ogg;
#OFFSET:0.000;
#SAMPLESTART:22.137;
#SAMPLELENGTH:12.000;
#SELECTABLE:YES;
#BPMS:0.000=86.500,32.000=173.000,224.000=86.500,239.000=173.000;
#STOPS:;
#BGCHANGES:;
#NOTES:
     dance-single:
     Renard:
     Medium:
     9:
     0.631,0.938,0.383,0.098,0.177:
0000
0000
0000
0000
,
0000
0000
0000
0000
,
0000
0000
0000
0000
,
0000
0000
0000
0000
,
2010
0010
0010
0010
0010
0010
0010
0010
,
0001
0001
0001
0001
0001
0001
0001
0001
,
3100
1000
0100
1000
0100
1000
0100
1000
0100
1000
0100
1000
0100
1000
0100
1000
,
0001
0010
0100
1000
0100
0010
0001
0100
0010
1000
0100
0000
0011
0000
1001
0000
,
0001
0100
1000
0100
0001
0010
0110
0000
,
0100
0010
0001
0100
1000
0100
0101
0000
,
0001
0100
0010
1000
0100
0010
0001
0010
,
0100
0000
0100
1000
0000
0000
0010
0000
1001
0000
0000
0000
0100
0000
0001
0000
,
0101
0000
0000
0000
0010
0000
1000
0000
0100
0000
0010
0000
0001
0010
0001
0000
,
0011
0000
0000
0000
0100
0000
1000
0000
0010
0000
0100
0000
0001
0010
0001
0000
,
1100
0000
0000
0000
0100
0000
1000
0000
0001
0000
0100
0000
0010
1000
0010
0000
,
1010
0000
0000
0000
0010
0000
0100
0000
0001
0000
0010
0000
0100
1000
0100
0000
,
1000
1000
0100
0100
0010
0010
0011
0000
,
0001
0001
0010
0010
0100
0100
1100
0000
,
1000
1000
0010
0010
0100
0100
0001
0001
,
1000
0000
1000
0100
0000
0000
0100
0000
0110
0000
0010
0000
0001
1000
0001
0000
,
0101
0000
0000
0000
0010
0000
1000
0000
0100
0000
0010
0000
0100
0010
0100
0000
,
1100
0000
0000
0000
0010
0000
0100
0000
0001
0000
0010
0000
0100
0010
0100
0000
,
0110
0000
0000
0000
0001
0000
0100
0000
0010
0000
1000
0000
0001
1000
0001
0000
,
1001
0010
1000
0100
0010
0001
0010
0000
,
0100
0100
1000
1000
0010
0010
1010
0000
,
0010
0010
0100
0100
0001
0001
0100
0000
,
0001
0000
0001
0010
0000
0000
0010
0000
0100
0000
0000
0000
1000
0000
0010
0000
,
0100
0100
0010
0010
1000
1000
0001
0000
,
1000
1000
0100
0100
0010
0010
0001
0000
,
0010
0001
1000
0100
0010
0001
1000
0000
,
0001
0010
0100
1000
0001
1000
0010
0000
,
0100
0100
0010
0010
0100
0100
0010
0000
,
2010
0000
0000
0000
,
0001
0001
0010
0010
0001
0001
0010
3010
,
1000
0010
0100
0001
0100
0100
0010
0000
,
0100
0100
0001
0010
0100
1000
0001
0000
,
1001
0000
0100
0010
1000
0100
1000
0000
,
1010
0000
1000
0010
0100
0100
0001
0000
,
0010
0001
0010
0001
1000
0100
1000
0100
,
1000
0010
0100
0001
0010
0010
0010
0000
,
0001
0000
0010
0001
0000
0000
1000
0000
0001
0000
0000
0000
0100
0000
0010
0000
,
1000
0000
0001
1000
0000
0000
0100
0000
1000
0000
0000
0000
0010
0000
0100
0000
,
0001
0000
1000
0001
0000
0000
0100
0000
0001
0000
0100
0000
0010
0000
0010
0000
,
1000
0000
0100
0010
0000
0000
0001
0000
1000
0000
0000
0000
0010
0000
0100
0000
,
0001
1000
0001
1000
0001
1000
0001
1000
,
0010
0000
0010
0100
0010
0000
0010
0100
,
0001
0010
1000
0010
0001
0000
0001
0100
,
1000
0100
0001
0000
1001
0000
0000
0000
,
0210
0000
0000
0000
0001
0300
0001
0100
,
0010
0000
0010
0100
1000
0000
0010
0000
,
0210
0000
0000
0000
0001
0300
0001
0100
,
0010
0000
0010
0100
1000
0000
1100
0000
,
1010
0000
0010
0100
0001
0010
0100
0000
,
1100
0000
0100
0010
0001
1000
0001
0000
,
2002
0000
0000
3003
,
0010
0010
0001
0001
1000
1000
0010
0000
,
1002
0000
0000
0000
0103
0000
0100
0010
1000
0100
0010
0000
0110
0000
1100
0000
,
1020
0000
0000
0000
0130
0000
0001
0010
0100
1000
0100
0000
0110
0000
0011
0000
,
1002
0000
0000
0000
0103
0000
0010
1000
0010
0100
0001
0000
0011
0000
0110
0000
,
2100
0000
0000
0000
3010
0000
0100
0001
1000
0010
0100
0000
1001
0000
0000
0000
;
#NOTES:
     dance-single:
     Renard:
     Easy:
     6:
     0.418,0.498,0.216,0.039,0.000:
0000
0000
0000
0000
,
0000
0000
0000
0000
,
0000
0000
0000
0000
,
0000
0000
0000
0000
,
0001
0001
1000
1000
0001
0001
1000
1000
,
0010
0010
0100
0100
0010
0010
0100
0100
,
0001
0001
1000
1000
0010
0010
0100
0100
,
0001
0100
0010
1000
0100
0010
0001
0000
,
1000
0001
1000
0001
1000
0000
1000
0000
,
0001
1000
0001
1000
0001
0000
0001
0000
,
1000
0001
1000
0001
1000
0000
1000
0000
,
0001
0100
1001
0000
,
0001
0000
0100
0000
0010
0100
0010
0100
,
0010
0000
0010
0000
1000
0000
0100
1000
,
0100
0000
1000
0000
0001
0100
0001
0100
,
0001
0000
1000
0100
1000
0000
0001
0000
,
1000
1000
0010
0110
,
0100
0100
0001
0101
,
0001
0010
0001
0011
,
0010
0100
1001
0000
,
1000
0001
0100
0010
,
1001
0100
0010
1000
,
0101
0010
1000
0100
,
0011
0010
0100
1000
,
0001
0001
0100
1001
,
0100
0000
0010
0000
1000
0010
1000
0000
,
0010
0100
0001
1001
,
0001
0100
0001
0100
0001
0100
0010
0000
,
1000
1010
0100
0101
,
0001
0011
0100
1100
,
1000
0000
0001
0000
0100
0010
0100
0000
,
0010
1000
0010
1000
0010
1000
0010
0000
,
0100
1001
0000
0010
,
1000
0000
0010
1000
0010
0000
1000
0010
,
0100
0001
0100
0010
,
1000
0100
1000
0000
0100
1000
0100
0000
,
1000
0100
0010
0001
,
1000
0000
0001
0000
0100
0010
0100
0000
,
0010
1000
0010
0000
1000
0000
0001
0000
,
0100
0001
0100
0001
0100
0001
0100
0000
,
0010
1001
0100
0000
,
0100
1001
0010
0000
,
1000
0010
1000
0001
,
0100
0010
0100
0010
0100
0000
0000
0000
,
0001
0100
1001
0010
,
0100
0010
1001
0000
,
0010
0100
1001
0100
,
0010
0100
1001
0000
,
0001
0000
0000
0000
0100
0000
0010
0100
,
0010
0000
0100
0010
0100
0000
0000
0000
,
0010
0000
0000
0000
1000
0000
0001
1000
,
0001
0000
1000
0100
1000
0000
0001
0000
,
0100
0000
0001
1000
,
0010
0000
1000
0001
1000
0000
0001
0000
,
0100
0100
0010
0010
,
0100
0000
0010
0000
1000
0010
1000
0000
,
0020
0000
1030
0000
0001
0001
0100
0010
,
2000
0000
3001
0000
0010
0010
0001
1000
,
0200
0000
0310
0000
0001
0001
1000
0001
,
0200
0000
0310
1000
0001
0100
1001
0000
;
#NOTES:
     dance-single:
     Renard:
     Beginner:
     3:
     0.286,0.410,0.186,0.098,0.000:
0000
0000
0000
0000
,
0000
0000
0000
0000
,
0000
0000
0000
0000
,
0000
0000
0000
0000
,
2001
0100
0001
3100
,
1002
0100
1000
0103
,
2001
0100
0001
3100
,
1002
0100
1000
0103
,
0001
0100
0001
0100
,
0001
0100
0001
0001
,
1000
0100
1000
0100
,
1000
0001
1001
0000
,
0001
0001
0001
0001
,
1000
1000
1000
1000
,
0010
0010
0010
0010
,
0100
0100
0100
0100
,
0001
0001
1000
1010
,
1000
1000
0001
0011
,
0001
0001
1000
1010
,
1000
0001
0011
0000
,
0001
1000
1000
1000
,
0100
1000
1000
1000
,
0010
1000
1000
1000
,
0001
1000
0001
0000
,
1000
0000
1000
0000
,
0001
0100
0010
1000
,
0001
0000
0001
0000
,
1000
0100
0010
0001
,
1000
0000
1000
0000
,
0001
0100
0010
1000
,
0001
0000
0001
0000
,
1000
0100
0010
0001
,
2000
0000
0000
0000
,
0010
0000
0010
0000
,
3001
0001
1000
1000
,
0002
0000
0010
0000
,
0013
0010
0001
0000
,
1000
1000
0100
0000
,
0010
0000
0001
0000
,
1000
1000
0010
0010
,
1001
0000
0110
0000
,
1010
0000
0101
0000
,
0001
0100
0010
1000
,
0001
0000
1001
0000
,
0011
0000
1100
0000
,
1010
0000
0101
0000
,
0001
0100
0001
0100
,
0010
1000
0001
0000
,
1001
0000
0000
0001
,
1000
0001
1000
0000
,
0010
0000
0000
0100
,
0010
0100
0010
0000
,
1000
0000
1000
0000
,
0001
0000
0001
0000
,
0100
0000
0100
0000
,
0010
0000
0010
1000
,
0002
1000
0000
0103
,
2000
0001
0000
3100
,
0002
1000
0000
0013
,
2000
0001
0010
3001
;
