#TITLE:Cowards Beware;
#SUBTITLE:;
#ARTIST:DJ Hazard;
#TITLETRANSLIT:;
#SUBTITLETRANSLIT:;
#ARTISTTRANSLIT:;
#CRChallenge:;
#BANNER:cowards.png;
#BACKGROUND:cowards-bg.png;
#LYRICSPATH:;
#CDTITLE:;
#MUSIC:cowards.ogg;
#OFFSET:0.000;
#SAMPLESTART:20.411;
#SAMPLELENGTH:12.000;
#SELECTABLE:YES;
#BPMS:0.000=175.000;
#STOPS:56.000=2.400
;
#BGCHANGES:;
#NOTES:
     dance-single:
     Renard:
     Challenge:
     9:
     0.590,1.000,0.234,0.612,0.495:
0000
0000
0000
0000
,
0000
0000
0000
0000
,
0000
0000
0000
0000
,
0000
0000
0000
0000
,
0000
0000
0000
0000
,
0000
0000
0000
0000
,
0000
0000
0000
0000
,
0000
0000
0000
0000
,
MMMM
MMMM
MMMM
MMMM
MMMM
MMMM
MMMM
MMMM
,
MMMM
MMMM
MMMM
MMMM
MMMM
MMMM
MMMM
MMMM
,
MMMM
MMMM
MMMM
MMMM
MMMM
MMMM
MMMM
MMMM
,
MMMM
MMMM
MMMM
MMMM
MMMM
MMMM
MMMM
MMMM
,
0001
1000
0001
1000
0001
1000
0001
1000
0000
0000
0000
0000
0000
0000
0000
0000
,
0000
0000
0000
0000
0001
1000
0001
1000
0000
0000
0001
1000
0001
1000
0000
0000
,
2002
3003
0000
0000
0000
0000
0000
0000
0000
0000
0000
0000
0000
0000
0000
0000
2002
0000
0000
0000
0000
0000
0000
0000
0000
0000
0000
0000
0000
0000
0000
0000
0010
0000
0000
0000
0000
0000
0000
0000
3000
0000
0000
0000
0000
0000
0000
0000
0000
0000
0000
0000
0000
0000
0000
0000
0200
0000
0000
0000
0000
0000
0000
0000
,
0000
0000
0010
1000
0010
0000
1313
0000
,
M00M
0000
2002
0000
0010
0003
0000
0200
,
0000
0000
0001
0010
0001
0000
3311
0000
,
M00M
0000
2002
0000
0010
3000
0000
0200
,
0000
0000
1000
0010
1000
0000
1313
0000
,
M00M
0000
2000
0200
0010
0001
0000
3311
,
0000
0002
0200
0010
1000
0000
1313
0000
,
M00M
0000
2002
0000
0010
3000
0000
0200
,
0000
0000
0010
1000
0010
0000
1313
0000
,
M00M
0000
2002
0000
0010
0003
0000
0200
,
0000
0000
0001
0010
0001
0000
3311
0000
,
M00M
0000
2002
0000
0010
3000
0000
0200
,
0000
0000
1000
0010
1000
0000
1313
0000
,
M00M
0000
0000
0000
00M1
1M00
00M1
1M00
00M1
1M00
00M1
1M00
00M1
1M00
00M1
1M00
,
00M1
1M00
00M1
1M00
00M1
1M00
00M1
1M00
00M1
1M00
00M1
1M00
00M1
1M00
00M1
1M00
,
00M1
0000
0000
0001
2000
0000
0000
0000
0211
0000
0000
0000
0000
0000
3301
0000
,
0000
0000
2000
0200
0010
0000
3301
0000
,
M00M
0000
0002
0000
1210
0000
0000
1303
,
0000
0000
2000
0200
0010
0000
3301
0000
,
M00M
0000
2000
0000
0211
0000
0000
3310
,
0000
0000
2000
0200
0010
0000
3301
0000
,
M00M
0000
0001
0002
1000
2000
0000
0010
,
3000
1000
2003
0001
0002
0000
3013
0000
,
M00M
0000
2000
0000
0211
0000
0000
3301
,
0000
0000
2000
0200
0010
0000
3301
0000
,
M00M
0000
0002
0000
1210
0000
0000
1303
,
0000
0000
2000
0200
0010
0000
3301
0000
,
M00M
0000
2000
0000
0211
0000
0000
3310
,
0000
0000
2000
0200
0010
0000
3301
0000
,
M00M
0000
0001
0100
0001
0100
1000
0100
,
1000
0100
0001
0010
1000
0010
0001
0100
,
0010
0000
0000
0000
1000
0010
0100
0001
0000
0000
1000
0010
0100
0001
0000
0000
,
0000
0000
0000
0000
0000
0000
0000
0000
0000
0000
0000
0000
1000
0000
0010
0000
0100
0000
0001
0000
0000
0000
0000
1000
0000
0010
0000
0100
0000
0001
0000
0000
,
0000
0000
0000
0000
0000
0000
0000
0000
1000
0000
0010
0000
0100
0000
0001
0000
0000
0000
0000
1000
0000
0010
0000
0100
0000
0001
0000
0000
0000
0000
0000
0000
,
0000
0000
0000
0000
1000
0000
0010
0000
0100
0000
0001
0000
0000
0000
0000
1000
0000
0010
0000
0100
0000
0001
0000
0000
0000
0000
0000
0000
0000
0000
0000
0000
,
0000
0000
0000
0000
0000
0000
0000
0000
0000
0000
0000
0000
0001
0100
0010
1000
,
0000
0000
0000
0001
0000
0100
0000
0010
0000
1000
0000
0000
0000
0000
0000
0000
0000
0000
0000
0000
0001
0000
0100
0000
0010
0000
1000
0000
0000
0000
0000
0001
,
0000
0100
0000
0010
0000
1000
0000
0000
0000
0000
0000
0000
0000
0000
0000
0000
0001
0000
0100
0000
0010
0000
1000
0000
0000
0000
0000
0001
0000
0100
0000
0010
,
0000
1000
0000
0000
0000
0000
0000
0000
0000
0000
0000
0000
0000
0000
0000
0000
0000
0000
0000
0001
0000
0100
0000
0010
0000
1000
0000
0000
0000
0000
0001
0000
,
0100
0010
1000
0000
0001
0000
0000
0000
1000
0000
0000
1000
0100
0000
0000
0000
,
0010
0000
0000
0010
0001
0000
0000
0000
0100
0000
0000
0100
0010
0000
0000
0000
,
1000
0000
0000
1000
0100
0000
0000
0000
0010
0000
0000
0010
0001
0000
0000
0000
,
1000
0000
0000
1000
0010
0000
0000
0000
0100
0000
0000
0100
0001
0000
0000
0000
,
0010
0000
0000
0010
0001
1000
0001
1000
0001
1000
0001
1000
0001
0000
0000
0000
,
1000
0000
0000
1000
0001
0000
0000
0000
1000
0001
1000
0001
1000
0000
0001
1000
,
0001
1000
0001
0000
1000
0000
0000
0000
0100
0000
0000
0100
0010
0000
0000
0000
,
0001
0000
0000
0001
1000
0000
0000
0000
0010
0000
0000
0010
0100
0000
0000
0000
,
0002
2000
0000
0020
0000
0000
3033
0000
;
