#TITLE:Contact;
#SUBTITLE:;
#ARTIST:Renard;
#TITLETRANSLIT:;
#SUBTITLETRANSLIT:;
#ARTISTTRANSLIT:;
#CRChallenge:;
#BANNER:contact.png;
#BACKGROUND:contact-bg.png;
#LYRICSPATH:;
#CDTITLE:;
#MUSIC:contact.ogg;
#OFFSET:0.000;
#SAMPLESTART:18.544;
#SAMPLELENGTH:12.000;
#SELECTABLE:YES;
#BPMS:0.000=103.500,12.000=207.000,26.000=103.500,30.000=207.000,204.000=103.500,208.000=207.000,240.000=414.000,320.000=207.000;
#STOPS:13.500=2.609
,20.500=2.609
,191.500=2.609
,198.500=2.609
;
#BGCHANGES:;
#NOTES:
     dance-single:
     Renard:
     Challenge:
     15:
     1.000,1.000,0.244,0.049,1.000:
0000
0000
0000
0000
,
0000
0000
0000
0000
,
1000
0000
0000
0000
0001
0001
0010
0000
0100
0000
0000
0000
1000
0100
0010
0000
0001
0000
0001
0000
1000
0000
1000
0000
0001
0000
0002
0000
1003
0000
0000
0000
,
0001
0010
0100
0000
0000
0000
1011
0000
0001
0010
0100
1000
1100
0000
0010
0000
,
0001
0000
1100
0000
0010
0000
0001
0000
0001
0100
0010
1000
0010
0100
0001
0000
,
0000
0000
1011
0000
1000
0010
0100
0001
1000
0100
0010
0000
0011
0000
0010
0100
,
1000
0000
0000
0000
1100
0000
0000
0000
0010
0000
0001
0000
0100
0000
0000
0000
0001
0000
0000
0000
1000
1000
0100
0000
0010
0000
0000
0000
0001
0010
0100
0000
,
1000
1000
0001
0001
1000
2000
3001
0000
0001
0010
0001
0010
0000
0100
1000
0000
,
0001
0010
0001
0010
0000
0100
1000
0000
0001
0100
0001
0100
0000
0010
1000
0000
,
0001
0100
0001
0100
0000
0010
1000
0000
0001
0010
0001
0010
0000
0100
1000
0000
,
0001
0100
0001
0100
0000
0010
1000
0000
0100
1000
0100
1000
0000
0001
0010
0000
,
0001
0100
0001
0100
0000
0010
1000
0000
0100
1000
0100
1000
0000
0001
0010
0000
,
0100
1000
0100
1000
0000
0001
0010
0000
0001
0100
0001
0100
0000
0010
1000
0000
,
0100
1000
0100
1000
0000
0001
0010
0000
0001
1000
0001
1000
0000
0010
0100
0000
,
0001
0100
0001
0100
0000
0010
0100
0000
0010
1000
0010
1000
0000
0001
0100
0000
,
0001
1000
0010
0100
0000
0001
1000
0000
0001
0010
0001
0010
0000
0100
1000
0000
,
0001
0010
0001
0010
0000
0100
1000
0000
0001
0100
0001
0100
0000
0010
1000
0000
,
0001
0100
0001
0100
0000
0010
1000
0000
0001
0010
0001
0010
0000
0100
1000
0000
,
0001
0100
0001
0100
0000
0010
1000
0000
0100
1000
0100
1000
0000
0001
0010
0000
,
0001
0100
0001
0100
0000
0010
1000
0000
0001
0010
0100
1000
0000
0001
0010
0000
,
0001
0010
0100
1000
0000
0001
0010
0000
0001
0010
0100
1000
0000
0001
0010
0000
,
0001
0010
0100
1000
0000
0001
0010
0000
0001
0100
0010
1000
0000
0001
0100
0000
,
0001
0100
0010
1000
0000
0001
0100
0000
0001
1000
0100
0010
0000
0001
0010
0000
,
0001
1000
0100
0010
0001
1000
0001
1000
0001
0000
0001
0000
0100
0000
0010
0000
,
1000
0000
0010
0000
0100
0001
0100
0000
0010
0000
1000
0010
0100
0000
0001
1000
,
0001
0000
1000
0100
0010
0000
0001
0010
0100
0000
1000
0000
0100
0000
0100
0000
,
1000
0000
0001
0000
0011
0000
0100
0000
1000
0100
0010
0001
1000
0000
0001
0010
,
0001
0000
1000
0010
1000
0000
0100
0010
0001
0000
0001
0000
0100
0000
0010
0000
,
1000
0000
0010
0000
0100
0001
0100
0000
0010
0000
1000
0010
0100
0000
0001
1000
,
0001
0000
1000
0100
0010
0000
0001
0010
0100
0000
1000
0000
0100
0000
0100
0000
,
1000
0000
0001
0000
0011
0000
0100
0000
1000
0100
0010
0001
1000
0000
0001
0010
,
0001
0000
1000
0010
1000
0100
0010
0001
1000
0000
0010
0000
0100
0000
0110
0000
,
0000
0000
0010
0000
1000
0001
1000
0000
0001
0000
0010
0000
0001
0010
0100
1000
,
0001
0000
0010
0001
0100
0000
0001
0000
1000
0000
0002
0000
0010
0000
0013
0000
,
0100
0000
2000
0000
0100
0000
3100
0000
1000
0100
0010
0001
1000
0001
0010
0100
,
1000
0001
0100
0110
0001
0100
0010
0110
,
0000
0000
0100
0000
0001
1000
0001
0000
1000
0000
0100
0000
1000
0100
0010
0001
,
1000
0000
0100
1000
0010
0000
1000
0000
0001
0000
1000
0000
1000
0000
0100
0000
,
0010
0000
0010
0000
0001
0010
0100
0000
1000
0100
0010
0000
0001
0010
0100
0000
,
1000
0000
0001
0000
0001
1000
0001
1000
0001
0000
0010
0000
1000
0000
0010
0000
,
0001
0100
1000
0100
0001
0010
1000
0010
,
0001
0100
1000
0100
0001
0010
1000
0010
,
0001
0100
1000
0100
0001
0010
0100
1000
,
0100
0100
0010
0010
0001
1000
0010
0001
,
0010
0100
1000
0100
0001
0010
0100
0001
,
0100
1000
0010
0001
0010
1000
0100
0001
,
0100
1000
0010
0100
0001
0010
0100
1000
,
0001
0000
0001
0000
0001
0010
0100
1000
0100
0010
0001
0000
0000
0000
1111
0000
,
1000
0100
0010
0001
0010
0000
0001
0100
0010
0000
1000
0100
0010
0000
0100
1000
,
0001
0100
0010
1000
0010
0100
0001
0000
0000
0000
1111
0000
0001
0010
0100
1000
,
0001
0100
0001
1000
0100
1000
0001
0100
0001
1000
0100
1000
0001
0010
0100
1000
,
0001
0000
0000
0000
1000
1000
0100
0000
0010
0000
0000
0000
0001
0010
0100
0000
1000
0000
1000
0000
0001
0000
0001
0000
1000
0000
2000
0000
3001
0000
0000
0000
,
0101
0000
0001
0100
0000
0100
1000
0000
1000
0100
0000
0100
,
0001
0000
0001
0010
0000
0010
1000
0000
1000
0010
0000
0010
,
0001
0000
0001
0010
0000
0010
0100
0000
0100
1000
0000
1000
,
0010
0000
0010
0100
0000
0100
0001
0000
0001
0010
0001
0010
,
0001
0010
1000
0010
0001
1000
0010
0001
0010
1000
0001
0010
,
1000
0010
0001
1000
0010
0001
0010
1000
0001
0010
1000
0010
,
0001
0100
1000
0100
0001
1000
0100
0001
0100
1000
0001
0100
,
1000
0100
0001
1000
0100
0001
0100
1000
0001
0100
0000
0000
,
0001
0100
0001
0100
0001
0000
0100
0010
,
0100
0010
0100
0000
0010
1000
0010
1000
,
0010
0000
1000
0100
1000
0100
1000
0000
,
0001
0010
0001
0000
1000
0100
1000
0000
,
0001
0100
0001
0100
0001
0000
1000
0010
,
1000
0010
1000
0000
0100
1000
0100
1000
,
0100
0000
0010
0001
0010
0001
0010
0000
,
0001
0100
0001
0000
1000
0010
1000
0000
,
0001
0010
0100
1000
0001
0000
1000
0100
,
0010
0001
1000
0000
0001
0010
0100
1000
,
0001
0000
1000
0100
0010
0001
1000
0000
,
0010
0100
0010
0000
0100
0010
0100
0000
,
0001
0100
0010
1000
0001
0000
1000
0010
,
0100
0001
1000
0000
0001
0010
0100
1000
,
0001
0000
1000
0010
0100
0001
1000
0000
,
0001
0100
0010
1000
0100
0010
0001
0100
,
0010
0110
1001
0110
,
1010
0000
0110
0101
,
0011
0110
1100
0000
,
1001
0100
0010
0100
,
1011
0000
0000
0000
;
#NOTES:
     dance-single:
     Renard:
     Medium:
     10:
     0.777,0.975,0.254,0.039,0.112:
0000
0000
0000
0000
,
0000
0000
0000
0000
,
0000
0000
0000
0000
,
1001
0000
0000
1011
0000
0000
1000
0100
,
0010
0001
0010
0100
1000
0001
1001
0000
,
0000
1011
0000
0000
1000
0100
0010
0001
,
0010
0100
1000
0000
1001
0011
1001
1010
,
1001
0110
2002
3013
0001
0100
0001
0100
,
0001
0100
0001
0100
0001
1000
0001
1000
,
0001
0010
0001
0010
0001
1000
0001
1000
,
0001
1000
0001
1000
0100
1000
0010
1000
,
0001
1000
0100
1000
0010
1000
0010
1000
,
0010
1000
0010
1000
0010
0100
0010
0100
,
0001
0100
0001
0100
0001
0010
0001
0010
,
0001
0010
0001
0010
0001
1000
0001
0100
,
0001
0010
0001
1000
0100
1000
0100
1000
,
0100
1000
0100
1000
0010
1000
0010
1000
,
0010
0100
0010
0100
0010
0100
0001
0100
,
0001
0100
0001
0100
0001
0100
0001
0100
,
0001
0100
0001
0100
0001
0010
0001
0010
,
0001
0010
0001
0010
0100
0010
0100
0010
,
0100
1000
0100
1000
0010
0100
0001
0010
,
0100
1000
0100
0010
0001
0100
0010
1000
,
0100
0010
0001
0000
1000
0001
0100
0010
,
1000
0100
0010
0001
0000
0001
0010
0100
,
1000
0001
0100
0010
1000
0100
0010
0100
,
1000
0010
0100
0010
0000
0010
0100
0001
,
0010
0100
0010
0001
0100
0010
1000
0100
,
0010
0100
1000
0001
0000
0001
0100
0010
,
1000
0100
0010
0100
1000
0010
0100
0001
,
0010
0100
0010
0001
0000
0001
0010
0100
,
1000
0001
0010
0100
1000
0010
0100
0001
,
1000
0010
1000
0100
0000
0100
1000
0010
,
0100
0001
0010
0100
0010
0001
0100
0010
,
1000
0100
0010
0100
0000
0100
0010
0000
,
0001
0100
0010
1000
0100
0010
0001
0010
,
0100
1000
0010
0100
0000
0100
0010
0000
,
0100
0001
0010
0100
1000
0100
0010
0001
,
0100
0010
1000
0001
0000
0001
1000
0000
,
1000
0010
0100
0001
1000
0100
1000
0000
,
0001
0100
0001
0000
1000
0100
1000
0000
,
0001
0100
0001
0000
1000
0010
1000
0000
,
0001
0010
0001
0000
1000
0100
0010
0001
,
1000
0100
1000
0000
0001
0100
0001
0000
,
1000
0100
1000
0000
0001
0100
0001
0000
,
1000
0010
1000
0000
0001
0010
0001
0000
,
1000
0100
0010
0001
0010
0100
1000
0001
,
0100
0010
1000
0000
1001
0000
0000
1011
,
0000
0000
1000
0100
0010
0001
0010
0100
,
1000
0001
1001
0000
0000
1011
0000
0000
,
1000
0100
0010
0001
0010
0100
1000
0000
,
1100
1001
0101
1001
1100
1001
0202
0313
,
0001
0000
0001
1000
0000
0000
0100
0000
0100
0010
0000
0000
,
0001
0000
0001
1000
0000
1000
0010
0000
0010
0100
0000
0000
,
0001
0000
0001
0100
0000
0000
0010
0000
0010
1000
0000
0000
,
0100
0000
0100
0010
0000
0010
0001
0000
0001
0010
0000
0010
,
0100
0000
0100
1000
0000
0000
0001
0000
0001
0100
0000
0000
,
0010
0000
0010
1000
0000
1000
0010
0000
0010
0100
0000
0100
,
0001
0000
0001
0100
0000
0000
0100
0000
0010
1000
0000
0000
,
0100
0000
0010
0001
0000
0010
0100
1000
0100
0010
0000
0000
,
0001
0100
0001
0100
0001
0000
0100
0010
,
0100
0010
0100
0000
0010
1000
0010
1000
,
0010
0000
1000
0100
1000
0100
1000
0000
,
0001
0010
0001
0000
1000
0100
1000
0000
,
0001
0100
0001
0100
0001
0000
1000
0010
,
1000
0010
1000
0000
0100
1000
0100
1000
,
0100
0000
0010
0001
0010
0001
0010
0000
,
0001
0100
0001
0000
1000
0010
1000
0000
,
0001
0100
0001
0100
0001
0000
0100
0010
,
0100
0010
0100
0000
0010
1000
0010
1000
,
0010
0000
1000
0100
1000
0100
1000
0000
,
0001
0010
0001
0000
1000
0100
1000
0000
,
0001
0100
0001
0100
0001
0000
1000
0010
,
1000
0010
1000
0000
0100
1000
0100
1000
,
0100
0000
0010
0001
0010
0001
0010
0000
,
0001
0100
0001
0000
1000
0010
1000
0100
,
0010
1000
0001
0001
,
1001
0000
1010
0100
,
0001
0010
0100
0000
,
1001
0100
0010
0100
,
1001
0000
0000
0000
;
#NOTES:
     dance-single:
     Renard:
     Easy:
     7:
     0.506,0.546,0.224,0.010,0.000:
0000
0000
0000
0000
,
0000
0000
0000
0000
,
0000
0000
0000
0000
,
1001
0000
0000
1011
0000
0000
1000
0000
,
1000
0001
0001
1001
,
0000
1011
0000
0000
0001
0000
0001
0000
,
1000
0000
1000
0000
0010
0010
0100
0010
,
0100
0100
0010
0100
0001
0000
1000
0000
,
0001
1000
0001
0000
1000
0100
1000
0000
,
0001
0100
0001
0000
1000
0000
1000
0000
,
0001
0000
0001
0000
0100
0010
0100
0000
,
0010
0100
0010
0000
1000
0000
1000
0000
,
0010
0000
0010
0000
0100
0001
0100
0000
,
0001
1000
0001
0000
1000
0000
1000
0000
,
0100
0000
0100
0000
0010
0001
0010
0000
,
0100
1000
0100
0000
1000
0000
1000
0000
,
0001
0000
0001
0000
0100
0010
0100
0000
,
0001
0100
0001
0000
0100
0000
0100
0000
,
0010
0000
0010
0000
1000
0001
1000
0000
,
0100
1000
0100
0000
1000
0000
1000
0000
,
0100
0000
0100
0000
0010
0001
0010
0000
,
0001
0100
0001
0000
0100
0000
0100
0000
,
0001
0001
1000
0100
,
1000
0002
1003
0100
,
1000
0100
1000
0100
0000
0000
1000
0000
,
0100
0010
0001
0100
,
0001
0100
0001
0100
0000
0000
0010
0000
,
1000
0100
0010
0001
,
1000
0001
1000
0001
0000
0000
1000
0000
,
0010
0100
0001
0010
,
0100
0010
0100
0010
0000
0000
0100
0000
,
1000
0010
0100
0001
,
1000
0000
0100
1000
0000
0000
0100
0000
,
1000
0001
0100
0010
,
1000
0000
0001
0010
0000
0000
0100
0000
,
1000
0001
0100
0010
,
1000
0000
0001
0010
0000
0000
0001
0000
,
1000
0100
0010
0001
,
1000
0000
0010
0100
0000
0010
1000
0000
,
0010
0100
0001
0100
0010
0000
0010
0000
,
0010
1000
1000
1000
,
0100
0100
0100
0010
,
0010
0010
0001
0001
,
1000
1000
0010
0010
,
0010
0100
0100
0100
,
0001
0001
0001
1000
,
1000
1000
0100
0100
,
0010
0000
0010
0000
0001
0000
0000
1001
,
0000
0000
1000
0100
0010
0001
0010
0100
,
1000
0000
1001
0000
0000
1011
0000
0000
,
0001
0010
0100
1000
0100
0010
0001
1000
,
0001
0000
0100
0000
0010
1000
0010
0000
,
1000
1010
0001
0011
,
1000
1010
0001
0011
,
1000
1100
0001
0101
,
1000
1100
0001
0101
,
1000
1010
0001
0011
,
1000
1010
0001
0011
,
1000
1100
0001
0101
,
1000
1100
0001
1001
,
0001
0100
0001
0100
,
0001
0100
0001
0100
,
0010
0100
0010
0100
,
0010
0100
0010
0100
,
0010
1000
0010
1000
,
0010
1000
0010
1000
,
0100
1000
0100
1000
,
0100
1000
0100
1000
,
0100
0010
0100
0010
,
0100
0010
0100
0010
,
0001
0010
0001
0010
,
0001
0010
0001
0010
,
0001
0100
0001
0100
,
0001
0100
0001
0100
,
0010
0100
0010
0100
,
0010
1000
0010
1000
,
0100
0000
1000
0100
,
0010
0001
0000
0010
,
0100
1000
0001
0000
,
0100
0010
1000
0001
,
0100
0000
0000
0000
;
#NOTES:
     dance-single:
     Renard:
     Beginner:
     6:
     0.514,0.702,0.341,0.068,0.000:
0000
0000
0000
0000
,
0000
0000
0000
0000
,
1000
0000
0001
0000
1000
1000
0001
0000
,
2002
0000
0000
3013
0000
0000
0001
0000
,
1000
0001
1000
2002
,
0000
3013
0000
0000
1000
0000
0001
0000
,
1000
0000
0001
0000
1000
0010
0100
0001
,
1000
0100
1000
0000
0001
0000
1000
0000
,
0001
0000
1000
0000
0001
0100
0001
0100
,
0001
0100
0001
0000
1000
0000
1000
0000
,
0001
0000
0001
0000
1000
0100
1000
0100
,
1000
0100
1000
0000
0001
0000
0001
0000
,
1000
0000
1000
0000
0001
0100
0001
0100
,
0001
0100
0001
0000
1000
0000
1000
0000
,
0001
0000
0001
0000
1000
0100
1000
0100
,
1000
0100
1000
0000
0001
0000
0001
0000
,
1000
0000
1000
0000
0001
0010
0001
0010
,
0001
0010
0001
0000
1000
0000
1000
0000
,
0001
0000
0001
0000
1000
0010
1000
0010
,
1000
0010
1000
0000
0001
0000
0000
0000
,
0001
1000
0100
0000
,
0100
1000
0001
0000
,
0001
0100
0010
1000
,
0002
0000
1003
1000
,
0100
0100
0010
0001
,
0010
0001
0010
0001
0010
0000
0010
0000
,
0001
0001
0100
0100
,
0001
0100
0001
0100
0001
0000
0001
0000
,
0100
0100
0010
0010
,
1000
0010
1000
0000
0100
0000
0100
0000
,
1000
1000
0001
0010
,
0001
1000
0001
0001
,
0100
0100
0010
0010
,
1000
0010
1000
0010
1000
0000
1000
0000
,
0010
0010
0100
0001
,
1000
0001
0100
0100
,
0001
0001
0010
0100
,
1000
0100
1000
0100
1000
0000
0100
0000
,
0010
0001
1000
0001
,
0100
0010
1000
1000
,
0010
0010
0010
0100
,
0100
0100
0001
0001
,
0001
1000
1000
1000
,
0100
0010
0001
0001
,
1000
1000
1000
1000
,
0010
0010
0010
0100
,
0100
0100
0001
1000
,
0100
0000
0100
0000
0010
0000
0000
1001
,
0000
0000
0001
1000
0001
1000
0001
1000
,
0002
0000
2000
0000
0000
3013
0000
0000
,
0001
1000
0100
0010
,
0001
0001
0010
0100
1000
0100
1000
0000
,
1001
1001
1001
1001
,
0110
0110
0110
0110
,
1001
1001
1001
1001
,
0110
0110
0110
0110
,
0101
0101
0101
0101
,
1010
1010
1010
1010
,
1100
1100
1100
1100
,
0011
0011
0011
0011
,
0001
1000
0001
1000
,
0001
1000
0001
1000
,
0001
1000
0001
1000
,
0001
0000
1000
0000
,
0010
0100
0010
0100
,
0010
0100
0010
0100
,
0010
0100
0010
0100
,
0010
0000
0100
0000
,
0001
1000
0001
1000
,
0001
1000
0001
1000
,
0001
1000
0001
1000
,
0001
0000
1000
0000
,
0010
0100
0010
0100
,
0010
0100
0010
0100
,
0010
0100
0010
0100
,
0010
0000
0100
0000
,
0000
0001
0100
0000
,
0010
0000
0000
0100
,
0010
0000
0100
0000
,
0000
0001
0100
0010
,
1000
0000
0000
0000
;
