#TITLE:Concept of Love (Concept of Passion Mix);
#SUBTITLE:;
#ARTIST:Hideki Naganuma;
#TITLETRANSLIT:;
#SUBTITLETRANSLIT:;
#ARTISTTRANSLIT:;
#CRChallenge:;
#BANNER:love.png;
#BACKGROUND:love-bg.png;
#LYRICSPATH:;
#CDTITLE:;
#MUSIC:love.ogg;
#OFFSET:0.000;
#SAMPLESTART:30.472;
#SAMPLELENGTH:12.000;
#SELECTABLE:YES;
#BPMS:0.000=122.000;
#STOPS:;
#BGCHANGES:;
#NOTES:
     dance-single:
     Renard:
     Medium:
     9:
     0.567,0.553,0.333,0.185,0.472:
0000
0000
0000
0000
,
0000
0000
0000
0000
,
0000
0000
0000
0000
,
0000
0000
0000
0000
,
0001
0000
1000
0000
0200
0000
0000
1000
0000
0010
0000
0001
0000
0000
0000
0000
,
0301
0000
0100
0000
2000
0000
0000
0010
0000
0001
0000
0100
0000
0000
0000
0000
,
3100
0000
1000
0000
0020
0000
0000
0001
0000
0100
0000
1000
0000
0030
1000
0000
,
0010
0000
0000
1000
0000
0000
0100
0000
0010
0000
0000
0001
0000
0000
0100
0000
,
0001
0000
1000
0001
0100
0000
0001
0000
1000
0000
0100
0000
0010
0000
0001
0000
,
1000
0000
0001
1000
0010
0000
1000
0000
0001
0000
0010
0000
0100
0000
1000
0000
,
0001
0000
1000
0001
0100
0000
0001
0000
0100
0000
0010
0000
1000
0000
0100
0000
,
1000
0000
0001
1000
0010
0000
1000
0000
0001
0000
0100
0000
0010
0000
1001
0000
,
1000
0000
0001
1000
0010
0000
1000
0000
0001
0000
0010
0000
0100
0000
1000
0000
,
0001
0000
1000
0001
0100
0000
0001
0000
1000
0000
0100
0000
0010
0000
0001
0000
,
1000
0000
0001
1000
0010
0000
1000
0000
0010
0000
0100
0000
0001
0000
0010
0000
,
0002
0000
0000
0010
0000
0000
0100
0000
2003
0000
0000
0010
0000
0000
3001
0000
,
1000
0000
0100
0000
0010
0002
0000
0100
0000
0103
0000
0001
0100
0000
0010
0000
,
0100
0000
0010
0000
1000
0002
0000
0010
0000
0013
0000
0001
0100
0000
0010
0000
,
1000
0000
0100
0000
0010
0002
0000
0100
0000
0103
0000
0001
0100
0000
0010
0000
,
1000
0000
1000
0000
0001
0000
0001
0000
1000
0000
0001
2000
0000
0000
0010
0000
,
3010
0000
1000
0010
1000
0000
0010
0000
0010
0000
0100
0000
0000
0100
0000
0000
,
0001
0000
0010
0001
0010
0000
0001
0000
0001
0000
0010
0000
0000
0010
0000
0000
,
0100
0000
1000
0100
1000
0000
0100
0000
0100
0000
1000
0000
0000
1000
0000
0000
,
0201
0000
0000
0000
0310
0000
1000
0200
0000
0000
0000
0000
1300
0100
0000
1000
,
0100
0000
0010
0001
0000
2000
0000
0001
0000
3001
0000
1000
0100
0000
1000
0000
,
0100
0000
0010
0002
0000
1000
0000
1003
0000
0001
0000
1000
0100
0000
1000
0000
,
0001
0000
0100
0010
0000
2000
0000
0001
0000
3001
0000
1000
0010
0000
0100
0000
,
0001
0000
0010
0200
0000
1000
0000
1300
0000
0010
0000
0100
0001
0000
1000
0000
,
0101
0000
0101
0000
0101
0000
0000
2010
0000
0001
0000
3100
0000
0000
1000
0000
,
0100
0001
0100
1000
0100
0001
0101
0000
,
1100
0000
1100
0000
1100
0000
0000
0012
0000
1000
0000
0103
0000
0000
0001
0000
,
0100
1000
0100
0001
0100
0000
1100
0000
,
0100
0001
0100
0000
0101
0000
0000
1010
0000
1010
0000
1010
0000
0000
0000
0000
,
1000
0100
1000
0000
1100
0000
0000
0011
0000
0011
0000
0011
0000
0000
0000
0000
,
0001
1000
0001
0000
1001
0000
0000
0101
0000
0110
0000
1010
0000
0000
0010
0000
,
1000
0000
0100
0000
0001
0000
0100
0000
1000
0000
0010
0000
0100
0001
0100
0000
,
1001
0010
1001
0100
1000
0001
0100
0010
,
1000
0000
0001
0100
0000
0000
1001
0000
1000
0000
0001
0100
0000
0000
1001
0000
,
1001
0010
1001
0100
1001
0100
0001
1000
,
0001
0000
0010
0001
0000
0000
1000
0000
0010
0000
1000
0001
0000
0000
0101
0000
,
0201
0001
0010
0010
0301
0100
0010
1000
,
0100
0000
0000
1000
0000
0000
0010
0000
0100
0000
0000
0001
0000
0000
0010
0000
,
1200
1000
0010
0010
1300
1000
0010
0100
,
0001
0000
0000
0010
0000
0000
0100
0000
1000
0000
0000
0010
0000
0000
0100
0000
,
0012
0010
1000
0010
1003
0010
0100
1000
,
0010
0000
0000
0100
0000
0000
0001
0000
0010
0000
0000
0100
0000
0000
1000
0000
,
0010
0000
0010
0100
0000
0100
0001
0000
1000
0000
1000
0100
0000
0100
0010
0000
,
0001
0000
1000
0010
0000
0100
0001
0000
1000
0000
0001
0010
0000
0100
1000
0000
,
0001
0000
0001
0000
0100
0000
0000
0010
0000
0000
0010
0000
0010
0000
0000
0000
,
1000
0000
1000
0000
0100
0000
0000
0010
0000
0000
0010
0000
0001
0000
0000
0000
,
0100
0000
0100
0000
0010
0000
0000
0010
0000
0000
1000
0000
0001
0000
0000
0000
,
0010
0010
0100
0000
1000
1000
0100
0000
,
1001
0000
0000
0000
;
#NOTES:
     dance-single:
     Renard:
     Easy:
     5:
     0.350,0.409,0.083,0.000,0.000:
0000
0000
0000
0000
,
0000
0000
0000
0000
,
0000
0000
0000
0000
,
0000
0000
0000
0000
,
1000
0000
1000
0000
0001
0001
0001
0000
,
1000
0000
1000
0000
0001
0001
0001
0000
,
1000
0000
1000
0000
0001
0001
0001
0000
,
1000
1000
0001
0001
,
0100
0000
0001
0000
1000
0001
1000
0000
,
0001
0000
0010
0000
0001
1000
0001
0000
,
1000
0000
0100
0000
1000
0001
1000
0000
,
0010
0000
1000
0000
0001
1000
0001
0000
,
0100
0000
0001
0000
1000
0100
1000
0000
,
0001
0000
0100
0000
0001
0010
0001
0000
,
1000
0000
0100
0000
1000
0010
1000
0000
,
0001
0000
0010
0000
0001
0100
0001
0000
,
1000
0000
1000
0000
0001
0100
0001
0000
,
1000
0000
1000
0000
0001
0100
0001
0000
,
1000
0000
1000
0000
0001
0100
0001
0000
,
1000
1000
1000
1000
,
0010
0010
0100
0100
,
0010
0000
0010
0000
0100
0010
0100
0010
,
0100
0100
0010
0010
,
0100
0010
0100
0010
0100
0010
0100
0010
,
1000
0000
1000
0000
0001
1000
0001
1000
,
0010
0000
0010
0000
0100
0001
0100
0001
,
1000
0000
1000
0000
0001
0010
0001
0010
,
0100
0000
0100
0000
1000
0100
1000
0100
,
1000
1000
0001
0001
,
0100
0110
0010
0110
,
0100
0100
0001
0001
,
1000
1001
0001
1001
,
0100
0001
0100
0000
0001
0100
0001
0000
,
1000
0100
1000
0000
0100
1000
0100
0000
,
0010
0100
0010
0000
0100
0010
0100
0000
,
0110
1001
0110
1001
,
1000
0001
0100
0000
0100
0000
0100
0000
,
0001
1000
0001
1000
0001
1000
0001
1000
,
0001
1000
0100
0000
0100
0000
0100
0000
,
1000
0001
1000
0001
1000
0001
1000
0000
,
0001
0010
0001
0000
1000
0010
1000
0000
,
0001
0010
0001
0000
1000
0010
1000
0000
,
0001
0100
0001
0000
1000
0100
1000
0000
,
0001
0100
0001
0000
1000
0100
1000
0000
,
0001
1000
0001
0000
0100
0010
0100
0000
,
0001
1000
0001
0000
0100
0010
0100
0000
,
0001
1000
0001
1000
0001
1000
0001
1000
,
0010
0100
0001
1000
0010
0100
0001
1000
,
0001
0001
1000
1000
,
0010
0010
1000
1000
,
0100
0100
1000
1000
,
0010
0010
1000
0001
,
1001
0000
0000
0000
;
#NOTES:
     dance-single:
     Renard:
     Beginner:
     3:
     0.237,0.409,0.166,0.148,0.000:
0000
0000
0000
0000
,
0000
0000
0000
0000
,
0000
0000
0000
0000
,
0000
0000
0000
0000
,
1000
0001
1000
1000
,
0001
1000
0001
0001
,
1000
0001
1000
1000
,
0001
0001
0001
0001
,
0200
0310
0000
0010
,
0200
0310
0000
0010
,
2000
3001
0000
0001
,
2000
3001
0000
0001
,
0200
0301
0000
0001
,
2000
3010
0000
0010
,
2000
3100
0000
0100
,
0020
0031
0000
0001
,
1000
0001
1000
1001
,
0001
1000
0001
1001
,
1000
0001
1000
1001
,
0001
1000
0001
1001
,
0001
0001
0100
0100
,
0010
0010
1000
0000
,
1000
1000
0010
0010
,
0100
0000
0100
0000
,
0002
0000
0000
1000
,
2003
0000
0000
0010
,
3020
0000
0000
0100
,
0230
0000
0001
0000
,
0301
0001
0001
0001
,
1000
0000
1000
0000
,
1000
1000
1000
1000
,
0001
0000
0001
0000
,
0100
0100
0100
0100
,
0010
0000
0010
0000
,
0010
0010
0010
0010
,
0100
0001
0010
1000
,
0100
0000
0100
1000
,
0001
0000
0001
0000
,
0001
0000
0001
1000
,
0100
0000
0100
1000
,
0001
0000
0001
0001
,
0010
0000
0110
0000
,
0100
0000
1000
1000
,
0001
0000
1001
0000
,
0101
0000
0110
0000
,
1010
0000
1001
0000
,
1100
1100
0110
0110
,
0011
0011
1001
1001
,
2000
0000
0010
0000
,
3020
0000
0100
0000
,
0230
0000
0001
0000
,
0302
0000
1000
0000
,
1003
0000
0000
0000
;
