#TITLE:Concept of Love (Concept of Passion Mix) EX;
#SUBTITLE:;
#ARTIST:Hideki Naganuma;
#TITLETRANSLIT:;
#SUBTITLETRANSLIT:;
#ARTISTTRANSLIT:;
#CRChallenge:;
#BANNER:love.png;
#BACKGROUND:love-bg.png;
#LYRICSPATH:;
#CDTITLE:;
#MUSIC:love.ogg;
#OFFSET:0.000;
#SAMPLESTART:43.556;
#SAMPLELENGTH:12.000;
#SELECTABLE:NO;
#BPMS:0.000=132.000;
#STOPS:;
#BGCHANGES:;
#NOTES:
     dance-single:
     Renard:
     Hard:
     10:
     0.651,0.704,0.475,0.065,0.955:
0000
0000
0000
0000
,
0000
0000
0000
0000
,
0000
0000
0000
0000
,
0000
0000
0000
0000
,
10M0
0001
0100
0001
10M0
0000
0001
1000
00M0
0100
1000
0001
10M0
0000
0001
0000
,
01M0
0001
1000
0001
10M0
0000
0100
1000
00M0
0001
0100
0001
10M0
0000
0001
0000
,
1M00
0001
0010
0001
1M00
0000
0010
1000
0M00
0001
1000
0001
0M10
0000
0001
0000
,
1M00
0000
0000
0010
0000
0000
0100
0000
0001
0000
0000
0000
1M11
0000
0000
0000
,
10M0
0001
0100
0001
10M0
0000
0100
1000
00M0
0001
0100
0001
10M0
0000
0001
0000
,
10M0
0100
1000
0001
01M0
0000
0001
1000
00M0
0001
1000
0100
10M0
0000
0001
0000
,
1M00
0001
0010
0001
1M00
0000
0010
1000
0M00
0001
1000
0001
0M10
0000
0001
0000
,
1M00
0000
0000
0010
0000
0000
0100
0000
0001
0000
0000
0000
1M11
0000
0000
0000
,
10M0
0001
0100
0001
10M0
0000
0000
1001
0000
0110
0000
1001
0000
0000
0000
0000
,
10M0
0001
0100
0001
10M0
0000
0000
1001
0000
0110
0000
1001
0000
0000
0000
0000
,
00M1
1000
0100
1000
00M1
0000
0000
1001
0000
0110
0000
1001
0000
0000
1000
0000
,
0001
0000
0000
0100
0000
0000
0010
0000
1000
0000
0000
0001
0000
0000
0100
0000
,
0101
0000
0010
0000
1000
0100
0000
0011
0000
1100
0000
1000
0010
0100
0001
0000
,
0100
0000
0010
0000
1000
0010
0000
0101
0000
1010
0000
1000
0100
0010
0001
0000
,
0011
0000
1100
0000
0100
1000
0010
0100
0000
0001
0000
0100
0010
0000
1000
0000
,
0010
1000
0100
0000
0010
0001
0000
0010
0000
0100
1000
0000
0001
0000
0010
0000
,
0011
0000
1100
0000
1000
0001
0000
0100
0000
0010
0000
1000
0001
0000
0110
0000
,
1010
0000
0101
0000
0010
1000
0000
0100
0000
0010
0000
0001
0010
0000
0110
0000
,
1100
0000
0011
0000
1000
0001
0000
0100
0000
0010
0000
1000
0001
0000
0100
0000
,
0000
0001
0010
0100
1000
0000
1001
0000
0000
1000
0100
0010
0001
0000
1001
0000
,
0000
0000
1000
0001
0100
0001
0000
0000
0000
0000
1000
0100
002M
000M
000M
000M
,
0030
0000
0001
0010
0100
1000
0000
0000
0000
0000
0001
1000
0M20
0M00
0M00
0M00
,
0030
0000
1000
0001
0100
0010
0000
0000
0000
0000
1000
0010
0M02
0M00
0M00
0M00
,
0003
0000
1000
0100
00M2
00M0
00M0
00M0
0003
0000
1000
0010
0M02
0M00
0M00
0M00
,
0013
0000
0100
0000
0001
1000
0000
0100
0000
0010
0000
0001
1000
0000
1011
0000
,
1000
0000
0010
0000
0100
0001
0000
0010
0000
0100
0000
1000
0001
0000
1011
0000
,
M1M1
0010
1000
M1M1
0010
1MM1
1MM1
0100
,
10M1
0M00
00M0
0M00
000M
000M
000M
M000
M000
0M00
0M00
000M
0M00
0M00
0M00
0M00
,
0001
0100
0000
0000
1001
0000
0000
1000
0000
0100
0010
0000
1001
0000
0000
0000
,
1000
0010
0000
0000
1001
0000
0000
1000
0000
0001
0100
0000
0011
0000
0000
0000
,
0001
1000
0000
0000
1100
0000
0000
1000
0000
0001
0100
0000
1001
0000
0000
0000
,
1M00
0M10
0000
0M01
0M10
0000
1M00
0M10
0000
0M01
0M10
0M00
1M00
0000
0M01
0000
,
10M0
0000
01M0
0000
00M1
0000
00M0
0001
00M0
0100
00M0
1000
00M0
0000
00M0
0000
,
1M00
0000
0M10
0000
0M01
0000
0M00
0001
0M00
0010
0M00
1000
0M00
0000
0M00
0000
,
0M01
0000
0M10
0000
1M00
0000
0M00
1000
0M00
0010
0M00
0001
0M00
0000
1M00
0000
,
0M10
0000
0000
0100
00M0
0000
0001
0000
1M00
0000
0000
0000
1M11
0000
0000
0000
,
10M0
0000
01M0
0000
00M1
0000
00M0
0001
00M0
0100
00M0
1000
00M0
0000
00M0
0000
,
1M00
0000
0M10
0000
0M01
0000
0M00
0001
0M00
0010
0M00
1000
0M00
0000
0M00
0000
,
1M00
0000
0M01
0000
0M10
0000
0M00
1000
0M00
0010
0M00
0001
0M00
0000
1M00
0000
,
0M10
0000
0000
0100
00M0
0000
0001
0000
1M00
0000
0000
0010
0M00
0000
0100
0000
,
0001
0000
0100
0001
1000
0100
0000
0000
1001
0000
1000
0100
0010
0000
0000
0000
,
0001
0000
0010
0100
1000
0001
0000
0000
0100
0000
0001
1000
0100
0000
0000
0000
,
1000
0000
0001
0100
0010
1000
0000
0000
1010
0000
1000
0010
0100
0000
0000
0000
,
1001
0000
0001
0100
0010
0000
0000
0000
1010
0000
1000
0010
0100
0000
0000
0000
,
0001
0100
0010
1000
0001
0100
0000
0000
0010
0000
1000
0100
0010
0000
0000
0000
,
0001
0010
0100
1000
0100
0010
0000
0000
0001
0000
1000
0010
0100
0000
0000
0000
,
M1M1
0010
1000
M1M1
0010
1MM1
1MM1
0100
,
1MM1
0000
00M0
0000
M00M
0000
0M00
0000
M0M0
0000
0M00
000M
0000
0000
0000
0000
,
10M0
00M0
10M0
00M0
00M1
01M0
00M0
00M1
00M0
00M1
00M0
10M0
01M0
00M0
10M0
00M0
,
00M1
00M0
00M1
00M0
10M0
01M0
00M0
10M0
00M0
10M0
00M0
00M1
01M0
00M0
00M1
00M0
,
10M0
00M0
10M0
00M0
00M1
01M0
00M0
00M1
00M0
00M1
00M0
10M0
01M0
00M0
10M0
00M0
,
0M01
0M10
0M00
0M01
1M00
0M00
0M10
0M00
1M00
0M01
0M00
0M10
0M02
0000
2000
0000
,
3013
0000
0000
0000
;
