#TITLE:Complecks Baby;
#SUBTITLE:;
#ARTIST:DJ Sharpnel;
#TITLETRANSLIT:;
#SUBTITLETRANSLIT:;
#ARTISTTRANSLIT:;
#CRChallenge:;
#BANNER:baby-banner.avi;
#BACKGROUND:baby-bg.jpg;
#LYRICSPATH:;
#CDTITLE:!cdtitle.png;
#MUSIC:baby.ogg;
#OFFSET:0.000;
#SAMPLESTART:26.905;
#SAMPLELENGTH:12.000;
#SELECTABLE:YES;
#BPMS:0.000=191.200;
#STOPS:;
#BGCHANGES:;
#NOTES:
     dance-single:
     Renard:
     Medium:
     9:
     0.679,0.639,0.508,0.080,0.000:
0000
0000
0000
0000
,
0000
0000
0000
0000
,
0000
0000
0000
0000
,
0000
0000
0000
0000
,
0000
0000
0000
0000
,
1000
0000
0001
0001
0010
0000
0100
0000
,
1000
0000
0010
0010
0100
0000
0001
0000
,
0010
0000
0100
0100
1000
0000
0001
0000
,
1000
0100
0010
0001
0010
0100
1000
0010
,
2002
0000
0000
0000
0000
0000
0010
3003
,
1000
0100
M010
M010
0001
0100
001M
001M
,
1000
0100
M010
M010
0001
0100
001M
001M
,
1000
0100
M010
M010
0001
0100
001M
001M
,
1000
0100
M010
M010
0001
0100
001M
001M
,
1000
0010
M100
M100
0001
0010
010M
010M
,
1000
0010
M100
M100
0001
0010
010M
010M
,
1000
0010
M100
M100
0001
0010
010M
010M
,
2000
3001
0100
0010
,
1000
0000
M11M
0000
0100
0001
0010
0000
,
0100
0000
MM11
0000
0010
0100
1000
0000
,
0010
0000
M11M
0000
0100
0001
0010
0000
,
0100
0000
M11M
0000
0100
1000
0010
0000
,
1M1M
0000
1M1M
0000
1000
0100
0010
0001
,
1000
M1M1
MM11
MM11
,
M11M
0000
M11M
0000
0100
1000
0010
0100
,
0001
0000
1MM1
0000
0010
1000
0001
0000
,
M1M1
0000
M11M
0000
0010
0100
0001
0010
,
0100
0000
M11M
0000
11MM
0000
1000
0100
,
0010
0000
0010
0000
0100
1000
0010
0000
,
0100
0001
11MM
MM11
,
0001
0010
0100
0000
0100
0000
1000
0010
,
0100
0001
1000
0000
11MM
0000
11MM
0000
,
M11M
0000
M11M
0000
0010
0001
1000
0010
,
0100
M1M1
M11M
11MM
,
M11M
0000
M11M
0000
0010
1000
0100
0010
,
0001
MM11
M11M
M11M
,
11MM
0000
11MM
0000
1000
0010
0100
0001
,
0010
0100
0010
0000
M11M
0000
1M1M
0000
,
M11M
0000
MM11
0000
0001
0010
0100
0000
,
11MM
0000
1MM1
0000
1000
0001
0100
0000
,
M11M
0000
M11M
0000
0010
1000
0001
0100
,
0010
1000
0001
1000
0100
0010
0001
0010
,
0200
0000
20MM
3311
,
1M00
00M1
1M00
00M1
M100
001M
M100
001M
,
1M00
001M
1M00
001M
M100
00M1
M100
00M1
,
10M0
010M
10M0
010M
M010
0M01
M010
0M01
,
10M0
010M
10M0
010M
M010
0M01
M010
0M01
,
M100
001M
M100
001M
1M00
00M1
1M00
00M1
,
M010
010M
M010
010M
10M0
0M01
10M0
0M01
,
100M
0M10
100M
0M10
M100
00M1
M100
00M1
,
1M00
1M00
00M1
00M1
1M00
1M00
00M1
00M1
,
M100
001M
M100
001M
1M00
00M1
1M00
00M1
,
M010
010M
M010
010M
10M0
0M01
10M0
0M01
,
M100
001M
M100
001M
1M00
00M1
1M00
00M1
,
M010
010M
M010
010M
10M0
0M01
10M0
0M01
,
100M
0M10
100M
0M10
M100
00M1
M100
00M1
,
M010
0M01
M010
0M01
10M0
010M
10M0
010M
,
1M00
00M1
1M00
00M1
M100
001M
M100
001M
,
1000
0010
0100
0001
1000
0000
0100
0000
,
0010
0000
0010
0001
1000
0010
0100
0001
,
0000
MMMM
0100
0010
,
1000
0000
1000
0100
0010
0001
1000
0001
,
0000
M00M
0100
0010
0100
0010
0000
0000
,
1000
0000
1000
0010
0100
0001
1000
0100
,
0000
0000
MMMM
0000
0000
0011
0000
0000
,
0010
0000
0010
0001
0010
0100
1000
0001
,
0000
M00M
0100
0000
0101
0000
1010
0000
,
1001
0000
1001
0000
0001
0100
0010
0000
,
1000
0000
0100
0000
0010
0100
0010
0000
,
0100
0000
1000
0000
0001
0100
0010
0000
,
1000
0110
0001
0110
,
1000
0000
0010
0000
0100
0001
1000
0000
,
0100
0000
1000
0000
0001
0010
0001
0000
,
1000
0000
0101
0000
0010
1000
0100
0010
,
1001
0000
0002
0020
,
2000
0000
3033
0000
;
#NOTES:
     dance-single:
     Renard:
     Hard:
     9:
     0.723,0.639,0.349,0.090,0.000:
0000
0000
0000
0000
,
0000
0000
0000
0000
,
0000
0000
0000
0000
,
0000
0000
0000
0000
,
0000
0000
0000
0000
,
1000
0100
1000
0100
0010
0100
0010
0100
,
0010
0001
0010
0001
0100
0001
0100
0001
,
0100
0010
0100
0010
0100
0010
1000
0100
,
0010
0010
0001
0001
0010
0100
1000
0001
,
0200
0000
0000
0002
0000
0000
1313
0000
,
0001
0100
0010
0100
1000
0100
0010
0100
,
0001
0010
0100
0010
1000
0010
0100
0010
,
0001
0100
0010
0100
1000
0100
0010
0100
,
0001
0010
0100
0010
1000
0010
0100
0010
,
0001
1000
0100
1000
0010
1000
0001
1000
,
0001
0100
0010
0100
1000
0100
0010
0100
,
0001
0010
0100
0010
1000
0010
0100
0010
,
0002
0200
0010
1303
,
0001
0100
0010
0000
1000
0100
0010
0000
,
0100
1000
0010
0100
0001
0000
1001
0000
,
1000
0100
0010
0000
0001
0010
0100
0000
,
1000
0010
0100
0001
0010
0000
0110
0000
,
0100
1000
0001
0000
0100
0010
1000
0000
,
0100
0010
0001
1000
0010
0000
0110
0000
,
0100
0001
0010
0000
0100
1000
0010
0000
,
0100
0001
1000
0100
0010
0001
0010
0100
,
1000
0100
0010
0000
0010
0100
1000
0001
,
0010
0100
1000
0100
0010
0001
0010
0100
,
1000
0100
0010
0000
0010
0100
1000
0100
,
0010
0001
0010
0100
1000
0100
0010
0000
,
0010
0001
0100
0000
0100
0010
0100
0001
,
0100
0010
1000
0010
0100
0001
0100
0000
,
0001
0100
0010
0000
0010
0100
0001
0010
,
0100
1000
0100
0010
0001
1000
0010
0000
,
1001
0000
1001
0000
1000
0100
0010
0001
,
0010
0100
1000
0001
0100
0010
1000
0000
,
1001
0000
1001
0000
1000
0100
0010
0001
,
0100
0010
1000
0100
0010
0001
1000
0000
,
1001
0000
1001
0000
0001
0100
0010
1000
,
0100
0010
0001
0100
0010
1000
0001
0000
,
1001
0000
1001
0000
1000
0100
0010
0001
,
0100
0010
1000
0100
0010
0001
0100
0010
,
2000
0000
0200
3311
,
1000
0100
1000
0100
0001
0100
0001
0100
,
0010
0100
0010
0100
1000
0100
1000
0100
,
1000
0010
1000
0010
0001
0010
0001
0010
,
0100
0010
0100
0010
1000
0010
1000
0010
,
1000
0001
1000
0001
0100
0001
0100
0001
,
0010
0001
0010
0001
1000
0001
1000
0001
,
0100
0001
0100
0001
0100
0010
0100
0010
,
0100
1000
0100
0010
0100
0001
0100
0001
,
0010
0100
0010
1000
0010
0100
0010
0001
,
0100
1000
0100
0010
0100
0001
0100
0010
,
0100
0010
1000
0001
1000
0100
1000
0010
,
1000
0001
0010
0100
0010
1000
0010
0100
,
0010
0001
0100
0010
0100
0001
0100
1000
,
0100
0010
1000
0001
1000
0100
1000
0010
,
1000
0001
0010
0100
0010
1000
0010
0100
,
0010
0010
0001
0001
1000
0000
0101
0000
,
1001
0000
0010
0100
0001
0010
0100
0110
,
0000
0000
0000
0000
,
1100
0000
0010
0001
0100
0010
1000
1010
,
0000
0000
1000
0010
1000
0010
0000
0000
,
0110
0000
0100
0001
0010
0100
1000
1001
,
0000
0000
0000
0000
0000
0101
0000
0000
,
1001
0000
1000
0100
0010
0001
1000
1010
,
0000
0000
0100
0001
0010
0000
0110
0000
,
0100
1000
0001
0000
0011
0000
0110
0000
,
0100
1000
0010
0000
0110
0000
0101
0000
,
0001
0100
0010
0000
1001
0000
1100
0000
,
1000
0100
0010
0000
0001
0010
0100
0000
,
1000
0010
0100
0000
0101
0000
0110
0000
,
0010
1000
0100
0000
1100
0000
0011
0000
,
0001
0010
0100
1000
0001
0100
0010
1000
,
2100
0000
0010
0002
,
0020
0000
3033
0000
;
#NOTES:
     dance-single:
     Renard:
     Easy:
     6:
     0.427,0.450,0.149,0.040,0.000:
0000
0000
0000
0000
,
0000
0000
0000
0000
,
0000
0000
0000
0000
,
0000
0000
0000
0000
,
0000
0000
0000
0000
,
1000
0000
0001
0000
0100
0010
0100
0000
,
0001
0000
1000
0000
0010
0100
0010
0000
,
1000
0000
0001
0000
0100
0010
0100
0000
,
0010
1000
0001
0100
,
0002
0000
0000
0000
0000
0000
0000
0003
,
1000
1000
0100
0100
,
0010
0001
0010
0001
,
0001
0001
0100
0100
,
0010
1000
0010
1000
,
1000
1000
0100
0100
,
0010
0001
0010
0001
,
0001
0010
0100
1000
,
0001
0100
0010
0010
,
1000
0000
0100
0000
0000
0010
0001
0000
,
1000
0000
0001
0000
0000
0100
0010
0000
,
1000
0000
0010
0000
0000
0100
0001
0000
,
1000
0000
0100
0000
0000
0010
0001
0000
,
1000
0000
0010
0000
0000
0100
0001
0000
,
1000
0100
0110
0110
,
1001
0000
1001
0000
0000
0001
0100
0000
,
0001
1000
0100
0100
,
1100
1100
0000
1000
,
0100
0000
0010
0000
0001
1000
0001
0000
,
1001
1001
0000
0000
,
0001
0000
0100
0000
0010
1000
0010
0000
,
1001
1001
0000
0000
,
1000
0000
0100
0000
1000
0001
1000
0000
,
0101
0101
0000
0001
,
1000
0100
0010
0001
,
1000
0000
0001
0000
1000
0001
1000
0000
,
0001
0100
0010
1000
,
0001
0000
1000
0000
0001
1000
0001
0000
,
1000
0100
0010
0001
,
1000
0001
1000
0000
0001
0000
1000
0000
,
0001
0100
0010
1000
,
0001
1000
0001
0000
1000
0000
0001
0000
,
0100
0010
1000
0100
,
1001
0000
0000
0110
,
0001
0001
0100
0100
,
0010
1000
0010
1000
,
0100
0100
1000
1000
,
0001
0010
0001
0010
,
0001
0001
0100
0100
,
0010
1000
0010
1000
,
0100
0100
1000
1000
,
0001
0001
0001
0001
,
0010
0100
1000
0001
,
0100
0000
0010
0000
1000
0010
1000
0000
,
1000
0010
0100
0001
,
0010
0000
0001
0000
1000
0001
1000
0000
,
0001
0001
0100
0100
,
0010
0000
1000
0000
0001
1000
0001
0000
,
1000
0100
0010
0001
,
1001
0000
0100
0010
,
1000
1000
0000
0100
,
0000
0010
0001
1000
,
0001
0100
0010
1000
,
0001
1000
0100
0010
,
0001
1000
0001
0100
,
0010
1000
0001
0100
,
0010
1000
0100
0010
,
0001
1000
0001
0000
0100
0000
0200
0000
,
0010
0000
0010
0300
0000
0000
0010
0000
,
0100
0001
0010
0100
,
1000
0001
0100
0010
,
1000
0010
1000
0000
0001
0000
0100
0000
,
0001
0000
1000
0000
0100
0000
0010
0001
,
0010
0100
1000
0001
,
0100
0010
1000
0001
,
0100
0000
2000
0002
,
0010
3003
0000
0000
;
#NOTES:
     dance-single:
     Renard:
     Beginner:
     3:
     0.286,0.338,0.010,0.020,0.000:
0000
0000
0000
0000
,
0000
0000
0000
0000
,
0000
0000
0000
0000
,
0000
0000
0000
0000
,
0000
0000
0000
0000
,
1000
0000
1000
0000
,
0001
0001
0001
0000
,
0100
0000
0100
0000
,
0010
0000
0010
1000
,
0001
0000
1000
1000
,
0001
0000
0100
0000
,
0001
1000
0001
1000
,
0001
0000
1000
0000
,
0100
1000
0001
1000
,
0010
0000
1000
0000
,
0001
0100
0001
1000
,
0001
0000
0010
0000
,
0100
1000
0100
1000
,
0010
0010
0000
0100
,
0000
0001
1000
0100
,
0010
0010
0000
0001
,
0000
1000
0001
0001
,
0100
0100
0000
0010
,
0000
1000
0001
0100
,
0010
0010
0000
1000
,
0000
0100
0010
0001
,
1000
1000
0001
0000
,
0100
0000
0010
0000
,
1000
1000
0001
0000
,
0010
0000
0100
0000
,
1000
1000
0001
0000
,
0100
0000
0010
0000
,
1000
1000
0100
0000
,
0010
0000
0001
1000
,
0001
0001
0100
0000
,
0010
0000
1000
0000
,
0001
1000
0100
0000
,
1000
0000
0100
0000
,
0010
0010
0001
0000
,
1000
0000
0001
0000
,
0100
0010
0100
0010
,
1000
0001
1000
0001
,
0100
0000
0010
0010
,
0100
0000
0100
0000
,
0001
1000
0001
1000
,
0010
0000
0010
0000
,
1000
0001
1000
0001
,
0100
0000
0100
0000
,
0001
1000
0001
1000
,
0010
0000
0010
0000
,
1000
0001
1000
0001
,
0100
0000
0100
0000
,
0001
1000
0001
1000
,
0010
0000
0010
0000
,
1000
0001
1000
0001
,
0100
0000
0100
0000
,
0001
1000
0001
1000
,
0010
0000
0010
0000
,
1001
0000
0100
0000
,
0010
0010
0000
1000
,
0000
0100
0000
0010
,
0001
0010
0000
0100
,
0000
1000
0010
0100
,
0001
0100
0000
0010
,
0000
1000
0000
0100
,
0000
0010
0000
0001
,
1000
0010
0100
0001
,
1000
1000
0000
0100
,
0000
0010
0000
0001
,
1000
0010
0000
0100
,
0000
0001
0000
1000
,
0001
0100
0000
0001
,
0000
1000
0000
0100
,
0010
0001
1000
0001
,
2000
0000
0002
0000
,
0010
0000
0000
3003
0000
0000
0000
0000
;
