#TITLE:Cold Pizza;
#SUBTITLE:;
#ARTIST:m1dy;
#TITLETRANSLIT:;
#SUBTITLETRANSLIT:;
#ARTISTTRANSLIT:;
#CRChallenge:;
#BANNER:pizzA.png;
#BACKGROUND:pizza-bg.png;
#LYRICSPATH:;
#CDTITLE:!cdtitle.png;
#MUSIC:pizza.ogg;
#OFFSET:0.000;
#SAMPLESTART:15.760;
#SAMPLELENGTH:12.000;
#SELECTABLE:YES;
#BPMS:0.000=360.000;
#STOPS:360.000=3.667
,482.000=0.333
;
#BGCHANGES:;
#NOTES:
     dance-single:
     Renard:
     Hard:
     13:
     1.000,1.000,0.037,0.037,0.000:
0000
0000
0000
0000
,
0000
0000
0000
0000
,
0000
0000
0000
0000
,
0000
0000
0000
0000
,
1000
0000
0001
0010
0100
1000
0001
0000
,
1000
0100
0010
0001
1000
0000
0001
0000
,
1000
0000
0001
0010
0100
1000
0001
0000
,
1000
0100
0010
0001
1000
0000
0001
1000
,
0001
0000
1000
0100
0010
0001
1000
0000
,
0001
0010
0100
1000
0001
0000
1000
0001
,
1000
0000
0001
0010
0100
1000
0001
0000
,
1000
0100
0010
0001
1000
0000
0001
1000
,
0001
0000
1000
0100
0010
0001
1000
0000
,
0001
0010
0100
1000
0001
0000
1000
0000
,
0001
0000
1000
0100
0010
0001
1000
0000
,
0001
0010
0100
1000
0001
0000
1000
0001
,
1000
0000
0001
0010
0100
1000
0001
0000
,
1000
0100
0010
0001
1000
0000
0001
1000
,
0001
0000
1000
0100
0010
0001
1000
0000
,
0001
0010
0100
1000
0001
0000
1000
0001
,
1000
0000
0100
0010
0001
1000
0001
0000
,
0010
0100
1000
0001
1000
0100
0010
0001
,
1000
0000
0000
0000
,
0000
0000
0000
0000
,
1000
0000
0001
0010
0100
1000
0001
0000
,
1000
0100
0010
0001
1000
0000
0001
0000
,
1000
0000
0001
0100
0010
1000
0001
0000
,
1000
0010
0100
0001
1000
0000
0001
0000
,
1000
0000
0001
0010
0100
1000
0001
0000
,
1000
0001
0010
0100
1000
0000
0001
0000
,
1000
0000
0001
0100
0010
1000
0001
0000
,
1000
0001
0100
0010
1000
0000
0001
0000
,
1000
0000
0001
0010
0100
1000
0001
0000
,
1000
0100
0010
0001
1000
0000
0001
0000
,
1000
0000
0001
0100
0010
1000
0001
0000
,
1000
0010
0100
0001
1000
0000
0001
0000
,
1000
0000
0001
0010
0100
1000
0001
0000
,
1000
0001
0010
0100
1000
0000
0001
0000
,
2000
0000
0100
0000
,
3100
0010
0001
0010
0100
0000
1000
0000
,
0001
0000
1000
0100
0010
0001
1000
0000
,
0001
0010
0100
1000
0001
0000
1000
0000
,
0001
0000
1000
0010
0100
0001
1000
0000
,
0001
0100
0010
1000
0001
0000
1000
0000
,
0001
0000
1000
0100
0010
0001
1000
0000
,
0001
1000
0100
0010
0001
0000
1000
0000
,
0001
0000
1000
0010
0100
0001
1000
0000
,
0001
1000
0010
0100
0001
0000
1000
0000
,
0001
0000
1000
0100
0010
0001
1000
0000
,
0001
0010
0100
1000
0001
0000
1000
0000
,
0001
0000
1000
0010
0100
0001
1000
0000
,
0001
0100
0010
1000
0001
0000
1000
0000
,
0001
0000
1000
0100
0010
0001
1000
0000
,
0001
1000
0100
0010
0001
0000
1000
0000
,
0001
0000
0000
0000
0001
0010
0100
0000
,
0000
0000
1000
0100
0010
0000
0000
0000
,
0001
0010
0100
1000
0001
0010
0100
1000
,
0001
0010
0100
1000
0001
0010
0100
1000
,
0001
0010
0000
0001
0010
0000
0100
1000
,
0000
0100
1000
0000
0001
0000
1000
0000
,
0010
1000
0000
0010
1000
0000
0001
0100
,
0000
0001
0100
0000
0010
0000
1000
0000
,
0100
0010
0000
0100
0010
0000
0001
0010
,
0000
0001
0010
0000
0100
0000
1000
0000
,
0001
0100
0000
0001
0100
0000
0010
1000
,
0000
0010
1000
0000
0001
0000
1000
0000
,
0001
0010
0000
0001
0010
0000
0100
1000
,
0000
0100
1000
0000
0001
0000
1000
0000
,
0010
1000
0000
0010
1000
0000
0001
0100
,
0000
0001
0100
0000
0010
0000
1000
0000
,
0100
0010
0000
0100
0010
0000
0001
0010
,
0000
0001
0010
0000
0100
0000
1000
0000
,
0001
0100
0000
0001
0100
0000
0010
1000
,
0000
0010
1000
0000
0001
0000
1000
0000
,
0001
1000
0000
1000
0001
0000
1000
0001
,
0000
0001
1000
0000
0010
0000
0100
0000
,
0001
0010
0000
0010
0001
0000
0010
0001
,
0000
0001
0010
0000
0100
0000
1000
0000
,
0010
1000
0000
1000
0010
0000
1000
0010
,
0000
0010
1000
0000
0010
0000
0100
0000
,
0001
0010
0000
0100
1000
0000
0100
0010
,
0000
0001
1000
0000
0001
0000
1000
0000
,
0001
1000
0000
1000
0001
0000
1000
0001
,
0000
0001
1000
0000
0010
0000
0100
0000
,
0001
0010
0000
0010
0001
0000
0010
0001
,
0000
0001
0010
0000
0100
0000
1000
0000
,
0010
1000
0000
1000
0010
0000
1000
0010
,
0000
0010
1000
0000
0010
0000
0100
0000
,
0001
0010
0000
0100
1000
0000
0100
0010
,
0000
0001
1000
0000
0001
0000
2000
0000
,
0000
3000
1001
0000
,
0001
0000
1000
0000
,
0001
0010
0100
1000
0001
0000
0000
0000
,
1000
0100
0010
0001
1000
0000
0000
0000
,
0001
0010
0100
1000
0001
0000
0000
0000
,
1000
0000
0001
0000
,
1000
0100
0010
0001
1000
0000
0000
0000
,
0001
0010
0100
1000
0001
0000
0000
0000
,
1000
0100
0010
0000
0110
0000
0000
0000
,
0100
0000
0010
0000
,
0100
1000
0001
0010
0100
0000
0000
0000
,
0010
0001
1000
0100
0010
0000
0000
0000
,
0100
1000
0001
0010
0100
0000
0000
0000
,
0010
0000
0100
0000
,
0010
0001
1000
0100
0010
0000
0000
0000
,
0100
1000
0001
0010
0100
0000
0000
0000
,
0010
0001
1000
0000
0001
0010
0001
0010
,
0001
0010
0001
0010
0001
0010
0001
0010
,
0001
0010
0001
0010
0001
0010
0001
0010
,
0001
0010
0001
0010
0001
0010
0001
0010
,
0001
0010
0001
0010
0001
0100
0001
0100
,
0001
0100
0001
0100
0001
0100
0001
0100
,
0001
0100
0001
0100
0001
0100
0001
0100
,
0001
0100
0001
0100
0001
0100
0001
0100
,
0001
0100
0001
0100
0001
1000
0001
1000
,
0001
1000
0001
1000
0001
1000
0001
1000
,
0001
1000
0001
1000
0001
1000
0001
1000
,
0001
1000
0001
1000
0001
1000
0001
1000
,
0001
1000
0001
1000
0010
1000
0010
1000
,
0010
1000
0010
1000
0010
1000
0010
1000
,
0010
1000
0010
1000
0010
0000
0000
0000
,
1001
0000
0000
0000
,
1000
0000
0100
0000
0000
0010
0000
0000
,
0001
0000
0000
0000
1000
0000
0010
0100
,
0010
0000
0100
0000
0000
0010
0000
0000
,
1000
0000
0000
0100
0000
0000
0010
0001
,
0010
0000
0100
0000
0000
1000
0000
0000
,
0001
0000
0000
0100
0000
0000
0010
1000
,
0010
0000
1000
0000
0000
0010
0000
0000
,
0100
0000
0000
0001
0000
0000
0010
0100
,
0010
0000
0100
0000
0000
1000
0000
0000
,
0001
0000
0000
0100
0000
0000
0010
1000
,
0010
0000
0100
0000
0000
0010
0000
0000
,
0100
0000
0000
0001
0000
0000
0010
0100
,
0010
0000
0001
0000
0000
0010
0000
0000
,
0100
0000
0000
1000
0000
0000
0001
0100
,
0001
0000
0100
0000
0000
0010
0000
0000
,
1000
0000
0000
0100
0000
0000
0010
0000
,
0001
0000
0010
0001
0010
0001
0010
0000
,
0100
1000
0100
1000
0100
1000
0100
0010
,
0001
0000
0010
0001
0010
0001
0010
0000
,
0100
1000
0100
1000
0100
1000
0100
0010
,
0001
0000
0010
0001
0010
0001
0010
0000
,
0100
1000
0100
1000
0100
1000
0100
0010
,
0001
0000
0010
0001
0010
0001
0010
0000
,
0100
1000
0100
1000
0100
1000
0100
0000
,
1000
0000
0100
1000
0100
1000
0100
0000
,
0010
0001
0010
0001
0010
0001
0010
0100
,
1000
0000
0100
1000
0100
1000
0100
0000
,
0010
0001
0010
0001
0010
0001
0010
0100
,
1000
0000
0100
1000
0100
1000
0100
0000
,
0010
0001
0010
0001
0010
0001
0010
0100
,
2000
0000
0000
0000
,
0200
0000
0000
0000
,
3311
0000
0000
0000
;
#NOTES:
     dance-single:
     Renard:
     Medium:
     11:
     0.870,1.000,0.027,0.037,0.000:
0000
0000
0000
0000
,
0000
0000
0000
0000
,
0000
0000
0000
0000
,
0000
0000
0000
0000
,
1000
0000
0100
1000
0100
0000
1000
0000
,
0100
1000
0100
0000
1000
0000
0100
0000
,
0010
0000
0001
0010
0001
0000
0010
0000
,
0001
0010
0001
0000
0010
0000
0100
0000
,
1000
0000
0001
1000
0001
0000
1000
0000
,
0001
1000
0001
0000
1000
0000
0001
0000
,
0100
0000
0010
0100
0010
0000
0100
0000
,
0010
0100
0010
0000
0100
0000
0010
0000
,
1000
0000
0010
1000
0010
0000
1000
0000
,
0010
1000
0010
0000
1000
0000
0010
0000
,
0100
0000
0001
0100
0001
0000
0100
0000
,
0001
0100
0001
0000
0100
0000
0001
0000
,
0010
0000
0001
0010
0001
0000
0010
0000
,
0001
0010
0001
0000
0010
0000
0001
0000
,
1000
0000
0100
1000
0100
0000
1000
0000
,
0100
1000
0100
0000
1000
0000
0100
0000
,
1000
0000
0001
1000
0001
0000
1000
0000
,
0001
1000
0001
0000
1000
0001
1000
0001
,
1000
0000
0000
0000
,
0000
0000
0000
0000
,
0001
0000
0100
0001
0100
0000
0010
0000
,
1000
0010
1000
0000
0100
0000
0010
0000
,
0001
0000
0010
0001
0010
0000
0100
0000
,
1000
0100
1000
0000
0001
0000
0100
0000
,
0010
0000
1000
0010
1000
0000
0001
0000
,
0100
0001
0100
0000
0010
0000
1000
0000
,
0100
0000
0010
0001
0010
0000
0100
0000
,
1000
0100
1000
0000
0001
0000
0100
0000
,
0010
0000
1000
0010
1000
0000
0100
0000
,
1000
0100
1000
0000
0001
0000
0100
0000
,
0010
0000
1000
0100
1000
0000
0001
0000
,
0010
0001
0010
0000
0001
0000
1000
0000
,
0100
0000
0010
0001
0010
0000
0100
0000
,
1000
0100
1000
0000
0001
0000
0100
0000
,
0010
0000
1000
0000
,
0100
0010
0001
0010
0100
0000
1000
0000
,
0100
0000
0000
0100
0010
0000
0001
0000
,
0000
0001
0010
0000
0100
0000
1000
0000
,
0001
0000
0000
0001
0100
0000
0010
0000
,
0000
0010
1000
0000
0100
0000
0010
0000
,
0001
0000
0000
0001
0010
0000
0100
0000
,
0000
0100
1000
0000
0010
0000
0100
0000
,
0010
0000
0000
0010
1000
0000
0100
0000
,
0000
0100
0010
0000
0001
0000
1000
0000
,
0010
0000
0000
0010
0100
0000
0001
0000
,
0000
0001
1000
0000
0100
0000
0010
0000
,
0001
0000
0000
0001
0010
0000
0100
0000
,
0000
0100
1000
0000
0010
0000
0100
0000
,
0010
0000
0000
0010
1000
0000
0100
0000
,
0000
0010
0001
0000
0010
0000
0100
0000
,
1000
0000
0100
1000
0100
0000
1000
0000
,
0100
1000
0100
0000
2000
0000
0000
0000
,
3001
1000
0001
1000
0001
1000
0001
1000
,
0001
1000
0001
1000
0001
1000
0001
1000
,
0001
0010
0000
0001
0010
0000
0100
1000
,
0000
0100
1000
0000
0001
0000
1000
0000
,
0010
1000
0000
0010
1000
0000
0001
0100
,
0000
0001
0100
0000
0010
0000
1000
0000
,
0100
0010
0000
0100
0010
0000
0001
0010
,
0000
0001
0010
0000
0100
0000
1000
0000
,
0001
0100
0000
0001
0100
0000
0010
1000
,
0000
0010
1000
0000
0001
0000
1000
0000
,
0001
0010
0000
0001
0010
0000
0100
1000
,
0000
0100
1000
0000
0001
0000
1000
0000
,
0010
1000
0000
0010
1000
0000
0001
0100
,
0000
0001
0100
0000
0010
0000
1000
0000
,
0100
0010
0000
0100
0010
0000
0001
0010
,
0000
0001
0010
0000
0100
0000
1000
0000
,
0001
0100
0000
0001
0100
0000
0010
1000
,
0000
0010
1000
0000
0001
0000
1000
0000
,
0001
0000
0000
0010
0000
0000
0100
0000
,
0000
1000
0000
0000
0001
0000
0100
0000
,
0010
0000
0000
1000
0000
0000
0100
0000
,
0000
0010
0000
0000
0001
0000
0010
0000
,
0100
0000
0000
1000
0000
0000
0001
0000
,
0000
0100
0000
0000
0010
0000
1000
0000
,
0100
0000
0000
0010
0000
0000
0001
0000
,
0000
0010
0000
0000
0100
0000
1000
0000
,
0010
0000
0000
0001
0000
0000
0010
0000
,
0000
1000
0000
0000
0100
0000
0001
0000
,
0100
0000
0000
0010
0000
0000
0001
0000
,
0000
0010
0000
0000
1000
0000
0010
0000
,
0100
0000
0000
0001
0000
0000
0100
0000
,
0000
1000
0000
0000
0010
0000
0100
0000
,
0010
1000
0100
0010
,
0001
1000
0001
2000
,
0000
3000
1001
0000
,
0001
0000
1000
0000
,
0001
0010
0100
1000
0001
0000
0000
0000
,
1000
0100
0010
0001
1000
0000
0000
0000
,
0001
0010
0100
1000
0001
0000
0000
0000
,
1000
0000
0001
0000
,
1000
0100
0010
0001
1000
0000
0000
0000
,
0001
0010
0100
1000
0001
0000
0000
0000
,
1000
0100
0010
0001
0010
0000
0000
0000
,
0100
0000
0010
0000
,
0100
1000
0001
0010
0100
0000
0000
0000
,
0010
0001
1000
0100
0010
0000
0000
0000
,
0100
1000
0001
0010
0100
0000
0000
0000
,
0010
0000
0100
0000
,
0010
0001
1000
0100
0010
0000
0000
0000
,
0100
1000
0001
0010
0100
0000
0000
0000
,
0010
0001
1000
0000
0001
0000
1000
0000
,
0001
1000
0001
1000
,
0001
1000
0001
1000
,
0001
1000
0001
0010
,
0100
1000
0001
1000
,
0001
1000
0001
1000
,
0001
1000
0001
1000
,
0001
1000
0001
0010
,
0100
0000
1000
0000
0001
1000
0001
1000
,
0001
1000
0001
1000
0001
1000
0001
1000
,
0001
1000
0001
1000
0001
1000
0001
1000
,
0001
1000
0001
1000
0001
1000
0001
1000
,
0001
1000
0001
1000
0001
0010
0100
1000
,
0001
0010
0100
1000
0100
0010
0001
1000
,
0100
0010
0001
1000
0001
0000
0000
0000
,
1001
0000
0000
0000
,
1000
0000
0100
0000
0000
0010
0000
0000
,
0001
0000
0000
0000
1000
0000
0010
0100
,
0010
0000
0100
0000
0000
0010
0000
0000
,
1000
0000
0000
0100
0000
0000
0010
0001
,
0010
0000
0100
0000
0000
1000
0000
0000
,
0001
0000
0000
0100
0000
0000
0010
1000
,
0010
0000
1000
0000
0000
0010
0000
0000
,
0100
0000
0000
0001
0000
0000
0010
0100
,
0010
0000
0100
0000
0000
1000
0000
0000
,
0001
0000
0000
0100
0000
0000
0010
1000
,
0010
0000
0100
0000
0000
0010
0000
0000
,
0100
0000
0000
0001
0000
0000
0010
0100
,
0010
0000
0001
0000
0000
0010
0000
0000
,
0100
0000
0000
1000
0000
0000
0001
0100
,
0001
0000
0100
0000
0000
0010
0000
0000
,
1000
0000
0000
0100
0000
0000
0010
0000
,
0001
0000
0010
0001
0010
0000
0100
0000
,
1000
0100
1000
0000
0001
0000
1000
0000
,
0001
0000
0010
0001
0010
0000
0100
0000
,
1000
0100
1000
0000
0001
0000
1000
0000
,
0010
0000
1000
0010
1000
0000
0001
0000
,
0100
0001
0100
0000
0001
0000
1000
0000
,
0010
0000
1000
0010
1000
0000
0001
0000
,
0100
0001
0100
0000
0001
0000
1000
0000
,
0001
0000
0010
0001
0010
0000
0100
0000
,
1000
0100
1000
0000
0010
0000
1000
0000
,
0001
0000
0100
0001
0100
0000
0010
0000
,
1000
0010
1000
0000
0001
0000
0100
0000
,
0010
0000
1000
0001
1000
0000
0100
0000
,
1000
0001
1000
0000
0100
0000
0010
0000
,
0002
0000
0000
0000
,
0200
0000
0000
0000
,
1313
0000
0000
0000
;
#NOTES:
     dance-single:
     Renard:
     Easy:
     8:
     0.501,0.634,0.009,0.018,0.000:
0000
0000
0000
0000
,
0000
0000
0000
0000
,
0000
0000
0000
0000
,
0000
0000
0000
0000
,
1000
0000
0000
0001
,
0000
0000
0100
0010
,
1000
0000
0000
0010
,
0000
0000
0100
0001
,
1000
0000
0000
0100
,
0000
0000
1000
0100
,
0010
0000
0000
0001
,
0000
0000
1000
0001
,
0010
0000
0000
0100
,
0000
0000
1000
0010
,
0100
0000
0000
0010
,
0000
0000
1000
0010
,
0100
0000
0000
0001
,
0000
0000
1000
0100
,
0010
0000
0000
0100
,
0000
0000
1000
0001
,
0100
0000
0000
0010
,
0000
0000
1000
0010
,
0200
0000
0000
0000
,
0000
0000
0000
0000
,
0310
0000
0010
1000
,
0000
1000
0010
0100
,
0001
0000
0001
1000
,
0000
1000
0100
0010
,
0001
0000
0001
1000
,
0000
1000
0010
1000
,
0001
0000
0001
0100
,
0000
0100
0010
0100
,
0001
0000
0001
1000
,
0000
1000
0100
0010
,
0001
0000
0001
0010
,
0000
0010
0001
1000
,
0100
0000
0100
1000
,
0000
1000
0010
0100
,
0001
0000
0100
0000
,
0010
0000
0010
0000
,
1000
0000
1000
0100
,
0000
0100
1000
0001
,
0010
0000
0010
0001
,
0000
0001
1000
0010
,
0100
0000
0100
0010
,
0000
0010
1000
0010
,
0100
0000
0100
0001
,
0000
0001
1000
0100
,
0010
0000
0010
0100
,
0000
0100
1000
0001
,
0100
0000
0100
0010
,
0000
0010
1000
0010
,
0100
0000
0100
0001
,
0000
0001
1000
0100
,
0010
0000
0010
0000
,
0010
0000
0010
0000
,
0001
1000
0001
1000
,
0001
1000
0001
1000
,
0001
0000
1000
0000
,
0001
0000
1000
0010
,
0100
0000
0001
0000
,
0100
0000
0001
1000
,
0100
0000
0010
0000
,
0001
0000
1000
0010
,
0100
0000
0010
0000
,
1000
0010
1000
0000
,
0001
0000
1000
0000
,
1000
0000
0001
0100
,
0010
0000
1000
0000
,
1000
0000
0010
0100
,
0001
0000
0010
0000
,
0010
0000
0001
0010
,
0100
0000
0100
0000
,
1000
0000
1000
0000
,
0001
0100
0001
0100
,
0001
0100
0010
0000
,
1000
0010
1000
0010
,
1000
0010
0100
0000
,
0001
0100
0001
0100
,
0001
0100
0010
0000
,
1000
0010
0100
0000
,
0010
1000
0010
0000
,
1000
0100
1000
0100
,
1000
0100
0010
0000
,
0001
0100
0001
0100
,
0001
0100
0010
0000
,
1000
0100
1000
0100
,
1000
0100
0010
0000
,
0001
0010
0001
0010
,
0001
0010
0001
0100
,
0001
0000
1000
0000
,
1000
0000
1000
0000
,
0001
0100
0010
0000
,
1000
0010
0100
0000
,
0010
0100
0001
0000
,
0001
0000
0001
0000
,
0100
0010
1000
0000
,
0010
0100
0001
0000
,
0100
0010
1000
0000
,
1000
0000
1000
0000
,
0010
0100
0001
0000
,
0100
0010
1000
0000
,
0010
0100
0001
0000
,
0001
0000
0001
0000
,
0100
0010
1000
0000
,
0010
0100
0001
0000
,
0100
0010
1000
0000
,
1000
0000
1000
0000
,
0100
0010
0001
0000
,
0001
0010
0100
0000
,
0100
0010
0001
0000
,
0001
0000
0001
0000
,
0001
0010
0100
0000
,
0100
1000
0010
0000
,
0010
0100
0001
0000
,
0001
0000
0001
0000
,
1000
0000
0010
0000
,
0010
0000
0100
0000
,
0100
0000
0002
0000
,
0000
0000
0000
0000
,
0000
0000
1003
0000
,
0000
0000
0000
0000
,
0001
0000
0001
0000
,
1000
0000
0100
0010
,
0001
0000
0001
0000
,
0010
0000
0100
1000
,
0001
0000
0001
0000
,
0100
0000
0100
0010
,
1000
0000
1000
0000
,
0010
0000
0100
0001
,
0100
0000
0100
0000
,
0010
0000
0010
1000
,
0100
0000
0100
0000
,
0010
0000
0010
0001
,
0010
0000
0010
0000
,
0100
0000
0100
0000
,
1000
0000
1000
0000
,
0010
0000
0010
0000
,
0100
0000
0000
0010
,
0000
0000
0100
0001
,
1000
0000
0000
0100
,
0000
0000
1000
0100
,
1000
0000
0000
0001
,
0000
0000
0010
0001
,
0010
0000
0000
0001
,
0000
0000
1000
0010
,
1000
0000
0000
0001
,
0000
0000
0100
0001
,
0100
0000
0000
0010
,
0000
0000
1000
0100
,
1000
0000
0000
0001
,
0000
0000
0010
0001
,
1000
0000
0010
0000
,
0100
0000
0001
0000
,
1001
0000
0000
0000
;
#NOTES:
     dance-single:
     Renard:
     Beginner:
     5:
     0.321,0.423,0.027,0.210,0.000:
0000
0000
0000
0000
,
0000
0000
0000
0000
,
0000
0000
0000
0000
,
0000
0000
0000
0000
,
0001
0000
0000
0001
,
0000
0000
1000
0000
,
0010
0000
0000
0010
,
0000
0000
0100
0000
,
0001
0000
0000
0001
,
0000
0000
1000
0000
,
0100
0000
0000
0100
,
0000
0000
0010
0000
,
0001
0000
0000
0001
,
0000
0000
1000
0000
,
0010
0000
0000
0010
,
0000
0000
0100
0000
,
0001
0000
0000
0001
,
0000
0000
1000
0000
,
0100
0000
0000
0100
,
0000
0000
0010
0000
,
0002
0000
0000
0000
,
0000
0000
0000
0000
,
0000
0000
0000
0000
,
0000
0000
0000
0000
,
1003
0000
0000
0010
,
0000
0000
1000
0000
,
0001
0000
0000
0100
,
0000
0000
0001
0000
,
1000
0000
0000
0100
,
0000
0000
1000
0000
,
0001
0000
0000
0010
,
0000
0000
0001
0000
,
1000
0000
0000
0010
,
0000
0000
1000
0000
,
0001
0000
0000
0100
,
0000
0000
0001
0000
,
1000
0000
0000
0100
,
0000
0000
1000
0000
,
0001
0000
0000
0000
,
0100
0000
0000
0000
,
0010
0000
0000
1000
,
0000
0000
0010
0000
,
0100
0000
0000
0001
,
0000
0000
0100
0000
,
0001
0000
0000
1000
,
0000
0000
0100
0000
,
1000
0000
0000
0001
,
0010
0000
0001
0000
,
1000
0000
0000
0010
,
1000
0000
0001
0000
,
0100
0000
0000
0001
,
1000
0000
0100
0000
,
1000
0000
0000
0000
,
0001
0000
0000
0000
,
0100
0000
0000
0000
,
0000
0000
0000
0000
,
0100
0000
0100
0000
,
0100
0000
0100
0000
,
0010
0000
0000
1000
,
0000
0000
0010
0000
,
0100
0000
0000
0001
,
0000
0000
0100
0000
,
0001
0000
0000
1000
,
0000
0000
0001
0000
,
1000
0000
0000
0100
,
0000
0000
1000
0000
,
0001
0000
0000
0010
,
0000
0000
0001
0000
,
1000
0000
0000
0010
,
0000
0000
1000
0000
,
0001
0000
0000
0100
,
0000
0000
0001
0000
,
1000
0000
0100
0000
,
0010
0000
0001
0000
,
1000
0000
1000
0000
,
1000
0000
0100
0000
,
0010
0000
0010
0000
,
0010
0000
0001
0000
,
0100
0000
0100
0000
,
0100
0000
0010
0000
,
1000
0000
1000
0000
,
1000
0000
0100
0000
,
0010
0000
0010
0000
,
0010
0000
0001
0000
,
0100
0000
0100
0000
,
0100
0000
0010
0000
,
1000
0000
1000
0000
,
1000
0000
0001
0000
,
0010
0000
0010
0000
,
0100
0000
1000
0000
,
1001
0000
0002
0000
,
0000
0000
0000
0000
,
1003
0100
2000
0000
,
0000
0000
3002
0000
,
0000
0000
0203
0000
,
0000
0000
0000
0000
,
0310
0100
0002
0000
,
0000
0000
2003
0000
,
0000
0000
3200
0000
,
0000
0000
0000
0000
,
0310
0001
2000
0000
,
0000
0000
3002
0000
,
0000
0000
0203
0000
,
0000
0000
0000
0000
,
0310
1000
0002
0000
,
0000
0000
0203
0000
,
0000
0000
0320
0000
,
0000
0000
0000
0000
,
0000
0000
2030
0000
,
0000
0000
3002
0000
,
0000
0000
0203
0000
,
0000
0000
0000
0000
,
0000
0000
0320
0000
,
0000
0000
2030
0000
,
0000
0000
3002
0000
,
0000
0000
0000
0000
,
0000
0000
0203
0000
,
0000
0000
0320
0000
,
0000
0000
2030
0000
,
0000
0000
0000
0000
,
0000
0000
3001
0000
,
1001
0000
0000
0000
,
0001
0000
0001
0000
,
0001
0000
0001
1000
,
0100
0000
0100
0000
,
0100
0000
0000
0000
,
0010
0000
0010
0000
,
0010
0000
0010
0001
,
1000
0000
1000
0000
,
1000
0000
0000
0000
,
0010
0000
0010
0000
,
0010
0000
0010
0100
,
0001
0000
0001
0000
,
0001
0000
0000
0000
,
1000
0000
1000
0000
,
1000
0000
0100
0010
,
0001
0000
1000
0000
,
0001
0000
0000
0000
,
1000
0000
1000
0000
,
0001
0000
0000
0000
,
0100
0000
0000
0000
,
0100
0000
0000
0000
,
0010
0000
0010
0000
,
1000
0000
0000
0000
,
0001
0000
0000
0000
,
0010
0000
0000
0000
,
0001
0000
0001
0000
,
1000
0000
0000
0000
,
0100
0000
0000
0000
,
1000
0000
0000
0000
,
0001
0000
0001
0000
,
0010
0000
0000
0000
,
0001
0000
0000
0000
,
1000
0000
0000
0000
,
1011
0000
0000
0000
;
