#TITLE:Class Meeting (MGD Edit);
#SUBTITLE:;
#ARTIST:Mr. Tommy;
#TITLETRANSLIT:;
#SUBTITLETRANSLIT:;
#ARTISTTRANSLIT:;
#GENRE:;
#CRChallenge:;
#BANNER:class.png;
#BACKGROUND:class-bg.png;
#LYRICSPATH:;
#CDTITLE:!cdtitle.png;
#MUSIC:class.ogg;
#OFFSET:0.015;
#SAMPLESTART:15.980;
#SAMPLELENGTH:12.000;
#SELECTABLE:YES;
#BPMS:0.000=240.000;
#STOPS:;
#BGCHANGES:;
#KEYSOUNDS:;
#NOTES:
     dance-single:
     Renard:
     Hard:
     9:
     0.782,0.000,0.000,0.020,0.060:
0000
0000
0000
0000
,
0000
0000
0000
0000
,
0000
0000
0000
0000
,
0000
0000
0000
0000
,
0000
0000
0000
0000
,
0000
0000
0000
0000
,
0000
0000
0000
0000
,
0000
0000
0000
0000
,
1000
0001
0000
0001
1000
0001
0000
0001
,
1000
0001
0000
0001
1000
0000
1000
0000
,
0010
0100
0000
0100
0010
0100
0000
0100
,
0010
0100
0000
0100
0010
0000
0010
0000
,
1000
0010
0000
0010
1000
0000
1000
0000
,
0001
0100
0000
0100
0001
0000
0001
0000
,
0010
0001
0000
0001
1000
0100
0000
0100
,
2000
0000
0000
0000
,
3001
0100
0000
0010
1000
0100
0000
0010
,
0001
0010
0000
0100
1000
0000
0001
0000
,
0100
0010
0000
1000
0010
0100
0000
0001
,
0010
0100
0000
1000
0010
0100
0001
0100
,
0010
1000
0000
0001
0100
0010
0000
1000
,
0100
0010
0000
0001
0010
0000
0100
0000
,
1000
0001
0000
0100
0010
1000
0000
0001
,
0010
0100
0000
1000
0100
0010
0001
0010
,
0001
1000
0000
0010
0100
0001
0000
0100
,
0010
1000
0000
0001
0010
0000
0100
0000
,
1000
0001
0000
0100
0010
1000
0000
0001
,
0100
0010
0000
1000
0100
0010
0001
0010
,
0100
1000
0000
0001
0010
0001
0000
1000
,
0010
0100
0000
0010
1000
0000
0001
0000
,
0100
0010
0000
1000
0010
0100
0000
0001
,
0100
0010
0000
1000
0010
0100
0001
0100
,
0010
1000
0000
0010
1000
0001
0000
1000
,
0100
1000
0000
0001
1000
0000
0001
0000
,
1000
0001
0000
0100
0001
0010
0000
0001
,
1000
0001
0000
1000
0100
1000
0010
1000
,
0001
0010
0000
0001
1000
0001
0000
0100
,
0001
0010
0000
0001
1000
0000
0001
0000
,
1000
0100
0000
1000
0010
1000
0000
0001
,
1000
0001
0000
1000
0001
0010
0100
1000
,
0001
0010
0000
0010
1000
0010
0000
0010
,
0100
0010
0000
0010
0001
0000
0001
0000
,
0001
0100
0000
0100
1000
0100
0000
0100
,
1000
0100
0000
0100
0001
0000
0100
0000
,
0010
1000
0000
1000
0100
1000
0000
1000
,
0001
1000
0000
1000
0010
0000
1000
0000
,
0001
0010
0000
0001
1000
0001
0000
0001
,
0100
0001
0000
0001
0010
0001
1000
0001
,
0100
0010
0000
1000
0000
0100
0000
0010
,
0000
0000
0001
0000
0000
0000
1000
0000
0100
0000
1000
0100
1000
0000
0001
0000
,
0100
0010
0000
1000
0000
0100
0000
0010
,
0000
0000
0001
0000
0000
0000
1000
0000
0100
0000
1000
0100
1000
0000
0001
0000
,
0100
0010
0000
1000
0000
0100
0000
0010
,
0000
0000
0001
0000
0000
0000
1000
0000
0100
0000
1000
0100
1000
0000
0001
0000
,
0100
0010
0000
1000
0000
0100
0000
0010
,
0000
0000
0001
0000
0000
0000
1000
0000
0100
0000
1000
0100
1000
0000
0001
0000
,
1000
0100
0000
0010
0001
0010
0100
1000
,
0001
0100
0000
0010
1000
0001
0100
0010
,
1000
0100
0000
0010
0001
0010
0100
1000
,
0001
0100
0000
0010
1000
0100
0010
0000
,
0001
1000
0001
1000
0001
1000
0001
1000
,
0001
1000
0001
1000
0001
1000
0001
1000
,
0001
1000
0001
1000
0001
1000
0001
1000
0001
1000
0001
1000
0001
1000
0001
1000
,
0002
0000
0000
0003
,
0001
1000
0001
1000
0010
1000
0010
1000
,
0100
1000
0100
1000
0100
0000
0010
0000
,
0001
0010
0001
0010
0001
0100
0001
0100
,
0001
1000
0001
0100
0001
0000
0100
0000
,
0010
1000
0010
1000
0100
1000
0100
1000
,
0001
1000
0001
1000
0010
0000
1000
0000
,
0001
0010
0001
0010
0001
1000
0001
1000
,
0001
0100
0001
0100
0001
0000
1000
0000
,
0010
1000
0010
1000
0010
0000
1000
0000
,
0001
0100
0001
0100
0001
0000
0100
0000
,
0001
1000
0001
1000
0001
1000
0001
1000
,
0100
1000
0010
1000
0001
1000
0001
1000
,
0001
0010
0001
0010
0001
0000
1000
0000
,
0001
1000
0001
1000
0001
0000
1000
0000
,
0100
1000
0100
1000
0010
1000
0010
1000
,
0001
0100
0010
1000
0100
0010
0001
0000
,
1000
0100
0000
0010
0001
1000
0000
0010
,
0100
0001
0000
0100
0010
0000
1000
0000
,
0001
0010
0000
0100
1000
0001
0000
0100
,
0010
1000
0000
0100
0010
0001
0010
0100
,
1000
0001
0000
0100
0010
1000
0000
0001
,
0100
0010
0000
1000
0100
0000
0010
0000
,
0001
0010
0000
0100
1000
0001
0000
0100
,
0010
1000
0000
0100
1000
0001
0010
0100
,
1000
0001
0000
0100
0010
1000
0000
0100
,
0010
0001
0000
0010
0100
0000
1000
0000
,
0001
0100
0000
0001
1000
0001
0000
1000
,
0100
1000
0000
0001
0010
0001
1000
0010
,
1000
0001
0000
0100
0010
1000
0000
0100
,
0010
0001
0000
0010
0100
0000
1000
0000
,
0001
0100
0000
0010
1000
0001
0000
0100
,
0010
1000
0000
0100
0010
0001
0010
0100
,
1000
0000
0000
0000
;
#NOTES:
     dance-single:
     Renard:
     Medium:
     9:
     0.763,0.000,0.000,0.000,0.000:
0000
0000
0000
0000
,
0000
0000
0000
0000
,
0000
0000
0000
0000
,
0000
0000
0000
0000
,
0000
0000
0000
0000
,
0000
0000
0000
0000
,
0000
0000
0000
0000
,
0000
0000
0000
0000
,
1000
0100
0000
0010
0001
1000
0000
0100
,
0010
0001
0000
0010
0100
0000
1000
0000
,
0001
0010
0000
0100
1000
0100
0000
0010
,
0001
0010
0000
0100
1000
0000
0001
0000
,
0010
0100
0000
1000
0100
0000
0010
0000
,
0001
0010
0000
0100
1000
0000
0100
0000
,
0010
0001
0000
0010
0100
1000
0000
0001
,
0010
0010
0010
0000
,
0001
0100
0000
0010
1000
0001
0000
0100
,
0010
1000
0000
0001
0010
0000
0100
0000
,
1000
0100
0000
0010
0001
1000
0000
0001
,
0100
0010
0000
1000
0010
0100
0001
0010
,
0100
1000
0000
0001
0010
0001
0000
1000
,
0010
1000
0000
0001
0100
0000
0010
0000
,
1000
0001
0000
1000
0100
1000
0000
0001
,
0010
0100
0000
1000
0001
0100
0010
1000
,
0001
0010
0000
0100
0010
0100
0000
1000
,
0100
1000
0000
0001
0100
0000
0010
0000
,
1000
0010
0000
0100
0010
0100
0000
0001
,
0100
0001
0000
0100
0001
0010
0100
1000
,
0001
0010
0000
0001
0010
0001
0000
0010
,
0100
0010
0000
0100
1000
0000
0100
0000
,
1000
0010
0000
0100
0010
0100
0000
0001
,
0100
0001
0000
0100
0001
0010
0100
1000
,
0100
0010
0000
0001
0010
0100
0000
1000
,
0100
0010
0000
0001
0010
0000
0100
0000
,
1000
0010
0000
0100
0001
0100
0000
0010
,
1000
0010
0000
0100
0001
0010
0100
1000
,
0100
0010
0000
0001
0010
0100
0000
1000
,
0001
0100
0000
0010
1000
0000
0010
0000
,
0100
0001
0000
1000
0100
1000
0000
0001
,
0010
0001
0000
1000
0100
0010
0001
0010
,
0100
1000
0000
0001
0010
0001
0000
1000
,
0010
1000
0000
0001
0100
0000
0010
0000
,
1000
0100
0000
1000
0001
0010
0000
0001
,
1000
0010
0000
0100
0001
0100
0010
1000
,
0100
0010
0000
0001
0010
0100
0000
1000
,
0001
0100
0000
0010
1000
0000
0100
0000
,
0010
0001
0000
0010
0100
1000
0000
0001
,
0010
0100
0000
1000
0010
0000
0100
0000
,
0001
0000
0000
0100
0000
0010
0000
1000
,
0000
0100
0000
0010
0001
0010
0100
1000
,
0001
0100
0000
0010
0000
1000
0000
0100
,
0000
0010
0000
0001
0010
0100
1000
0001
,
0100
0010
0000
1000
0000
0001
0000
0100
,
0000
0010
0000
1000
0100
0010
0001
0010
,
0100
1000
0000
0001
0000
0010
0000
0001
,
0000
1000
0000
0010
0100
0001
0100
0010
,
1000
0100
0000
0010
0001
0010
0100
1000
,
0001
0100
0000
0010
1000
0100
0010
0001
,
0010
0100
0000
1000
0001
0100
0010
1000
,
0100
1000
0000
0001
0010
0100
1000
0001
,
0100
0010
1000
0100
0010
0001
0010
0100
,
1000
0001
0100
0010
1000
0100
0010
0001
,
0010
0100
1000
0001
0100
0010
1000
0100
,
0010
0000
0000
0000
,
0001
0010
0000
0100
1000
0001
0000
0010
,
0100
1000
0000
0001
0100
0000
0010
0000
,
1000
0100
0000
0010
0001
0010
0000
0100
,
1000
0001
0000
0100
0010
1000
0100
0010
,
0001
0010
0000
0100
1000
0001
0000
0100
,
0010
1000
0000
0001
0100
0000
0010
0000
,
1000
0100
0000
0010
0001
0010
0000
0100
,
1000
0001
0000
0100
0010
1000
0100
0010
,
0001
0010
0000
0100
1000
0001
0000
0100
,
0010
1000
0000
0100
0010
0000
0100
0000
,
1000
0001
0000
0010
0100
0010
0000
0001
,
1000
0010
0000
0100
0001
0100
0010
1000
,
0100
0010
0000
0001
0010
0100
0000
1000
,
0001
0100
0000
0010
1000
0000
0001
0000
,
0010
0100
0000
1000
0100
0010
0000
0001
,
0010
0100
0000
1000
0001
0100
0010
1000
,
0100
0010
0001
0010
0100
1000
0001
0100
,
0010
1000
0100
0010
0001
0000
0010
0000
,
0001
0010
0100
1000
0001
0100
0010
1000
,
0100
1000
0001
1000
0010
0000
1000
0000
,
0001
0100
0010
1000
0100
0010
0001
0010
,
0100
1000
0001
0100
0010
0000
0100
0000
,
0001
0010
0100
1000
0100
0010
0100
1000
,
0001
0010
0100
0010
0001
1000
0010
0100
,
0001
0010
0000
0001
0010
0100
1000
0001
,
0100
0010
1000
0100
0010
0000
0001
0000
,
0010
0100
0000
1000
0001
0100
0010
1000
,
0100
0010
0001
0010
0100
0000
1000
0000
,
0010
0100
0000
0001
0100
0010
1000
0100
,
0010
0001
0010
0100
1000
0000
0001
0000
,
0100
0010
0000
1000
0100
0010
0000
0001
,
0010
0100
0000
1000
0001
0010
0100
1000
,
0001
0000
0000
0000
;
#NOTES:
     dance-single:
     Renard:
     Easy:
     7:
     0.475,0.000,0.010,0.000,0.000:
0000
0000
0000
0000
,
0000
0000
0000
0000
,
0000
0000
0000
0000
,
0000
0000
0000
0000
,
0000
0000
0000
0000
,
0000
0000
0000
0000
,
0000
0000
0000
0000
,
0000
0000
0000
0000
,
1000
0000
1000
0000
,
1000
0000
0001
0100
,
0001
0000
0001
0000
,
0001
0000
1000
0100
,
1000
0000
0001
0100
,
0001
0000
1000
0100
,
1000
0000
0001
0000
,
0000
0000
0000
0000
,
0001
1000
0100
0010
,
0001
0000
1000
0001
1000
0000
0001
0000
,
0100
0010
1000
0100
,
0010
0000
0001
0000
1000
0001
1000
0000
,
0001
0100
0010
1000
,
0100
0000
0010
0000
0001
1000
0001
0000
,
0010
0100
1000
0001
,
0100
0000
0010
0000
1000
0001
1000
0000
,
0100
0010
0001
1000
,
0010
0000
0100
0000
0001
1000
0001
0000
,
0010
0100
1000
0001
,
0100
0000
0010
0000
1000
0001
1000
0000
,
0010
0100
0001
0010
,
0100
0000
1000
0000
0001
1000
0001
0000
,
1000
0010
0100
0001
,
0010
0000
0100
0000
1000
0001
1000
0000
,
0001
0000
0100
0000
,
0010
0000
0000
0000
1000
0100
1000
0000
,
0100
0000
0010
0000
,
0001
0000
0000
0000
0100
0001
0100
0000
,
0010
0000
1000
0000
,
0100
0000
0000
0000
0010
0001
0010
0000
,
0100
0000
1000
0000
,
0001
0000
0000
0000
0100
0010
0100
0000
,
0010
0000
1000
0000
,
0100
0000
0000
0000
0010
0001
0010
0001
,
0010
0000
0001
0000
,
1000
0000
0000
0000
0010
1000
0010
1000
,
0010
0000
0100
0000
,
0001
0000
0000
0000
1000
0100
1000
0100
,
1000
0001
0100
0010
,
1000
1000
0010
0010
,
0100
0000
0000
0001
0000
0100
0000
0010
,
0000
1000
0000
0100
0010
0000
0001
0000
,
0010
0000
0000
0100
0000
1000
0000
0001
,
0000
0100
0000
0010
1000
0000
0010
0000
,
0100
0000
0000
0001
0000
1000
0000
0100
,
0000
0010
0000
0001
0010
0000
0100
0000
,
1000
0000
0000
0001
0000
0100
0000
0010
,
0000
1000
0000
0100
0010
0000
0001
0000
,
0010
0000
0100
1000
,
0001
0000
0100
0001
,
1000
0000
0100
1000
,
0001
0000
0100
0100
,
0001
1000
0001
1000
0001
1000
0001
1000
,
0001
1000
0001
1000
0001
1000
0001
1000
,
0001
1000
0001
1000
0001
1000
0001
1000
,
0001
0000
0000
0000
,
1000
1000
0100
0100
,
0010
0010
0001
0001
,
1000
1000
0010
0010
,
0100
0100
0001
0001
,
1000
1000
0100
0100
,
1000
1000
0001
0001
,
0010
0010
0001
0001
,
0100
0100
0001
1000
,
0100
1000
0100
1000
,
0010
1000
0010
1000
,
0001
0010
0001
0010
,
0001
0100
0001
0100
,
0001
1000
0001
1000
,
0010
1000
0010
1000
,
0100
1000
0100
1000
,
0001
0100
0001
1000
,
0100
0000
1000
0000
,
0001
0000
0010
0000
0100
1000
0100
0000
,
1001
0000
0100
0000
,
0010
0000
1000
0000
0100
0010
0100
0000
,
0010
0000
0001
0000
,
1000
0000
0010
0000
0100
0010
0100
0000
,
0001
0000
1000
0000
,
0100
0010
0001
1000
,
0001
0000
0100
0000
,
0010
0000
1000
0000
0001
1000
0001
0000
,
1000
0000
0100
0000
,
0010
0000
0001
0000
1000
0001
1000
0000
,
0001
0000
0100
0000
,
0010
1000
0001
1000
,
0100
0000
0100
0010
,
0001
1000
0010
0100
,
0001
0000
0000
0000
;
#NOTES:
     dance-single:
     Jinxie:
     Beginner:
     5:
     0.297,0.000,0.040,0.000,0.000:
0000
0000
0000
0000
,
0000
0000
0000
0000
,
0000
0000
0000
0000
,
0000
0000
0000
0000
,
0000
0000
0000
0000
,
0000
0000
0000
0000
,
0000
0000
0000
0000
,
0000
0000
0000
0000
,
1000
0000
0001
0000
,
1000
0000
0010
0100
,
0010
0000
1000
0000
,
0001
0000
1000
0100
,
1000
0000
0001
0000
,
1000
0000
0010
0000
,
0100
0000
0001
0000
,
1000
0000
0000
0000
,
0001
0000
1000
0000
,
0010
0000
0100
0001
,
0100
0000
0010
0000
,
1000
0000
0100
0010
,
0100
0000
1000
0000
,
0001
0000
1000
0010
,
1000
0000
0100
0000
,
1000
0000
0010
0100
,
0001
0000
0100
0000
,
0001
0000
0010
0100
,
0010
0000
0100
0000
,
1000
0000
0010
1000
,
0100
0000
1000
0000
,
0010
0000
0100
0001
,
0100
0000
0010
0000
,
0100
0000
0001
1000
,
0100
0000
1000
0000
,
0001
0000
1000
0010
,
0100
0000
0010
0000
,
1000
0000
0100
0010
,
0001
0000
0010
0000
,
0100
0000
1000
0010
,
1000
0000
0010
0000
,
0100
0000
0010
1000
,
0100
0000
1000
0000
,
0010
0000
0100
0001
,
0100
0000
0010
0000
,
0100
0000
0010
1000
,
0100
0000
1000
0000
,
0010
0000
0100
0010
,
0100
0000
0001
0000
,
0010
0000
0000
0000
,
0100
0000
1000
0000
,
0001
0000
1000
0000
,
0010
0000
0100
0000
,
0010
0000
1000
0000
,
0100
0000
0010
0000
,
0001
0000
0010
0000
,
0100
0000
1000
0000
,
0001
0000
1000
0000
,
0010
0000
0100
0000
,
0001
0000
0100
0000
,
0010
0000
1000
0000
,
0100
0000
0010
0000
,
0001
0000
0001
0000
,
1000
0000
1000
0000
,
1001
0000
1001
0000
,
1001
0000
0000
0000
,
0010
0000
1000
0000
,
0100
0000
0010
0001
,
0100
0000
0001
0000
,
0010
0000
0100
1000
,
0010
0000
1000
0000
,
0010
0000
0100
0010
,
0100
0000
0001
0000
,
0100
0000
0010
1000
,
0010
0000
1000
0000
,
0100
0000
0010
0100
,
0010
0000
0001
0000
,
0010
0000
0100
1000
,
0010
0000
1000
0000
,
0100
0000
0010
0001
,
0100
0000
0001
0000
,
0010
0000
0100
1000
,
0001
0000
1000
0000
,
0010
0000
1000
0100
,
0010
0000
0100
0000
,
1000
0000
0010
0100
,
0001
0000
0100
0000
,
0010
0000
0100
0010
,
1000
0000
0010
0000
,
1000
0000
0100
0010
,
0001
0000
0010
0000
,
0100
0000
0010
0100
,
1000
0000
0100
0000
,
1000
0000
0010
1000
,
0001
0000
1000
0000
,
0001
0000
1000
0000
,
0010
0000
1000
0000
,
0001
0000
0000
0000
,
1001
0000
0000
0000
;
