#TITLE:Chromia Rain;
#SUBTITLE:;
#ARTIST:Sonitus Vir feat. Jaql;
#TITLETRANSLIT:;
#SUBTITLETRANSLIT:;
#ARTISTTRANSLIT:;
#CRChallenge:;
#BANNER:rain-banner.avi;
#BACKGROUND:rain-bg.jpg;
#LYRICSPATH:;
#CDTITLE:!cdtitle.png;
#MUSIC:rain.ogg;
#OFFSET:0.000;
#SAMPLESTART:31.680;
#SAMPLELENGTH:12.000;
#SELECTABLE:YES;
#BPMS:0.000=180.000;
#STOPS:;
#BGCHANGES:;
#NOTES:
     dance-single:
     Renard:
     Medium:
     9:
     0.817,0.824,0.024,0.701,0.249:
0000
0000
0000
0000
,
0000
0000
0000
0000
,
0000
0000
0000
0000
,
0000
0000
0000
0000
,
1000
0000
1000
0100
0000
0010
0001
0010
,
0001
0000
0001
0100
0000
0010
1000
0010
,
1000
0000
1000
0100
0000
0010
0001
0010
,
0001
1000
0001
0100
0010
0000
1001
0000
,
0002
0000
0013
0002
0000
0103
0001
1000
,
0002
0000
0013
0200
2300
0000
3020
0000
,
0230
0000
0310
0020
0000
1000
2030
0000
,
3200
0000
0310
0001
2000
0000
3100
0000
,
2000
0000
3100
2000
0000
3010
1000
0001
,
2000
0000
3100
0020
0032
0000
0203
0000
,
0320
0000
0130
0200
0000
0001
0302
0000
,
0023
0000
0130
1000
0002
0000
0013
0000
,
0200
0000
1000
0000
0000
0010
0300
0010
,
0200
0000
2300
0010
3020
0000
0230
0001
,
0302
0000
0100
0000
0023
0100
0000
0100
,
0230
0000
2300
0010
3020
0000
0100
0000
,
0230
0000
0010
0000
0302
1000
0000
0010
,
0023
0000
0100
0000
0230
0000
1300
0010
,
0200
0000
0001
0000
0302
0100
0000
0010
,
0023
0000
0000
0100
0000
0000
0100
0000
0130
0000
0000
0000
1001
0000
0000
0000
,
0001
0000
0100
0001
0100
0000
0001
0000
0100
0000
0010
0000
1000
0000
0100
0000
,
1000
0000
0100
1000
0100
0000
1000
0000
0100
0000
0010
0000
0001
0000
1000
0000
,
0010
0000
1000
0010
1000
0000
0010
0000
0100
0000
0001
0000
0010
0000
0100
0000
,
1000
0000
0100
1000
0100
0000
1000
0000
0100
0000
0010
0000
0001
0000
1000
0000
,
0001
0000
0100
0001
0100
0000
0001
0000
0010
0000
0100
0000
1000
0000
0001
0000
,
0100
0000
0010
0100
0010
0000
0100
0000
0010
0000
1000
0000
0100
0000
0010
0000
,
0001
0000
1000
0001
1000
0000
0001
0000
0010
0000
0100
0000
1000
0000
0001
0000
,
1000
0000
0010
1000
0010
0000
1000
0000
0001
0000
0100
0001
0100
0000
0001
0000
,
1000
0000
0010
1000
0010
0000
1000
0000
0010
0000
0100
0000
0001
0000
0010
0000
,
0001
0000
0010
0001
0010
0000
0001
0000
0010
0000
0100
0000
1000
0000
0001
0000
,
0100
0000
0001
0100
0001
0000
0100
0000
0010
0000
1000
0000
0100
0000
0010
0000
,
0001
0000
0010
0001
0010
0000
0001
0000
0010
0000
0100
0000
1000
0000
0001
0000
,
1000
0000
0010
1000
0010
0000
1000
0000
0100
0000
0010
0000
0001
0000
1000
0000
,
0010
0000
0100
0010
0100
0000
0010
0000
0100
0000
0001
0000
0010
0000
0100
0000
,
1000
0000
0001
1000
0001
0000
1000
0000
0100
0000
0010
0000
0001
0000
1000
0000
,
0001
0000
0100
0001
0100
0000
0001
0000
1000
0000
0010
1000
0010
0000
1000
0000
,
0020
0000
0130
0020
0000
0130
0010
0100
,
0020
0000
0130
0020
0000
0130
0010
0100
,
0020
0000
0130
0020
0000
0130
0010
0100
,
0020
0000
0130
0020
0000
0130
0010
0100
,
0002
0000
1003
0002
0000
1003
0001
1000
,
0002
0000
1003
0002
0000
1003
0001
1000
,
0002
0000
1003
0002
0000
1003
0001
1000
,
0002
0000
1003
0002
0000
1003
0001
1000
,
0020
0000
1030
0020
0000
1030
0010
1000
,
0002
0000
0103
0002
0000
0103
0001
0100
,
0020
0000
0130
0020
0000
0130
0010
0100
,
0020
0000
1030
0020
0000
1030
0010
1000
,
0200
0000
1300
0200
0000
1300
0001
1000
,
0002
0000
0013
0002
0000
0013
0001
0010
,
0200
0000
0310
0200
0000
0310
0100
0010
,
0200
0000
1300
0002
0000
0013
0011
0000
,
0002
0000
0010
0000
0000
0010
0000
0000
,
0013
0100
1000
0001
0010
0100
1000
0001
0010
0100
0010
0001
,
2000
0000
0100
3000
0020
0100
0000
0000
,
0230
0302
2003
3002
,
0013
0100
1000
0100
0010
0100
1000
0100
,
0010
0000
0000
0010
0000
0000
0020
0000
0000
0000
0031
0000
0010
0000
0100
0000
,
1000
0200
0000
0000
1300
0000
0010
0000
0100
0000
0001
0000
1000
0000
0001
0000
,
1000
0100
1000
0000
0100
0010
0100
0000
0010
0001
0010
0000
0002
0000
0000
0000
,
2003
0000
0100
0000
0000
0010
0000
0010
,
3020
0000
0000
0000
0230
0000
0000
0000
0301
0000
0100
0001
0100
0000
0010
0100
,
0010
0000
1000
0010
1000
0000
0001
0100
0001
0000
1000
0001
1000
0000
0100
1000
,
0100
0000
1000
0001
1000
0000
0001
0100
0002
0000
0000
0000
0013
0000
0100
0000
,
1000
0100
1000
0000
0100
0010
0100
0000
0010
0001
0010
0000
0001
1000
0001
0000
,
0200
0000
0000
0000
0010
0000
0000
0000
0000
0000
0310
0000
1000
0000
0010
1000
,
0010
0100
0001
0100
0010
0100
0001
0100
,
0001
1000
0001
1000
0001
1000
0001
1000
0001
1000
0001
1000
0010
0000
0000
0000
,
1000
0010
1000
0010
0100
0010
0100
0010
,
0100
0001
0100
0001
0010
0100
1000
0001
,
0010
0000
0001
0010
0001
0000
0010
0000
0100
0000
1000
0000
0001
0000
0100
0000
,
0010
0000
1000
0010
1000
0000
0010
0000
1000
0000
0010
0000
0100
0000
0001
0000
,
0010
0001
0010
0001
0010
0100
0010
0100
,
1000
0100
1000
0010
0100
0010
0100
0010
,
0100
0000
0001
0100
0001
0000
0100
0000
0010
0000
1000
0000
0100
0000
1000
0000
,
0001
0000
1000
0100
1000
0000
0100
0000
1000
0000
0001
0000
0010
0000
0100
0000
,
1000
0001
1000
0001
0100
0001
0100
0001
,
0010
0001
0010
0001
1000
0100
1000
0100
,
1000
0000
0010
1000
0010
0000
1000
0000
0010
0000
0100
0000
0001
0000
0010
0000
,
0100
0000
1000
0100
1000
0000
0001
0000
0010
0000
0100
0000
1000
0000
0001
0000
,
0100
0010
0100
0010
1000
0010
1000
0010
,
1000
0001
1000
0001
0010
0001
0010
0001
,
0010
0000
0100
0010
0100
0000
0010
0000
0100
0000
1000
0100
1000
0000
0001
0000
,
0100
0000
0001
0100
0001
0000
0100
0000
0010
0000
0100
0010
0100
0000
0010
0000
;
#NOTES:
     dance-single:
     Spectere:
     Hard:
     13:
     1.000,1.000,0.604,0.196,1.000:
0000
0000
0000
0000
,
0000
0000
0000
0000
,
0000
0000
0000
0000
,
0000
0000
0000
0000
,
1000
0000
0000
0000
0001
0000
0000
0100
0000
0010
1000
0000
0100
1000
0000
0001
,
0100
0000
0000
0000
0001
0000
0000
0010
0001
0000
0001
0000
0000
0100
0000
0010
,
0100
0000
0000
0000
0001
0000
0000
1000
0000
0001
0100
0000
0001
0010
0100
0000
,
1000
0000
1001
0002
0200
0000
1313
0000
,
1001
0000
0001
0000
0101
0000
0000
0001
0000
0001
0010
0000
0010
0001
0000
0001
,
1000
0000
0100
0000
1100
0000
0000
0100
1000
0000
1000
0000
0001
0100
0000
0100
,
0001
0000
0010
0000
1100
0000
0000
1000
0000
1000
0010
0000
0010
0100
1000
0000
,
0100
0000
0001
0000
0101
0000
0001
0000
1000
0000
1100
0000
0001
0010
0000
0001
,
1000
0000
0100
0000
1010
0000
0000
0100
0000
0100
0001
0000
0001
1000
0000
1000
,
0010
0000
0100
0000
0110
0000
0000
0010
1000
0000
0100
0000
1000
0010
0000
0010
,
0100
0000
0100
0000
1010
0000
0000
0010
0000
0010
1000
0000
0100
1000
0001
0000
,
0010
0000
0001
0000
1001
0000
0010
0000
1000
0000
0001
0000
0010
0001
0000
0001
,
1000
0000
0100
0000
1010
0000
0000
0100
0000
0100
0001
0000
0001
0010
0000
0001
,
1000
0000
0001
0000
0011
0000
0000
0001
0010
0000
0100
0000
0010
1000
0000
0010
,
0001
0000
0100
0000
0110
0000
0000
0010
0000
0100
0001
0000
0001
0010
0100
0000
,
0001
0000
0100
0000
1100
0000
1000
0000
0001
0000
0101
0000
0000
0001
0000
0001
,
0010
0000
0001
0000
0101
0000
0000
0010
0000
0010
1000
0000
0001
0010
0000
0001
,
0100
0000
0010
0000
1010
0000
0000
0100
0001
0000
0010
0000
0000
0001
0000
0001
,
0010
0000
0100
0000
1100
0000
0000
1000
0000
1000
0001
0000
0000
0100
0001
0000
,
1001
0000
0000
0000
1000
0000
1001
0000
0000
00M0
0001
0000
0101
0000
0000
0000
1100
0000
000M
0000
0110
0000
M000
0000
0011
0000
M000
0M00
0000
0000
0000
0000
,
0100
0000
0010
0000
0011
0000
0001
1000
0000
1000
0010
0000
1000
0100
0000
0010
,
1000
0000
0010
0000
0011
0000
0000
0001
0100
0000
1010
0000
0000
1000
0000
1000
,
0001
0000
0100
0000
1001
0000
0000
1000
0000
1000
0100
0000
0000
0010
0001
0000
,
0100
0000
0001
0000
0011
0000
0001
0000
0100
0000
1010
0000
0100
1000
0000
1000
,
0001
0000
0100
0000
0110
0000
0000
1000
0000
1000
0010
0000
0000
0100
0000
0100
,
0001
0000
0010
0000
1001
0000
0000
1000
0001
0000
1010
0000
0000
0010
0000
0010
,
1000
0000
0100
0000
0110
0000
0000
0010
0000
0001
0010
0000
0000
0001
0010
0000
,
0100
0000
1000
0000
1100
0000
1000
0000
0010
0000
0101
0000
0001
0010
0000
0010
,
0001
0000
1000
0000
1010
0000
0000
0100
0000
0100
0001
0000
0000
0001
0000
0001
,
1000
0000
0010
0000
1010
0000
0000
1000
0100
0000
1010
0000
0100
0001
0010
0000
,
0001
0000
0010
0000
0011
0000
0000
0001
0000
0100
0001
0000
0000
1000
0100
0000
,
1000
0000
0010
0000
0101
0000
0001
0000
0010
0000
0011
0000
0001
1000
0000
1000
,
0100
0000
1000
0000
1010
0000
0000
0100
0000
0010
1000
0000
0000
1000
0000
0001
,
1000
0000
0001
0000
1001
0000
0000
1000
0100
0000
1100
0000
0000
1000
0000
0001
,
0100
0000
0001
0000
1001
0000
0000
1000
0000
1000
0010
0000
0000
0100
0001
0000
,
1000
0000
0010
0000
0101
0000
0001
0000
1000
0000
1010
0000
0010
1000
0000
1000
,
0001
0000
0010
0100
0010
0100
0010
0000
0001
0000
0100
0010
1000
0100
1000
0000
,
0001
0000
0100
0001
0100
0001
0010
0000
0100
0000
1000
0100
1000
0100
1000
0000
,
0010
0000
0100
0010
1000
0010
0100
0000
0001
0000
0010
0100
0010
0001
0100
0000
,
0010
0000
1000
0100
1000
0001
0100
0000
0001
0000
0010
0001
0010
0001
0010
0000
,
0001
0000
1000
0001
0100
0010
1000
0000
0100
0000
1000
0010
0100
0001
0010
0000
,
0001
0000
1000
0100
0010
0001
0100
0000
0001
0000
0010
0001
1000
0001
0100
0000
,
0010
0000
1000
0100
1000
0001
1000
0000
0010
0000
0100
0001
0010
0001
0010
0000
,
0100
0000
0010
0001
1000
0100
1000
0000
0100
0000
0010
0001
0100
0001
1000
0000
,
1000
0000
0001
0100
0001
0100
0001
0000
0010
0000
0001
1000
0100
1000
0100
0000
,
1000
0000
0001
0100
0010
0100
1000
0000
0100
0000
0001
0010
0100
0010
0001
0000
,
0010
0000
0100
1000
0010
0100
0001
0000
0010
0000
0001
0100
0001
0010
0001
0000
,
1000
0000
0100
1000
0100
1000
0100
0000
1000
0000
1000
0001
0100
0001
0010
0000
,
0001
0000
0010
0001
0100
0001
0010
0000
0001
0000
1000
0100
0010
0001
0010
0000
,
0001
0000
0010
0001
0100
0010
0100
0000
0100
0000
0001
0010
0100
1000
0100
0000
,
1000
0000
0001
0010
0001
0010
0001
0000
0010
0000
0100
1000
0100
0010
0100
0000
,
0010
0000
0001
0010
0001
0100
0010
0000
0100
0000
0001
0010
0100
0000
0000
0000
,
2000
0000
0000
0000
0000
0000
0000
0000
0000
0000
0000
0000
0000
0000
0000
3000
,
0001
0100
0010
1000
0001
0100
0010
0001
0010
1000
0100
1000
,
0001
2000
0000
0000
0000
0000
0000
0000
0200
0000
0000
0000
0000
0000
3300
0000
,
0020
0000
0000
0000
2000
0030
0000
0000
0200
3000
0000
0000
0002
0300
0000
0000
,
0020
0003
0031
0000
0100
0000
0010
0000
1000
0000
0001
0000
0100
0000
0010
0000
,
0010
0000
1000
0000
0000
0000
1000
0000
0100
0000
0000
0000
0100
0000
0002
0000
0000
0000
0000
0000
0000
0000
0000
0003
0100
0000
0000
0000
1000
0000
0000
0000
,
0010
0100
0000
0000
0100
0000
0001
0000
1000
0000
0100
0000
1000
0000
0001
0000
,
0100
0001
0010
0100
1000
0100
1000
0010
0100
0001
0100
0001
0020
0000
0000
0000
,
0002
0030
0000
0000
0000
0000
0000
0000
0000
0000
0000
0000
0000
0000
0000
0000
,
2000
0003
0000
0000
0002
3000
0000
0000
0200
0003
0310
1000
0100
0000
0001
0100
,
1000
0000
0010
1000
0100
0000
1000
0001
0010
0001
0100
0001
1000
0010
0100
0001
,
0010
0001
0100
0010
1000
0100
0010
0001
0200
0000
0000
0000
0302
0000
0023
0000
,
0031
0100
0010
1000
0100
0010
0100
1000
0100
0010
0001
0100
0001
0010
0100
0010
,
0002
0000
0000
0000
0000
0000
0000
0000
2000
0003
0000
0000
0200
3000
0301
1000
,
0010
0001
0010
0100
0001
0100
1000
0010
,
0100
0001
0100
0001
0010
0001
0010
0100
0010
0100
1000
0020
0200
0000
0330
0000
,
1000
0000
0010
0000
0101
0000
0001
1000
0000
1000
0010
0000
0100
0001
0000
1000
,
0001
0000
0010
0000
1001
0000
0000
1000
0100
0000
1100
0000
1000
0001
0000
0001
,
0010
0000
0001
0000
0101
0000
0000
0001
0000
0001
1000
0000
1000
0010
0000
0010
,
0100
0000
0010
0000
0110
0000
0010
0000
1000
0000
1100
0000
0000
1000
0000
0001
,
1000
0000
0010
0000
0101
0000
0000
0010
0000
0010
0001
0000
0000
0001
0000
0001
,
1000
0000
0100
0000
1100
0000
0000
0010
0001
0000
0101
0000
0000
0001
0000
0001
,
1000
0000
0010
0000
0101
0000
0000
0001
0000
0001
0010
0000
0000
0010
0001
0000
,
1000
0000
0001
0000
0101
0000
0010
0000
1000
0000
1100
0000
0000
0010
0000
0010
,
0001
0000
0010
0000
1100
0000
0000
1000
0000
1000
0010
0000
0000
0100
0000
0100
,
0001
0000
0100
0000
0101
0000
0000
0001
1000
0000
1100
0000
0000
1000
0000
1000
,
0010
0000
0100
0000
0110
0000
0000
1000
0000
0001
1000
0000
0000
1000
0010
0000
,
0100
0000
0001
0000
0110
0000
1000
0000
0100
0000
0110
0000
0000
0001
0000
0100
,
0010
0000
0100
0000
0101
0000
0000
1000
0000
0100
1000
0000
0000
1000
0000
0010
,
0100
0000
0001
0000
0101
0000
0000
0010
0001
0000
0011
0000
0000
0001
0000
0001
,
1000
0000
0010
0000
0110
0000
0000
0100
0000
0001
0100
0000
0001
1000
0010
0000
,
0100
0000
0001
0000
0101
0000
0010
0000
1000
0000
1010
0000
0010
0100
0000
0100
,
0001
0000
0000
0000
;
#NOTES:
     dance-single:
     Spectere:
     Easy:
     6:
     0.421,0.605,0.008,1.000,0.004:
0000
0000
0000
0000
,
0000
0000
0000
0000
,
0000
0000
0000
0000
,
0000
0000
0000
0000
,
2000
0000
3100
1000
0100
0000
0020
0000
,
0230
0000
1300
0010
1000
0000
0200
0000
,
0320
0000
0031
0100
0010
0000
0020
0000
,
2030
3020
0230
0301
,
2000
0000
0000
0000
,
3002
0023
0032
0203
,
0320
0000
2030
0000
,
3200
2300
3200
0000
,
0320
0000
0032
0000
,
0203
0000
0000
0000
0302
0000
0013
0001
,
0200
0000
0320
0000
,
0230
0302
0023
0230
,
0320
0000
0000
0000
,
0032
0203
0320
2030
,
3200
0000
2300
0000
,
3020
0230
0302
0000
,
0023
0000
0032
0000
,
0203
0000
0000
0000
0320
0000
1030
0100
,
0020
0000
0032
0000
,
0200
0000
0303
1001
,
2000
0000
0000
0000
,
3000
0002
0023
0230
,
2300
0000
3002
0000
,
0203
0000
0000
0000
0300
0010
1000
0100
,
0020
0000
0000
0000
,
0000
0000
0030
0000
0000
0001
0100
0010
,
1000
0100
2000
0000
0000
0000
0000
0000
,
0000
3000
0000
0000
,
0002
0000
0000
0000
,
0003
0020
0230
2300
,
3020
0000
0230
0000
,
0302
0000
0000
0000
0000
0103
0010
1000
,
0200
0000
0000
0000
,
0000
0000
0300
0000
0000
1000
0010
0100
,
0001
0010
0200
0000
0000
0000
0000
0000
,
0000
0300
0000
0000
,
2000
0000
0000
0000
,
3002
0000
0000
0000
,
0203
0000
0000
0000
,
0320
0000
0000
0000
,
2030
0000
0000
0000
,
3200
0000
0000
0000
,
2300
0000
0000
0000
,
3002
0000
0000
0000
,
0203
0000
0320
0000
,
2030
0000
3200
0000
,
2300
0000
3002
0000
,
0023
0000
0032
0000
,
0203
0000
0320
0000
,
2030
0000
3200
0000
,
0320
0000
0230
0000
,
0320
0000
0032
1003
,
2000
0000
0000
0000
,
3002
0023
0230
2300
,
3002
0000
0203
0000
,
0320
0230
0320
2030
,
3200
2300
3002
0203
,
0301
0000
0000
0010
0000
0000
0100
0000
0000
0000
0000
0000
1000
0000
0010
0000
,
0100
0001
0010
0001
,
0100
0010
1000
0000
0100
1000
0010
0000
,
0200
0000
0000
0000
,
0302
0023
0032
0203
,
0320
2030
3200
2300
,
3002
0000
0013
0001
0200
0000
0320
0000
,
2030
3200
2300
3002
,
0203
0000
0000
0000
0302
0000
0013
0001
,
0200
0320
2030
3200
,
1300
0010
0100
0010
0100
0001
0010
0000
,
0002
0000
0000
0000
,
0003
0002
0203
0320
,
2030
0000
3020
0000
,
0230
0000
0000
0000
0300
0001
0010
0001
,
0200
0000
0000
0000
,
0000
0000
0300
0000
0000
0010
1000
0100
,
1000
0010
0200
0000
0000
0000
0000
0000
,
0000
0300
0000
0000
,
0002
0000
0000
0000
,
0003
0020
0032
0203
,
0320
0000
2030
0000
,
3200
0000
0000
0000
0300
1000
0010
0100
,
0002
0000
0000
0000
,
0000
0000
0003
0000
0000
0001
0010
0100
,
0010
0100
2000
0000
0000
0000
0000
0000
,
0000
3000
0000
0000
;
#NOTES:
     dance-single:
     Spectere:
     Beginner:
     3:
     0.223,0.320,0.008,0.147,0.000:
0000
0000
0000
0000
,
0000
0000
0000
0000
,
0000
0000
0000
0000
,
0000
0000
0000
0000
,
1000
0000
0001
0000
,
0010
0000
0001
0000
,
0100
0000
0010
0000
,
1000
0100
1000
1100
,
2000
0000
0000
3000
,
0001
0000
0010
0000
,
0001
0000
0100
0000
,
0010
0000
1000
0000
,
0100
0000
1000
0000
,
0100
0000
0010
0000
,
0100
0000
1000
0000
,
0010
0000
0100
0000
,
0002
0000
0000
0003
,
0010
0000
0001
0000
,
1000
0000
0100
0000
,
1000
0000
0010
0000
,
0100
0000
0010
0000
,
1000
0000
0100
0000
,
0010
0000
0001
0000
,
0020
0000
0000
0030
,
0002
0000
0000
0000
,
0003
0100
0010
0000
,
1000
0000
0100
0000
,
1000
0000
0000
1000
,
0020
0000
0000
0000
,
0000
0000
0030
0010
,
2000
0000
0000
0000
,
0000
3000
0000
0000
,
0002
0000
0000
0000
,
0003
0010
0001
0000
,
0100
0000
0010
0000
,
1000
0000
0000
1000
,
0020
0000
0000
0000
,
0000
0030
0000
0010
,
1000
0020
0000
0000
,
0000
0030
0000
0000
,
1000
0000
0001
0000
,
0010
0000
0001
0000
,
0100
0000
0010
0000
,
1000
0000
0100
0000
,
1000
0000
0001
0000
,
0010
0000
0001
0000
,
0100
0000
0010
0000
,
0100
0000
0001
0000
,
0010
0001
0010
0000
,
0010
0001
0100
0000
,
0100
0001
1000
0000
,
0001
0010
0001
0000
,
0001
1000
0001
0000
,
1000
0010
0100
0000
,
0100
0001
0010
0000
,
0010
0001
1000
0100
,
2000
0000
0000
3000
,
0100
0000
0010
0000
,
0001
0000
0100
0000
,
0010
1000
0010
1000
,
0100
0000
1000
0000
,
0020
0000
0030
0100
,
0001
0000
0010
0000
,
0001
0100
0010
1000
,
0200
0000
0000
0300
,
1000
0010
0100
0001
,
0010
0001
0100
0010
,
1000
0100
1000
0010
,
1000
0001
0010
0100
,
1000
0000
0010
0100
,
0001
0010
0001
1000
,
0010
0100
0001
0010
,
0002
0000
0000
0000
,
0003
1000
0010
0100
,
0001
0000
0010
0000
,
0100
0000
0000
0010
,
0002
0000
0000
0000
,
0000
0003
0000
0100
,
0010
2000
0000
0000
,
0000
3000
0000
0000
,
0020
0000
0000
0000
,
0030
0100
0001
0010
,
0001
0000
0100
0000
,
0010
0000
0000
0010
,
2000
0000
0000
0000
,
0000
3000
0000
0010
,
0100
0002
0000
0000
,
0000
0003
0000
0000
;
