#TITLE:Chimpanzee Tank;
#SUBTITLE:;
#ARTIST:m1dy;
#TITLETRANSLIT:;
#SUBTITLETRANSLIT:;
#ARTISTTRANSLIT:;
#GENRE:;
#CRChallenge:;
#BANNER:tank.png;
#BACKGROUND:tank-bg.png;
#LYRICSPATH:;
#CDTITLE:;
#MUSIC:tank.ogg;
#OFFSET:0.000;
#SAMPLESTART:22.387;
#SAMPLELENGTH:12.000;
#SELECTABLE:YES;
#BPMS:0.000=360.000;
#STOPS:127.000=0.667
,128.000=0.500
,504.500=1.333
;
#BGCHANGES:;
#KEYSOUNDS:;
#NOTES:
     dance-single:
     Renard:
     Hard:
     11:
     0.929,0.000,0.326,0.375,0.000:
0000
0000
0000
0000
,
0000
0000
0000
0000
,
0000
0000
0000
0000
,
0000
0000
0000
0000
,
0000
0000
0000
0000
,
0000
0000
0000
0000
,
0000
0000
0000
0000
,
0000
0000
0000
0000
,
0001
0000
1000
0001
0100
0000
0001
0000
,
1000
0001
0100
0000
0001
0100
0010
1000
,
0001
0000
1000
0001
0100
0000
0001
0000
,
1000
0001
0100
0000
0001
0100
0010
1000
,
0001
0000
1000
0001
0100
0000
0001
0000
,
1000
0001
0100
0000
0001
0100
0010
1000
,
0M01
0M02
00M0
10M0
,
2MM0
0000
3013
0000
,
0101
0000
0000
0010
0000
1000
0100
0000
,
2000
0100
3000
0011
,
0000
0001
0010
0000
0100
0000
1000
0000
,
0201
0000
0000
0000
0310
1000
0010
0000
,
1000
0010
0000
0100
0000
0001
0010
0000
,
0002
0010
0003
1100
,
0000
1000
0100
0000
0010
0000
0001
0000
,
1020
0000
0000
0000
0130
0001
0100
0000
,
0001
0100
0000
0010
0000
1000
0100
0000
,
2000
0100
3000
0011
,
0000
0001
0010
0000
0100
0000
1000
0000
,
0201
0000
0000
0000
0310
1000
0010
0000
,
1000
0010
0000
1000
0000
0001
0100
0000
,
0001
2000
0000
3100
,
0000
0100
1000
0000
0001
0000
0010
0000
,
0001
1000
0001
0100
0001
1000
0001
0000
,
0000
0000
1000
0000
0001
1000
0100
0000
,
1000
0000
0001
1000
0100
0000
1000
0100
,
0010
0001
1000
0000
0001
1000
0010
0000
,
1000
0000
0001
1000
0010
0000
1000
0001
,
0010
0100
1000
0000
0001
1000
0100
0000
,
1000
0000
0001
1000
0100
0000
1000
0100
,
0010
0001
1000
0000
0001
1000
0010
0000
,
1000
0000
0001
1000
0010
0000
1000
0010
,
0100
0000
0001
0000
1000
0001
0010
0000
,
0001
0000
1000
0001
0010
0000
0001
0010
,
0100
1000
0001
0000
1000
0001
0100
0000
,
0001
0000
1000
0001
0100
0000
0001
1000
,
0100
0000
2200
0000
0000
3310
0000
0000
,
0202
0000
0000
0313
0000
0000
1001
0000
,
0000
0000
2200
0000
0000
3310
0000
0000
,
2002
0000
0000
3013
0000
0000
0101
0000
,
0000
0001
0100
1000
,
0100
0001
0010
1000
,
0010
0001
0100
1000
,
0100
0001
0001
0010
,
0010
0100
1000
0100
,
0001
0100
1000
0010
,
0001
0010
2000
0200
,
0010
0000
0001
0300
,
3100
0000
100M
01M0
0000
11MM
0000
01M0
,
100M
0000
0001
1000
,
0001
0000
01M0
M001
0000
M1M1
0000
M001
,
01M0
0000
0000
1001
0000
0000
0010
0000
,
0000
0000
100M
01M0
0000
11MM
0000
01M0
,
100M
0000
0001
1000
,
0001
0000
2200
0000
0000
3310
0000
0000
,
0202
0000
0000
0313
0000
0000
1001
0000
,
0000
0000
0001
0000
0000
0000
0001
0100
,
1000
0000
0000
0000
1000
0100
0001
0000
,
0000
0000
0001
0000
0000
0000
0001
0100
,
1000
0000
0000
0000
1000
0100
0001
0000
,
0000
0000
0001
0000
0000
0000
0001
0010
,
1000
0000
0000
0000
1000
0010
0001
0000
,
0000
0000
0001
0000
0000
0000
0001
1000
,
0100
0000
0000
0000
0100
0001
0100
0000
,
1000
0000
0001
0000
0000
0000
0001
0100
,
1000
0000
0000
0000
1000
0100
0001
0000
,
0000
0000
0001
0000
0000
0000
0001
0010
,
1000
0000
0000
0000
1000
0010
0001
0000
,
0000
2000
0000
0000
,
0200
0000
0000
0000
,
0000
0000
0001
0000
0000
0001
0000
0000
,
3301
0000
0100
1001
,
0000
0000
0001
0000
1000
0001
0100
0000
,
0001
0000
1000
0001
0100
0000
0001
0100
,
0010
1000
0001
0000
1000
0100
1000
0000
,
0001
0000
1000
0100
1000
0000
0100
1000
,
0001
0010
0001
0000
1000
0100
1000
0000
,
0001
0000
1000
0100
1000
0000
0010
1000
,
0001
0100
0001
0000
1000
0100
1000
0000
,
0001
0000
0100
0001
0100
0000
0001
1000
,
0100
0000
1000
0000
0001
1000
0010
0000
,
1000
0000
0001
1000
0010
0000
1000
0010
,
0100
0001
1000
0000
0001
0010
0001
0000
,
1000
0000
0001
0010
0001
0000
0010
0001
,
1000
0100
1000
0000
0001
0010
0001
0000
,
1000
0000
0001
0010
0001
0000
0100
0001
,
1000
0010
1000
0000
0000
0101
0000
0000
,
0010
0000
0000
2002
0000
0000
3013
0000
,
0000
0000
0001
0100
0000
0010
1000
0000
,
0001
0100
0000
0010
1000
0000
0100
0000
,
1000
0000
0001
0010
0000
0100
1000
0000
,
0001
0010
0000
0100
1000
0000
0001
0000
,
0010
0000
0100
1000
0000
0001
0100
0000
,
0010
1000
0000
0001
0100
0000
0010
0000
,
1000
0000
0100
0010
0000
0001
0010
0000
,
0100
1000
0000
0001
0100
0000
0010
0000
,
0000
0000
1000
0010
0000
0100
0001
0000
,
0100
0010
0000
1000
0010
0000
0100
0000
,
0001
0000
0100
0010
0000
1000
0001
0000
,
0100
0010
0000
1000
0100
0000
1000
0000
,
0000
0000
0001
0010
0000
0100
1000
0000
,
0001
0010
0000
0100
1000
0000
0002
0000
,
2000
3013
0000
0000
,
0000
0000
1011
0000
,
0000
0000
0001
1000
0000
0100
0000
0010
,
0001
0010
0100
1000
,
0001
0000
0100
0010
1000
0000
0100
0000
,
0010
0001
0010
0100
,
1000
0000
0001
0100
0000
0010
0000
1000
,
0100
0010
0001
0010
,
0100
0000
1000
0001
0010
0000
0100
0000
,
1000
0001
0100
0010
,
1000
0000
0100
0010
0000
0001
0000
0010
,
0100
1000
0001
0100
,
0010
0000
1000
0100
0010
0000
0001
0000
,
0010
0100
1000
0001
,
0100
0000
0010
1000
0001
0100
0010
1000
,
0100
0010
0001
0010
0100
1000
0001
0100
,
0010
1000
1010
0000
0000
0100
0000
0001
,
0010
0002
0010
0003
,
1100
0000
0000
1000
0100
0000
0010
0000
,
0001
0000
1020
0000
0000
0000
0130
0001
,
0100
0000
0001
0100
0000
0010
0000
1000
,
0100
2000
0100
3000
,
0011
0000
0000
0001
0010
0000
0100
0000
,
1000
0000
0201
0000
0000
0000
0310
1000
,
0010
0000
1000
0010
0000
0100
0000
0001
,
0010
0002
0010
0003
,
1100
0000
0000
1000
0100
0000
0010
0000
,
0001
0000
1020
0000
0000
0000
0130
0001
,
0100
0000
0001
0100
0000
0001
0000
1000
,
0010
1000
0002
0000
,
0013
0000
0000
0010
0001
0000
1000
0000
,
0100
0000
1000
0100
0010
0000
2002
0000
,
0000
3113
0000
0000
;
#NOTES:
     dance-single:
     pyroko:
     Medium:
     9:
     0.650,0.000,0.099,0.197,0.000:
0000
0000
0000
0000
,
0000
0000
0000
0000
,
0000
0000
0000
0000
,
0000
0000
0000
0000
,
0000
0000
0000
0000
,
0000
0000
0000
0000
,
0000
0000
0000
0000
,
0000
0000
0000
0000
,
1000
0000
0000
0001
0100
0000
0010
0000
,
0000
1000
0100
0000
0010
0000
0100
0000
,
1000
0000
0001
0010
0000
0001
0000
0000
,
1000
0010
0000
0100
0000
0010
0000
1000
,
0000
0100
0010
0000
0001
0000
0000
0000
,
1000
0010
0100
0000
,
0202
0000
0000
0000
,
0000
0000
0000
0303
,
1000
0000
0010
0100
0000
0010
0000
1000
,
0000
0200
0000
0000
0000
0000
0310
0000
,
0100
1000
0000
0100
0000
0010
0000
0002
,
0000
0000
0000
0000
0000
0000
0000
1003
,
0000
0000
0010
0100
0000
0010
0000
1000
,
0000
0200
0000
0000
0000
0000
0310
0000
,
0000
0001
1000
0000
0001
0000
0100
0000
,
0020
0000
0000
0000
0000
0000
0000
1030
,
0000
0000
0100
0010
0000
0100
0000
1000
,
0000
0002
0000
0000
0000
0000
0013
0000
,
0000
0001
1000
0000
0001
0000
0100
0000
,
0020
0000
0000
0000
,
1030
0000
0000
0100
0010
0000
0100
0000
,
1000
0001
0000
0010
,
0000
0001
1000
0000
0001
0000
0100
0000
,
0010
1000
0100
0010
,
0000
1000
0010
0100
,
0010
1000
0100
0010
,
0100
1000
0001
0010
,
0001
1000
0001
0100
,
0010
0100
0010
1000
,
0100
0010
0100
1000
,
0100
0010
0001
1000
,
0010
0100
0010
0001
,
0010
0100
0010
1000
,
0100
0010
0100
1000
,
0100
0010
0001
1000
,
0010
0100
0010
0001
,
0010
0000
1000
0000
0100
0000
0000
0010
,
0000
0000
0100
0000
0000
1000
0000
0000
,
0000
0001
0000
0000
0010
0000
0000
0001
,
0000
0000
1000
0000
0000
0010
0000
0000
,
0000
0100
0100
0010
,
1000
0100
0010
0100
,
1000
0100
0010
0001
,
1000
0001
0010
0001
,
1000
0010
0100
0010
,
0100
0010
1000
0100
,
0010
0100
0000
0000
,
0000
0000
0000
0000
,
0000
0000
1000
0100
0000
0010
0100
0000
,
1000
0100
0000
0010
0001
0000
1000
0000
,
0001
0000
1000
0001
0000
0001
1000
0000
,
0010
0100
0000
0001
0010
0000
0001
0000
,
1000
0000
1000
0010
0000
0100
0010
0000
,
1000
0010
0000
0100
0010
0000
1000
0000
,
0100
0000
0110
0000
0000
1100
0000
0000
,
1001
0000
0000
0101
0000
0000
0000
0000
,
1000
0000
0100
0010
,
0000
0001
1000
0000
,
0020
0000
0000
0000
,
0030
0000
0000
0000
,
0100
0000
0100
0000
,
0100
0000
0000
0010
,
0000
2000
0000
0000
,
3000
0000
0000
0000
,
0100
0000
0010
0001
,
0000
1000
0010
0000
,
2000
0000
0000
0000
,
3000
0000
1010
0000
,
1001
0000
0000
2002
,
0000
0000
0000
0000
,
0000
0000
0000
3003
,
0000
0000
0010
1000
,
0001
0000
0000
0000
1000
0010
0000
0100
,
0000
0000
0010
1000
0000
0100
0000
0010
,
0000
0000
0100
0000
1000
0100
0000
0010
,
0000
0000
0100
1000
0000
0100
0000
0010
,
0000
0000
0100
0000
1000
0100
0000
0010
,
0000
0000
0100
1000
0000
0100
0000
0010
,
0000
0001
0000
0000
1000
0001
0000
0010
,
0000
0000
0001
0100
0000
0010
0000
0100
,
0000
0010
0000
0000
1000
0100
0000
0010
,
0000
0000
0100
1000
0000
0100
0000
0010
,
0000
0100
0000
0000
1000
0001
0000
0010
,
0000
0000
0001
1000
0000
0001
0000
0010
,
0000
0001
0000
0000
1000
0010
0000
0100
,
0000
0000
0010
0100
0000
0010
0000
1000
,
0000
0100
0000
0000
0010
0000
0000
0100
,
0000
0000
1000
0000
0000
0100
0000
0000
,
0000
0010
0000
0001
0000
1000
0000
0000
,
0001
0000
0000
0010
0000
0001
0000
1000
,
0000
0010
0000
0000
0100
0000
0000
0010
,
0000
0000
0001
0000
0000
0010
0000
0100
,
0000
0010
0000
0000
1000
0000
0000
0100
,
0000
0000
0010
0000
0000
0100
0000
1000
,
0000
0100
0000
0000
0010
0000
0000
0100
,
0000
0000
1000
0000
0000
0001
0010
0001
,
0000
1000
0000
0000
0001
0000
0010
0000
,
0000
0000
0001
0000
0000
1000
0000
0010
,
0000
0100
0000
0000
0010
0000
0000
1000
,
0000
0000
0010
0000
0000
0100
0010
0100
,
0000
0010
0000
0000
1000
0000
0000
0100
,
0000
0000
0010
0000
0000
0001
0000
1000
,
0000
1001
0000
0000
0000
0000
0000
0000
,
0000
0000
2000
0000
,
3000
0010
0100
0010
,
1000
0100
0010
0100
,
1000
0001
0010
0001
,
1000
0010
0100
0010
,
0001
0010
1000
0100
,
0010
0100
1000
0100
,
0010
0001
1000
0001
,
0100
0010
0001
0010
,
0100
0010
1000
0100
,
0010
0100
1000
0100
,
0010
0001
1000
0010
,
0100
0010
0001
0010
,
1000
0100
0010
0100
,
1000
0100
0010
0001
,
1000
0010
0001
0000
0100
0010
0000
0100
,
0000
0001
0000
0020
0000
0000
0000
0000
,
0130
0000
0010
0001
0000
0010
0000
0100
,
0000
2000
0000
0000
0000
0000
0000
0000
,
0000
3001
0000
0000
0100
0010
0000
0100
,
0000
0001
0000
0020
0000
0000
0000
0000
,
0130
0000
0000
1000
0001
0000
1000
0000
,
0010
0200
0000
0000
,
0000
0301
0000
0000
0010
0100
0000
0010
,
0000
0001
0000
2000
0000
0000
0000
0000
,
3100
0000
0000
1000
0001
0000
1000
0000
,
0010
0200
0000
0000
,
0000
0000
0310
0000
1000
0100
0000
0010
,
0000
0001
0000
0100
0000
0000
0000
0000
,
0010
1000
0100
0010
,
0001
1000
0010
0100
,
0001
0101
0000
0000
;
#NOTES:
     dance-single:
     pyroko:
     Easy:
     7:
     0.362,0.000,0.020,0.010,0.000:
0000
0000
0000
0000
,
0000
0000
0000
0000
,
0000
0000
0000
0000
,
0000
0000
0000
0000
,
0000
0000
0000
0000
,
0000
0000
0000
0000
,
0000
0000
0000
0000
,
0000
0000
0000
0000
,
1000
0000
0000
0010
,
0000
0000
0100
0000
,
0010
0000
0000
1000
,
0000
0000
0100
0000
,
0010
0000
0000
0100
,
0000
0000
1000
0000
,
0100
0000
0000
0000
,
0000
0000
0000
0000
,
0010
0000
0000
0001
,
0000
0000
0000
0000
,
1000
0000
0010
0100
,
0000
0000
0010
0000
,
0000
0000
1000
0000
,
0100
0010
0000
0000
,
0100
1000
0000
0100
,
0010
0000
0000
0000
,
0001
0000
1000
0000
,
0001
0100
0000
0000
,
0010
0000
1000
0000
,
0100
0010
0000
0000
,
0100
0000
1000
0000
,
0100
0010
0000
0000
,
0001
0000
1000
0000
,
0000
0010
0000
0100
,
0000
0000
0010
0000
,
1000
0000
0000
0100
,
0010
0100
0000
0000
,
1000
0000
0000
0100
,
0010
0001
0000
0000
,
1000
0000
0000
0001
,
0100
0010
0000
0000
,
0100
0000
0000
0010
,
1000
0100
0000
0000
,
0010
0000
0000
0100
,
1000
0100
0000
0000
,
0010
0000
0000
0001
,
1000
0001
0000
0000
,
0000
1000
0000
0010
,
0000
0000
0100
0000
0000
0000
0000
0010
,
0000
0000
0000
0000
0000
1000
0000
0000
,
0000
0100
0000
0000
,
0010
0000
0000
0001
,
0000
1000
0000
0000
,
0001
0000
0000
0100
,
0010
0100
0000
0000
,
0010
0000
0000
1000
,
0100
2000
0000
0000
,
0000
0000
0000
3000
,
0000
0100
0000
0000
,
0010
0000
0000
0100
,
1000
0100
0000
0000
,
1000
0000
0000
0001
,
0010
0001
0000
0000
,
0010
0000
0000
0001
,
0100
0101
0000
0000
,
0000
0000
0000
0000
,
0000
0000
0010
0000
0000
0000
0000
1000
,
0000
0000
0000
0010
,
1000
0010
0000
0000
,
0000
0100
0000
0000
0000
0000
0000
0000
,
0000
0001
0000
0000
,
0000
0010
0000
0000
0000
0000
0000
0000
,
0000
0100
0000
0000
,
0000
0000
0000
0000
,
0000
1000
0000
0000
,
0010
0000
0000
1000
,
0010
1000
0000
0000
,
0000
0000
0000
0000
,
0000
0001
0000
0000
,
0000
0000
0000
0000
,
0000
0010
0000
0000
,
0000
0000
0000
0000
,
0000
0100
0000
0000
,
1000
0000
0000
0100
,
0010
0100
0000
0000
,
1000
0000
0000
0100
,
0010
0001
0000
0000
,
0010
0000
0000
0001
,
1000
0001
0000
1000
,
0000
0000
0010
0000
,
0100
0000
0010
0000
,
1000
0000
0000
0100
,
0010
0100
0000
0000
,
0010
0000
0000
0100
,
1000
0100
0000
0000
,
1000
0000
0000
0100
,
0010
0100
1000
0001
,
0010
0001
0000
1000
,
0001
0010
0000
0001
,
0000
1000
0000
0000
0000
0001
0000
0000
,
0000
0000
0010
0000
0000
0001
0000
0000
,
1000
0000
0000
0001
0000
0000
0010
0000
,
0000
0000
0001
0000
0000
1000
0000
0000
,
0001
0000
0000
0010
0000
0001
0000
0000
,
0000
0000
1000
0000
0000
0010
0000
0000
,
1000
0000
0000
0100
0000
0000
1000
0000
,
0000
0000
0010
0000
0000
0000
0000
0100
,
0000
0000
0000
0000
0000
0010
0000
0000
,
0000
0000
1000
0000
0000
0100
0000
0000
,
0010
0000
0000
0100
0000
1000
0000
0000
,
0000
0100
0000
0000
,
0010
0000
0000
0000
0000
0001
0000
0000
,
0000
1000
0000
0000
0000
0000
0000
0000
,
0000
0000
0000
0000
,
0000
0001
0100
0001
,
1000
0001
1000
0000
,
0000
0010
0100
0010
,
1000
0100
0010
0000
,
0000
0100
1000
0100
,
0010
0100
1000
0000
,
0000
0001
0010
0001
,
1000
0001
0010
0000
,
0001
1000
0001
0010
,
0001
1000
0000
0000
,
0000
0010
0100
0010
,
1000
0100
0010
0000
,
0100
1000
0100
0010
,
0100
1000
0000
0000
,
0000
0001
1000
0000
0000
0000
0001
0000
,
0000
0100
0010
0000
,
1000
0000
0100
0000
,
0010
0100
0000
0000
,
1000
0000
0100
0000
,
0000
0010
0001
0000
,
1000
0000
0000
0001
,
0100
0010
0000
0000
,
1000
0000
0100
0010
,
0100
1000
0100
0000
,
0000
0010
0000
0100
,
1000
0100
0000
0000
,
0010
0000
0000
0001
,
0000
1000
0001
0000
,
0100
0000
0010
0000
,
1000
0000
0000
0100
,
0000
0011
0000
0000
;
#NOTES:
     dance-single:
     pyroko:
     Beginner:
     2:
     0.158,0.000,0.138,0.000,0.000:
0000
0000
0000
0000
,
0000
0000
0000
0000
,
0000
0000
0000
0000
,
0000
0000
0000
0000
,
0000
0000
0000
0000
,
0000
0000
0000
0000
,
0000
0000
0000
0000
,
0000
0000
0000
0000
,
1001
0000
0000
0000
,
0000
0000
0000
0000
,
0001
0000
0000
1000
,
0000
0000
0010
0000
,
0100
0000
0000
0010
,
0000
0000
1000
0000
,
0100
0000
0000
0000
,
0000
0000
0000
0000
,
1001
0000
0000
0000
,
0000
0000
0000
0000
,
1001
0000
0000
0000
,
0000
0000
0000
0000
,
0110
0000
0000
0000
,
0000
0000
0000
0000
,
1100
0000
0000
0000
,
0000
0000
0000
0000
,
0011
0000
0000
0000
,
0000
0000
0000
0000
,
1001
0000
0000
0000
,
0000
0000
0000
0000
,
0110
0000
0000
0000
,
0000
0000
0000
0000
,
0010
0000
1000
0000
,
0000
0000
0000
0100
,
0000
0000
0000
0000
,
0010
0000
0000
1000
,
0000
0100
0000
0000
,
0010
0000
0000
0000
,
0000
0001
0000
0000
,
1000
0000
0000
0000
,
0000
0010
0000
0000
,
0100
0000
0000
0000
,
0000
0001
0000
0000
,
1000
0000
0000
0000
,
0000
0010
0000
0000
,
0100
0000
0000
0000
,
0000
0001
0000
0000
,
0000
0000
0000
0000
,
0000
1000
0000
0000
,
0000
0000
0000
0000
,
0000
0010
0000
0000
,
0000
0000
0000
0000
,
0000
0100
0000
0000
,
0000
0000
0000
0000
,
0000
0001
0000
0000
,
0000
0000
0000
0000
,
0000
1000
0000
0000
,
0000
0000
0000
0000
,
0000
0100
0000
0000
,
0000
0000
0000
0000
,
0000
0010
0000
0000
,
0000
0000
0000
0000
,
0000
0001
0000
0000
,
0000
0000
0000
0000
,
0000
1001
0000
0000
,
0000
0000
0000
0000
,
0000
0010
0000
0000
,
0100
0000
0000
0010
,
0000
1000
0000
0000
,
0000
0000
0000
0000
,
0000
0100
0000
0000
,
0010
0000
0000
0000
,
0000
0001
0000
0000
,
0000
0000
0000
0000
,
0000
1000
0000
0000
,
0010
0000
0000
0000
,
0000
0100
0000
0000
,
0000
0000
0000
0000
,
0000
0001
0000
0000
,
0000
0000
0000
0000
,
0000
1000
0000
0000
,
0000
0000
0000
0000
,
0000
1001
0000
0000
,
0000
0000
0000
0000
,
0000
0110
0000
0000
,
0000
0000
0000
0000
,
0000
1001
0000
0000
,
0000
0000
0000
0000
,
0000
0100
0000
0000
,
0000
0010
0000
0000
,
0000
0001
0000
0000
,
0000
0000
0000
0000
,
0000
1000
0000
0000
,
0000
0000
0000
0000
,
0000
0010
0000
0000
,
0000
0000
0000
0000
,
0100
0000
0000
0010
,
0000
0000
0000
0100
,
0000
0010
0000
0000
,
0000
0000
0000
0000
,
0000
1000
0000
0000
,
0000
0000
0000
0000
,
0000
0100
0000
0000
,
0000
0000
0000
0000
,
0000
0010
0000
0000
,
0000
0000
0000
0000
,
0000
0100
0000
0000
,
0000
0000
0000
0000
,
0000
1000
0000
0000
,
0000
0000
0000
0000
,
0000
0001
0000
0000
,
0000
0000
0000
0000
,
0000
1001
0000
0000
,
0000
0000
0000
0000
,
0000
0010
0000
0000
,
0100
0000
0000
0010
,
0000
0000
0000
0000
,
0000
0000
0000
0000
,
1000
0000
0000
0100
,
0000
0010
0000
0000
,
0000
0000
0000
0000
,
0000
0000
0000
0000
,
0001
0000
0000
1000
,
0000
0001
0000
0000
,
0000
0000
0000
0000
,
0000
0000
0000
0000
,
0100
0000
0010
0000
,
0000
0100
0000
0000
,
0000
0000
0000
0000
,
0000
0010
1000
0000
,
0000
0000
0100
0000
,
0000
0000
0000
0000
,
0010
0000
0000
0001
,
0000
1000
0000
0000
,
0000
0000
0000
0000
,
0000
0000
0000
0000
,
0010
0000
0000
0100
,
0000
0010
0000
0000
,
0000
0000
0000
0000
,
0000
0000
0000
0000
,
1000
0000
0000
0100
,
0000
0010
0000
0000
,
0000
0001
0000
0000
,
0000
1000
0000
0000
,
0000
1001
0000
0000
;
